Начать новую тему Ответить на тему
Статистика раздачи
Размер: 393.95 МБ | Добавлен: 26 мар 2019, 18:44 | Скачали: 0
Сидеров: 0  [0 байт/сек]    Личеров: 0  [0 байт/сек]
Пред. тема | След. тема 

Автор
Сообщение

СообщениеДобавлено: 26 мар 2019, 18:44 

Ответить с цитатой 

Di Leva


Жанр: Pop Rock
Год издания: 1996-1997
Издатель (лейбл): Mega Records
Аудиокодек: FLAC (*.flac)
Тип рипа: tracks+.cue
Битрейт аудио: lossless
Продолжительность: 36:36
Источник (релизер): собственные рипы
Наличие сканов в содержимом раздачи: да
Продолжительность: 19:13
01. Di Leva - Den Glada Stjarnan [03:37]
02. Di Leva - Happy Star [03:38]
03. Di Leva - Happy Star (Space Peace remix) [05:32]
04. Di Leva - Golden Ray [06:25]
Код:
Exact Audio Copy V1.0 beta 3 from 29. August 2011
EAC extraction logfile from 10. December 2011, 23:56
Di Leva / Den Glada Stjärnan / Happy Star
Used drive  : ASUS    DRW-2014L1   Adapter: 0  ID: 1
Read mode               : Secure
Utilize accurate stream : Yes
Defeat audio cache      : Yes
Make use of C2 pointers : No
Read offset correction                      : 6
Overread into Lead-In and Lead-Out          : No
Fill up missing offset samples with silence : Yes
Delete leading and trailing silent blocks   : No
Null samples used in CRC calculations       : Yes
Used interface                              : Native Win32 interface for Win NT & 2000
Gap handling                                : Appended to previous track
Used output format              : User Defined Encoder
Selected bitrate                : 128 kBit/s
Quality                         : High
Add ID3 tag                     : No
Command line compressor         : C:\Program Files (x86)\Exact Audio Copy\Flac\flac.exe
Additional command line options : -8 -V -T "ARTIST=%artist%" -T "TITLE=%title%" -T "ALBUM=%albumtitle%" -T "DATE=%year%" -T "TRACKNUMBER=%tracknr%" -T "GENRE=%genre%" -T "COMMENT=ripped by Andy aka yetiisyou" %source%
TOC of the extracted CD
     Track |   Start  |  Length  | Start sector | End sector
    ---------------------------------------------------------
        1  |  0:00.00 |  3:37.05 |         0    |    16279
        2  |  3:37.05 |  3:38.62 |     16280    |    32691
        3  |  7:15.67 |  5:32.13 |     32692    |    57604
        4  | 12:48.05 |  6:25.00 |     57605    |    86479
Track  1
     Filename E:\!Rips\Di Leva – Den Glada Stjarnan - Happy Star [Mega Records – MRCXCD 2788] [1996]\01 - Den Glada Stjärnan.wav
     Pre-gap length  0:00:02.00
     Peak level 99.9 %
     Extraction speed 4.9 X
     Track quality 100.0 %
     Test CRC 76031405
     Copy CRC 76031405
     Track not present in AccurateRip database
     Copy OK
Track  2
     Filename E:\!Rips\Di Leva – Den Glada Stjarnan - Happy Star [Mega Records – MRCXCD 2788] [1996]\02 - Happy Star.wav
     Pre-gap length  0:00:02.65
     Peak level 99.9 %
     Extraction speed 5.4 X
     Track quality 100.0 %
     Test CRC D46A97F8
     Copy CRC D46A97F8
     Track not present in AccurateRip database
     Copy OK
Track  3
     Filename E:\!Rips\Di Leva – Den Glada Stjarnan - Happy Star [Mega Records – MRCXCD 2788] [1996]\03 - Happy Star (Space Peace remix).wav
     Pre-gap length  0:00:03.15
     Peak level 99.9 %
     Extraction speed 6.2 X
     Track quality 100.0 %
     Test CRC 15613249
     Copy CRC 15613249
     Track not present in AccurateRip database
     Copy OK
Track  4
     Filename E:\!Rips\Di Leva – Den Glada Stjarnan - Happy Star [Mega Records – MRCXCD 2788] [1996]\04 - Golden Ray.wav
     Pre-gap length  0:00:01.40
     Peak level 99.9 %
     Extraction speed 6.9 X
     Track quality 100.0 %
     Test CRC F9BCE4E3
     Copy CRC F9BCE4E3
     Track not present in AccurateRip database
     Copy OK
None of the tracks are present in the AccurateRip database
No errors occurred
End of status report
---- CUETools DB Plugin V2.1.3
[CTDB TOCID: mt4uCMtir9Vugjr6JUvidWrFHpA-] disk not present in database, Submit result: mt4uCMtir9Vugjr6JUvidWrFHpA- has been uploaded
==== Log checksum 62749E0F046B3AA71846C08D956BC12288E9D7B2C82EB361AA1D1C83CC758243 ====
Код:
REM DATE 1996
REM DISCID 2A048104
REM COMMENT "ExactAudioCopy v1.0b3"
CATALOG 0000000000000
PERFORMER "Di Leva"
TITLE "Den Glada Stjarnan / Happy Star"
FILE "01 - Den Glada Stjarnan.wav" WAVE
  TRACK 01 AUDIO
    TITLE "Den Glada Stjarnan"
    PERFORMER "Di Leva"
    ISRC <kA3B9605601
    INDEX 01 00:00:00
  TRACK 02 AUDIO
    TITLE "Happy Star"
    PERFORMER "Di Leva"
    ISRC <kA3B9605602
    INDEX 00 03:34:15
FILE "02 - Happy Star.wav" WAVE
    INDEX 01 00:00:00
  TRACK 03 AUDIO
    TITLE "Happy Star (Space Peace remix)"
    PERFORMER "Di Leva"
    ISRC <kA3B9605603
    INDEX 00 03:35:47
FILE "03 - Happy Star (Space Peace remix).wav" WAVE
    INDEX 01 00:00:00
  TRACK 04 AUDIO
    TITLE "Golden Ray"
    PERFORMER "Di Leva"
    ISRC <kA3B9605604
    INDEX 00 05:30:48
FILE "04 - Golden Ray.wav" WAVE
    INDEX 01 00:00:00
#777Продолжительность: 17:22
01. Di Leva - Svarta Parlan I London [03:38]
02. Di Leva - Spelar Helt Normal [03:55]
03. Di Leva - Svarta Parlan (Rod Remix) [06:34]
04. Di Leva - Hjalpa Till [03:15]
Код:
Exact Audio Copy V1.0 beta 3 from 29. August 2011
EAC extraction logfile from 11. December 2011, 19:37
Di Leva / Svarta Parlan I London
Used drive  : ASUS    DRW-2014L1   Adapter: 0  ID: 1
Read mode               : Secure
Utilize accurate stream : Yes
Defeat audio cache      : Yes
Make use of C2 pointers : No
Read offset correction                      : 6
Overread into Lead-In and Lead-Out          : No
Fill up missing offset samples with silence : Yes
Delete leading and trailing silent blocks   : No
Null samples used in CRC calculations       : Yes
Used interface                              : Native Win32 interface for Win NT & 2000
Gap handling                                : Appended to previous track
Used output format              : User Defined Encoder
Selected bitrate                : 128 kBit/s
Quality                         : High
Add ID3 tag                     : No
Command line compressor         : C:\Program Files (x86)\Exact Audio Copy\Flac\flac.exe
Additional command line options : -8 -V -T "ARTIST=%artist%" -T "TITLE=%title%" -T "ALBUM=%albumtitle%" -T "DATE=%year%" -T "TRACKNUMBER=%tracknr%" -T "GENRE=%genre%" -T "COMMENT=ripped by Andy aka yetiisyou" %source%
TOC of the extracted CD
     Track |   Start  |  Length  | Start sector | End sector
    ---------------------------------------------------------
        1  |  0:00.00 |  3:38.40 |         0    |    16389
        2  |  3:38.40 |  3:55.07 |     16390    |    34021
        3  |  7:33.47 |  6:34.03 |     34022    |    63574
        4  | 14:07.50 |  3:15.22 |     63575    |    78221
Track  1
     Filename E:\!Rips\Di Leva – Svarta Parlan I London [Mega Records – MRCXCD 2854] [1997]\01 - Svarta Pärlan I London.wav
     Pre-gap length  0:00:02.00
     Peak level 99.8 %
     Extraction speed 4.7 X
     Track quality 100.0 %
     Test CRC 77FB2840
     Copy CRC 77FB2840
     Track not present in AccurateRip database
     Copy OK
Track  2
     Filename E:\!Rips\Di Leva – Svarta Parlan I London [Mega Records – MRCXCD 2854] [1997]\02 - Spelar Helt Normal.wav
     Pre-gap length  0:00:01.70
     Peak level 99.9 %
     Extraction speed 5.5 X
     Track quality 100.0 %
     Test CRC 9D1124B7
     Copy CRC 9D1124B7
     Track not present in AccurateRip database
     Copy OK
Track  3
     Filename E:\!Rips\Di Leva – Svarta Parlan I London [Mega Records – MRCXCD 2854] [1997]\03 - Svarta Parlan (Rod Remix).wav
     Pre-gap length  0:00:01.70
     Peak level 99.9 %
     Extraction speed 6.0 X
     Track quality 99.9 %
     Test CRC C626296A
     Copy CRC C626296A
     Track not present in AccurateRip database
     Copy OK
Track  4
     Filename E:\!Rips\Di Leva – Svarta Parlan I London [Mega Records – MRCXCD 2854] [1997]\04 - Hjalpa Till.wav
     Pre-gap length  0:00:02.70
     Peak level 56.1 %
     Extraction speed 6.2 X
     Track quality 100.0 %
     Test CRC 7DCEC2C9
     Copy CRC 7DCEC2C9
     Track not present in AccurateRip database
     Copy OK
None of the tracks are present in the AccurateRip database
No errors occurred
End of status report
---- CUETools DB Plugin V2.1.3
[CTDB TOCID: xOa6J3C6uLIhFL_IlMhTr6cYbWc-] disk not present in database, Submit result: xOa6J3C6uLIhFL_IlMhTr6cYbWc- has been uploaded
==== Log checksum 271892FDED5530764EC1A8B5927F62AC78A1E171145746A24E2EFE9C38FBDC7F ====
Код:
REM GENRE Rock
REM DATE 1997
REM DISCID 29041204
REM COMMENT "ExactAudioCopy v1.0b3"
PERFORMER "Di Leva"
TITLE "Svarta Parlan I London "
FILE "01 - Svarta Parlan I London.wav" WAVE
  TRACK 01 AUDIO
    TITLE "Svarta Parlan I London"
    PERFORMER "Di Leva"
    ISRC <kA3B9701802
    INDEX 01 00:00:00
  TRACK 02 AUDIO
    TITLE "Spelar Helt Normal"
    PERFORMER "Di Leva"
    ISRC <kA3B9702602
    INDEX 00 03:36:45
FILE "02 - Spelar Helt Normal.wav" WAVE
    INDEX 01 00:00:00
  TRACK 03 AUDIO
    TITLE "Svarta Parlan (Rod Remix)"
    PERFORMER "Di Leva"
    ISRC <kA3B9702603
    INDEX 00 03:53:12
FILE "03 - Svarta Parlan (Rod Remix).wav" WAVE
    INDEX 01 00:00:00
  TRACK 04 AUDIO
    TITLE "Hjalpa Till"
    PERFORMER "Di Leva"
    ISRC <kA3B9702603
    INDEX 00 06:31:08
FILE "04 - Hjalpa Till.wav" WAVE
    INDEX 01 00:00:00
Правила, инструкции, FAQ!!!
Торрент  Добавлен [26 мар 2019, 18:44] Скачать торрент Магнет ссылка
Скачать торрент
[ Размер 18.5 КБ / Просмотров 2 ]

Статус
Проверен 
 
Размер  393.95 МБ
Приватный: Нет (DHT включён)
.torrent скачан  0
 


     Отправить личное сообщение
   
Страница 1 из 1
Показать сообщения за:  Поле сортировки  
Начать новую тему Ответить на тему


Сейчас этот форум просматривают: нет зарегистрированных пользователей и гости: 0


Вы не можете начинать темы
Вы не можете отвечать на сообщения
Вы не можете редактировать свои сообщения
Вы не можете удалять свои сообщения
Вы не можете добавлять вложения

Перейти:  
cron