Начать новую тему Ответить на тему
Статистика раздачи
Размер: 311.91 МБ | Добавлен: 26 мар 2019, 19:11 | Скачали: 0
Сидеров: 0  [0 байт/сек]    Личеров: 0  [0 байт/сек]
Пред. тема | След. тема 

Автор
Сообщение

СообщениеДобавлено: 26 мар 2019, 19:11 

Ответить с цитатой 

Lemonator - Grandpop
Жанр: Pop Rock
Страна: Finland
Год издания: 2003
Издатель (лейбл): ФОНО, 2004
Номер по каталогу: FO397CD
Страна-производитель диска: Russia
Аудиокодек: FLAC (*.flac)
Тип рипа: image+.cue
Битрейт аудио: lossless
Продолжительность: 39:57
Источник: CD из личной коллекции
Наличие сканов в содержимом раздачи: да
Треклист:
01. 84 Seconds In The West
02. The Killer I
03. Glass Boy
04. Broken Record
05. We'll Be The Flowers On Our Grave
06. Yearbook 2001
07. Poor Happy Man
08. Is It You?
09. Can't Fall In Love
10. Ballerina
11. The Best Friends
Код:
Exact Audio Copy V0.99 prebeta 4 from 23. January 2008
Отчёт EAC об извлечении, выполненном 16. апреля 2012, 23:35
Lemonator / Grandpop
Дисковод: HL-DT-STBD-RE  BH10LS30   Adapter: 2  ID: 1
Режим чтения                 : Достоверность
Использование точного потока : Да
Отключение кэша аудио        : Да
Использование указателей C2  : Нет
Коррекция смещения при чтении                     : 667
Способность читать области Lead-in и Lead-out     : Нет
Заполнение пропущенных сэмплов тишиной            : Да
Удаление блоков с тишиной в начале и конце        : Нет
При вычислениях CRC использовались нулевые сэмплы : Да
Интерфейс                                         : Встроенный Win32-интерфейс для Win NT/2000
Выходной формат          : Пользовательский кодировщик
Выбранный битрейт        : 768 kBit/s
Качество                 : Высокий
Добавление ID3-тэга      : Нет
Утилита сжатия           : D:\Program Files\Exact Audio Copy\FLAC\FLAC.EXE
Дополнительные параметры : -6 -V -T "ARTIST=%a" -T "TITLE=%t" -T "ALBUM=%g" -T "DATE=%y" -T "TRACKNUMBER=%n" -T "GENRE=%m" -T "COMMENT=%e" %s -o %d
TOC извлечённого CD
     Трек |   Старт  | Длительность | Начальный сектор | Конечный сектор
    ---------------------------------------------------------------------
       1  |  0:00.00 |    1:24.02   |           0      |       6301
       2  |  1:24.02 |    3:25.58   |        6302      |      21734
       3  |  4:49.60 |    2:40.20   |       21735      |      33754
       4  |  7:30.05 |    3:40.38   |       33755      |      50292
       5  | 11:10.43 |    3:37.16   |       50293      |      66583
       6  | 14:47.59 |    4:50.00   |       66584      |      88333
       7  | 19:37.59 |    3:54.61   |       88334      |     105944
       8  | 23:32.45 |    4:09.07   |      105945      |     124626
       9  | 27:41.52 |    4:10.00   |      124627      |     143376
      10  | 31:51.52 |    3:44.72   |      143377      |     160248
      11  | 35:36.49 |    4:20.55   |      160249      |     179803
Характеристики диапазона извлечения и сообщения об ошибках
Выбранный диапазон
     Имя файла C:\музыка\=TORR\LEMONATOR [2003] [CD] Grandpop [EAC-FLAC] by shismrot [rutracker.org]\Lemonator - Grandpop.wav
     Пиковый уровень 99.4 %
     Качество диапазона 100.0 %
     CRC теста 78A518AC
     CRC копии 78A518AC
     Копирование... OK
Ошибок не произошло
AccurateRip: сводка
Трек  1  точность не определена (достоверность 3)  [5C520EC4], AccurateRip вернул [9B3FCD98]
Трек  2  точность не определена (достоверность 3)  [69EDFD14], AccurateRip вернул [752870B0]
Трек  3  точность не определена (достоверность 3)  [A4C91D9A], AccurateRip вернул [6C92DEF5]
Трек  4  точность не определена (достоверность 3)  [6BE8CE95], AccurateRip вернул [7D46C953]
Трек  5  точность не определена (достоверность 3)  [1154A3E5], AccurateRip вернул [8255165C]
Трек  6  точность не определена (достоверность 3)  [30E63C57], AccurateRip вернул [1EE33921]
Трек  7  точность не определена (достоверность 3)  [BAD8B34D], AccurateRip вернул [A6A942E6]
Трек  8  точность не определена (достоверность 5)  [D9856955], AccurateRip вернул [E6E28EB5]
Трек  9  точность не определена (достоверность 2)  [5AFF4E15], AccurateRip вернул [A9F4F079]
Трек 10  точность не определена (достоверность 3)  [B5BD740A], AccurateRip вернул [E815AAAF]
Трек 11  точность не определена (достоверность 2)  [12073CAC], AccurateRip вернул [40CA2260]
Ни один трек не прошёл проверки на точность
В вашей базе может быть иной вариант штамповки диска
Конец отчёта
Код:
REM GENRE Rock
REM DATE 2003
REM DISCID 97095D0B
REM COMMENT "ExactAudioCopy v0.99pb4"
CATALOG 0000000000000
PERFORMER "Lemonator"
TITLE "Grandpop"
FILE "Lemonator - Grandpop.flac" WAVE
  TRACK 01 AUDIO
    TITLE "84 Seconds In The West"
    PERFORMER "Lemonator"
    INDEX 01 00:00:00
  TRACK 02 AUDIO
    TITLE "The Killer I"
    PERFORMER "Lemonator"
    INDEX 01 01:24:02
  TRACK 03 AUDIO
    TITLE "Glass Boy"
    PERFORMER "Lemonator"
    INDEX 01 04:49:60
  TRACK 04 AUDIO
    TITLE "Broken Record"
    PERFORMER "Lemonator"
    INDEX 01 07:30:05
  TRACK 05 AUDIO
    TITLE "We'll Be The Flowers On Our Grave"
    PERFORMER "Lemonator"
    INDEX 01 11:10:43
  TRACK 06 AUDIO
    TITLE "Yearbook 2001"
    PERFORMER "Lemonator"
    INDEX 01 14:47:59
  TRACK 07 AUDIO
    TITLE "Poor Happy Man"
    PERFORMER "Lemonator"
    INDEX 01 19:37:59
  TRACK 08 AUDIO
    TITLE "Is It You?"
    PERFORMER "Lemonator"
    INDEX 01 23:32:45
  TRACK 09 AUDIO
    TITLE "Can't Fall In Love"
    PERFORMER "Lemonator"
    INDEX 01 27:41:52
  TRACK 10 AUDIO
    TITLE "Ballerina"
    PERFORMER "Lemonator"
    INDEX 01 31:51:52
  TRACK 11 AUDIO
    TITLE "The Best Friends"
    PERFORMER "Lemonator"
    INDEX 01 35:36:49
Сногсшибательный power-pop из Финляндии, в след за высочайшими позициями в хит-парадах на родине и сногсшибательным успехом в Германии, Англии и других странах Европы, теперь и в России! Как говорится, не железом единым - в Финляндии, как и в Греции есть все. Фантастический материал этого альбома записан под руководством Richard Rainey [U2, Clannad, Mansun, The Corrs], что уже о чем-то говорит. Остальное скажет музыка.
Правила, инструкции, FAQ!!!
Торрент  Добавлен [26 мар 2019, 19:11] Скачать торрент Магнет ссылка
Скачать торрент
[ Размер 13.35 КБ / Просмотров 0 ]

Статус
Проверен 
 
Размер  311.91 МБ
Приватный: Нет (DHT включён)
.torrent скачан  0
 


     Отправить личное сообщение
   
Страница 1 из 1
Показать сообщения за:  Поле сортировки  
Начать новую тему Ответить на тему


Сейчас этот форум просматривают: нет зарегистрированных пользователей и гости: 0


Вы не можете начинать темы
Вы не можете отвечать на сообщения
Вы не можете редактировать свои сообщения
Вы не можете удалять свои сообщения
Вы не можете добавлять вложения

Перейти:  
cron