Начать новую тему Ответить на тему
Статистика раздачи
Размер: 280.33 МБ | Добавлен: 26 мар 2019, 18:56 | Скачали: 0
Сидеров: 2  [0 байт/сек]    Личеров: 0  [0 байт/сек]
Пред. тема | След. тема 

Автор
Сообщение

СообщениеДобавлено: 26 мар 2019, 18:56 

Ответить с цитатой 

Lee DeWyze / Live It Up
Жанр: Pop-Rock
Страна-производитель диска: US
Год издания диска: 2010
Издатель (лейбл): 19
Номер по каталогу: 886977460920
Страна: US
Аудио кодек: FLAC (*.flac)
Тип рипа: tracks+.cue
Битрейт аудио: lossless
Продолжительность: 38:14
Источник (релизер): Personal
Наличие сканов в содержимом раздачи: нет
Треклист:
1. "Live It Up" DeWyze, Toby Gad, Lindy Robbins Gad 3:16
2. "Sweet Serendipity" DeWyze, David Glass, Jordan Lawhead Glass 3:19
3. "It's Gotta Be Love" DeWyze, Espen Lind, Amund Bjørklund, Claude Kelly Espionage 3:36
4. "Dear Isabelle" DeWyze, Gad, Robbins Gad 2:48
5. "Beautiful Like You" Thomas "Tawgs" Salter, Andy Stochansky Chris DeStefano 4:53
6. "Stay Here" DeWyze, Lind, Bjørklund, Kelly Espionage 3:42
7. "Me and My Jealousy" DeWyze, John Shanks, Zac Maloy Shanks 3:34
8. "Brooklyn Bridge" DeWyze, Gad, Robbins Gad 3:45
9. "Weightless" DeWyze, Shanks, Zac Maloy Shanks 3:10
10. "Earth Stood Still" DeWyze, Gad, Robbins Gad 3:18
11. "A Song About Love" DeWyze, David Hodges, Michael Busbee Hodges 2:56
Код:
dBpoweramp Release 14 Digital Audio Extraction Log from Tuesday, November 23, 2010 10:42 PM
Drive & Settings
----------------
Ripping with drive 'D:   [HL-DT-ST - DVDRAM GSA-T40N ]',  Drive offset: 667,  Overread Lead-in/out: No
AccurateRip: Active,  Using C2: Yes,  Cache: 1024 KB,  FUA Cache Invalidate: No
Pass 1 Drive Speed: Max,  Pass 2 Drive Speed: Max
Ultra::  Vary Drive Speed: No,  Min Passes: 1,  Max Passes: 2,  Finish After Clean Passes: 1
Bad Sector Re-rip::  Drive Speed: Max,  Maximum Re-reads: 60
Encoder: FLAC -compression-level-8 -verify
DSP Effects / Actions: -dspeffect1="ReplayGain=-albummode={qt}0{qt}"
Extraction Log
--------------
Track 1:  Ripped LBA 0 to 14716 (3:16) in 0:42. Filename: E:\New Music\Lee DeWyze\Lee DeWyze - Live It Up [2010 11 16]\01 Live It Up.flac
  Secure  [Pass 1, Ultra 1 to 1]
  CRC32: 846E15DC     AccurateRip CRC: 1C830673 (NEW)     [DiscID: 011-000ff3e7-008acd2e-9708f60b-1]
Track 2:  Ripped LBA 14716 to 29587 (3:18) in 0:39. Filename: E:\New Music\Lee DeWyze\Lee DeWyze - Live It Up [2010 11 16]\02 Sweet Serendipity.flac
  Secure  [Pass 1, Ultra 1 to 1]
  CRC32: 9D5B690D     AccurateRip CRC: 4939ADF1 (NEW)     [DiscID: 011-000ff3e7-008acd2e-9708f60b-2]
Track 3:  Ripped LBA 29587 to 45841 (3:36) in 0:41. Filename: E:\New Music\Lee DeWyze\Lee DeWyze - Live It Up [2010 11 16]\03 It's Gotta Be Love.flac
  Secure  [Pass 1, Ultra 1 to 1]
  CRC32: 6E0436CA     AccurateRip CRC: 0E262F79 (NEW)     [DiscID: 011-000ff3e7-008acd2e-9708f60b-3]
Track 4:  Ripped LBA 45841 to 58443 (2:48) in 0:29. Filename: E:\New Music\Lee DeWyze\Lee DeWyze - Live It Up [2010 11 16]\04 Dear Isabelle.flac
  Secure  [Pass 1, Ultra 1 to 1]
  CRC32: 8487549F     AccurateRip CRC: 8A981B1F (NEW)     [DiscID: 011-000ff3e7-008acd2e-9708f60b-4]
Track 5:  Ripped LBA 58443 to 80427 (4:53) in 0:47. Filename: E:\New Music\Lee DeWyze\Lee DeWyze - Live It Up [2010 11 16]\05 Beautiful Like You.flac
  Secure  [Pass 1, Ultra 1 to 1]
  CRC32: DF0C0D43     AccurateRip CRC: F77B8881 (NEW)     [DiscID: 011-000ff3e7-008acd2e-9708f60b-5]
Track 6:  Ripped LBA 80427 to 97151 (3:42) in 0:34. Filename: E:\New Music\Lee DeWyze\Lee DeWyze - Live It Up [2010 11 16]\06 Stay Here.flac
  Secure  [Pass 1, Ultra 1 to 1]
  CRC32: FBF90A67     AccurateRip CRC: B85AB419 (NEW)     [DiscID: 011-000ff3e7-008acd2e-9708f60b-6]
Track 7:  Ripped LBA 97151 to 113241 (3:34) in 0:31. Filename: E:\New Music\Lee DeWyze\Lee DeWyze - Live It Up [2010 11 16]\07 Me and My Jealousy.flac
  Secure  [Pass 1, Ultra 1 to 1]
  CRC32: B13D0EA3     AccurateRip CRC: 3C8F4876 (NEW)     [DiscID: 011-000ff3e7-008acd2e-9708f60b-7]
Track 8:  Ripped LBA 113241 to 130156 (3:45) in 0:31. Filename: E:\New Music\Lee DeWyze\Lee DeWyze - Live It Up [2010 11 16]\08 Brooklyn Bridge.flac
  Secure  [Pass 1, Ultra 1 to 1]
  CRC32: 1CF1986A     AccurateRip CRC: 5CAFDEE4 (NEW)     [DiscID: 011-000ff3e7-008acd2e-9708f60b-8]
Track 9:  Ripped LBA 130156 to 144438 (3:10) in 0:25. Filename: E:\New Music\Lee DeWyze\Lee DeWyze - Live It Up [2010 11 16]\09 Weightless.flac
  Secure  [Pass 1, Ultra 1 to 1]
  CRC32: 35BF039F     AccurateRip CRC: 9E3A710C (NEW)     [DiscID: 011-000ff3e7-008acd2e-9708f60b-9]
Track 10:  Ripped LBA 144438 to 159358 (3:18) in 0:25. Filename: E:\New Music\Lee DeWyze\Lee DeWyze - Live It Up [2010 11 16]\10 Earth Stood Still.flac
  Secure  [Pass 1, Ultra 1 to 1]
  CRC32: BB666096     AccurateRip CRC: 359D4FA5 (NEW)     [DiscID: 011-000ff3e7-008acd2e-9708f60b-10]
Track 11:  Ripped LBA 159358 to 172121 (2:50) in 0:21. Filename: E:\New Music\Lee DeWyze\Lee DeWyze - Live It Up [2010 11 16]\11 A Song About Love.flac
  Secure  [Pass 1, Ultra 1 to 1]
  CRC32: B6E83890     AccurateRip CRC: 9A60FBDA (NEW)     [DiscID: 011-000ff3e7-008acd2e-9708f60b-11]
--------------
11 Tracks Ripped Securely
Код:
REM GENRE Pop
REM DATE 2010
REM DISCID 9708F60B
REM COMMENT "ExactAudioCopy v0.99pb5"
PERFORMER "Lee DeWyze"
TITLE "Live It Up"
FILE "01 Live It Up.wav" WAVE
  TRACK 01 AUDIO
    TITLE "Live It Up"
    PERFORMER "Lee DeWyze"
    ISRC GBCTA1000288
    INDEX 01 00:00:00
FILE "02 Sweet Serendipity.wav" WAVE
  TRACK 02 AUDIO
    TITLE "Sweet Serendipity"
    PERFORMER "Lee DeWyze"
    ISRC GBCTA1000291
    INDEX 01 00:00:00
FILE "03 It's Gotta Be Love.wav" WAVE
  TRACK 03 AUDIO
    TITLE "It's Gotta Be Love"
    PERFORMER "Lee DeWyze"
    ISRC GBCTA1000292
    INDEX 01 00:00:00
FILE "04 Dear Isabelle.wav" WAVE
  TRACK 04 AUDIO
    TITLE "Dear Isabelle"
    PERFORMER "Lee DeWyze"
    ISRC GBCTA1000293
    INDEX 01 00:00:00
FILE "05 Beautiful Like You.wav" WAVE
  TRACK 05 AUDIO
    TITLE "Beautiful Like You"
    PERFORMER "Lee DeWyze"
    ISRC GBCTA1000294
    INDEX 01 00:00:00
FILE "06 Stay Here.wav" WAVE
  TRACK 06 AUDIO
    TITLE "Stay Here"
    PERFORMER "Lee DeWyze"
    ISRC GBCTA1000295
    INDEX 01 00:00:00
FILE "07 Me And My Jealousy.wav" WAVE
  TRACK 07 AUDIO
    TITLE "Me And My Jealousy"
    PERFORMER "Lee DeWyze"
    ISRC GBCTA1000296
    INDEX 01 00:00:00
FILE "08 Brooklyn Bridge.wav" WAVE
  TRACK 08 AUDIO
    TITLE "Brooklyn Bridge"
    PERFORMER "Lee DeWyze"
    ISRC GBCTA1000297
    INDEX 01 00:00:00
FILE "09 Weightless.wav" WAVE
  TRACK 09 AUDIO
    TITLE "Weightless"
    PERFORMER "Lee DeWyze"
    ISRC GBCTA1000298
    INDEX 01 00:00:00
FILE "10 Earth Stood Still.wav" WAVE
  TRACK 10 AUDIO
    TITLE "Earth Stood Still"
    PERFORMER "Lee DeWyze"
    ISRC GBCTA1000299
    INDEX 01 00:00:00
FILE "11 A Song About Love.wav" WAVE
  TRACK 11 AUDIO
    TITLE "A Song About Love"
    PERFORMER "Lee DeWyze"
    ISRC GBCTA1000300
    INDEX 01 00:00:00
Правила, инструкции, FAQ!!!
Торрент  Добавлен [26 мар 2019, 18:56] Скачать торрент Магнет ссылка
Скачать торрент
[ Размер 23.61 КБ / Просмотров 5 ]

Статус
Проверен 
 
Размер  280.33 МБ
Приватный: Нет (DHT включён)
.torrent скачан  0
 


     Отправить личное сообщение
   
Страница 1 из 1
Показать сообщения за:  Поле сортировки  
Начать новую тему Ответить на тему


Сейчас этот форум просматривают: нет зарегистрированных пользователей и гости: 0


Вы не можете начинать темы
Вы не можете отвечать на сообщения
Вы не можете редактировать свои сообщения
Вы не можете удалять свои сообщения
Вы не можете добавлять вложения

Перейти:  
cron