Начать новую тему Ответить на тему
Статистика раздачи
Размер: 330.9 МБ | Добавлен: 26 мар 2019, 19:30 | Скачали: 0
Сидеров: 0  [0 байт/сек]    Личеров: 0  [0 байт/сек]
Пред. тема | След. тема 

Автор
Сообщение

СообщениеДобавлено: 26 мар 2019, 19:30 

Ответить с цитатой 

Leah Andreone / Veiled
Жанр: Pop, Rock
Страна-производитель диска: EU
Год издания: 1996
Издатель (лейбл): RCA
Номер по каталогу: 07863 66897 2
Страна: USA
Аудиокодек: FLAC (*.flac)
Тип рипа: tracks+.cue
Битрейт аудио: lossless
Продолжительность: 00:46:25
Источник (релизер): waffles.fm
Наличие сканов в содержимом раздачи: нет
Треклист:
01. It's Alright, It's Ok (04:25)
02. Happy Birthday (03:55)
03. Mother Tongue (03:58)
04. You Make Me Remember (05:18)
05. Who Are They To Say (04:09)
06. Problem Child (04:43)
07. Come Sunday Morning (03:55)
08. Kiss Me Goodbye (04:25)
09. Hell To Pay (03:49)
10. Will You Still Love Me (04:36)
11. Imagining You (03:08)

Код:
Exact Audio Copy V1.0 beta 2 from 29. April 2011
EAC extraction logfile from 18. July 2011, 15:38
Andreone, Leah / Veiled
Used drive  : Optiarc DVD RW AD-7580A   Adapter: 0  ID: 0
Read mode               : Secure
Utilize accurate stream : Yes
Defeat audio cache      : Yes
Make use of C2 pointers : No
Read offset correction                      : 6
Overread into Lead-In and Lead-Out          : No
Fill up missing offset samples with silence : Yes
Delete leading and trailing silent blocks   : No
Null samples used in CRC calculations       : Yes
Used interface                              : Native Win32 interface for Win NT & 2000
Gap handling                                : Appended to previous track
Used output format              : User Defined Encoder
Selected bitrate                : 1024 kBit/s
Quality                         : High
Add ID3 tag                     : No
Command line compressor         : C:\Program Files\Exact Audio Copy\Flac\flac.exe
Additional command line options : -V -0 -T "artist=%artist%" -T "title=%title%" -T "album=%albumtitle%" -T "date=%year%" -T "tracknumber=%tracknr%" -T "genre=%genre%" %source%
TOC of the extracted CD
     Track |   Start  |  Length  | Start sector | End sector
    ---------------------------------------------------------
        1  |  0:00.00 |  4:25.10 |         0    |    19884
        2  |  4:25.10 |  3:55.27 |     19885    |    37536
        3  |  8:20.37 |  3:58.33 |     37537    |    55419
        4  | 12:18.70 |  5:18.10 |     55420    |    79279
        5  | 17:37.05 |  4:09.27 |     79280    |    97981
        6  | 21:46.32 |  4:43.50 |     97982    |   119256
        7  | 26:30.07 |  3:55.13 |    119257    |   136894
        8  | 30:25.20 |  4:25.45 |    136895    |   156814
        9  | 34:50.65 |  3:49.45 |    156815    |   174034
       10  | 38:40.35 |  4:36.27 |    174035    |   194761
       11  | 43:16.62 |  3:08.20 |    194762    |   208881
Track  1
     Filename C:\EACrips\01 It's Alright, It's OK.wav
     Pre-gap length  0:00:02.00
     Peak level 97.0 %
     Extraction speed 2.6 X
     Track quality 100.0 %
     Test CRC 565114DD
     Copy CRC 565114DD
     Accurately ripped (confidence 18)  [4A267BBC]  (AR v1)
     Copy OK
Track  2
     Filename C:\EACrips\02 Happy Birthday.wav
     Pre-gap length  0:00:02.06
     Peak level 92.8 %
     Extraction speed 2.3 X
     Track quality 99.9 %
     Test CRC 0FAE394E
     Copy CRC 0FAE394E
     Accurately ripped (confidence 19)  [5F317D85]  (AR v1)
     Copy OK
Track  3
     Filename C:\EACrips\03 Mother Tongue.wav
     Pre-gap length  0:00:00.13
     Peak level 97.7 %
     Extraction speed 3.1 X
     Track quality 100.0 %
     Test CRC B8FC8E6E
     Copy CRC B8FC8E6E
     Accurately ripped (confidence 19)  [F20E2DB4]  (AR v1)
     Copy OK
Track  4
     Filename C:\EACrips\04 You Make Me Remember.wav
     Pre-gap length  0:00:00.57
     Peak level 97.9 %
     Extraction speed 3.5 X
     Track quality 100.0 %
     Test CRC 9552B668
     Copy CRC 9552B668
     Accurately ripped (confidence 19)  [4B005017]  (AR v1)
     Copy OK
Track  5
     Filename C:\EACrips\05 Who Are They To Say.wav
     Pre-gap length  0:00:00.86
     Peak level 98.0 %
     Extraction speed 3.7 X
     Track quality 100.0 %
     Test CRC A5EBB6A3
     Copy CRC A5EBB6A3
     Accurately ripped (confidence 19)  [0F46FBEF]  (AR v1)
     Copy OK
Track  6
     Filename C:\EACrips\06 Problem Child.wav
     Peak level 100.0 %
     Extraction speed 4.0 X
     Track quality 100.0 %
     Test CRC DE22507E
     Copy CRC DE22507E
     Accurately ripped (confidence 19)  [B0DDDB2E]  (AR v1)
     Copy OK
Track  7
     Filename C:\EACrips\07 Come Sunday Morning.wav
     Pre-gap length  0:00:02.26
     Peak level 92.8 %
     Extraction speed 4.1 X
     Track quality 100.0 %
     Test CRC 92EF3CCB
     Copy CRC 92EF3CCB
     Accurately ripped (confidence 19)  [9A891BF0]  (AR v1)
     Copy OK
Track  8
     Filename C:\EACrips\08 Kiss Me Goodbye.wav
     Pre-gap length  0:00:00.13
     Peak level 99.0 %
     Extraction speed 3.6 X
     Track quality 99.9 %
     Test CRC 845615CC
     Copy CRC 845615CC
     Accurately ripped (confidence 19)  [CC09BBD6]  (AR v1)
     Copy OK
Track  9
     Filename C:\EACrips\09 Hell To Pay.wav
     Peak level 97.0 %
     Extraction speed 4.5 X
     Track quality 100.0 %
     Test CRC 37B24D9A
     Copy CRC 37B24D9A
     Accurately ripped (confidence 19)  [CCBE9A4F]  (AR v1)
     Copy OK
Track 10
     Filename C:\EACrips\10 Will You Still Love Me.wav
     Pre-gap length  0:00:01.66
     Peak level 92.8 %
     Extraction speed 4.7 X
     Track quality 100.0 %
     Test CRC 64E20471
     Copy CRC 64E20471
     Accurately ripped (confidence 19)  [FC380413]  (AR v1)
     Copy OK
Track 11
     Filename C:\EACrips\11 Imagining You.wav
     Pre-gap length  0:00:00.96
     Peak level 97.7 %
     Extraction speed 3.6 X
     Track quality 99.9 %
     Test CRC 04CB47A9
     Copy CRC 04CB47A9
     Accurately ripped (confidence 18)  [4599F086]  (AR v1)
     Copy OK
All tracks accurately ripped
No errors occurred
End of status report
==== Log checksum 7E15A2FA7FF169BEC493F738B41EDD71CA1463D9DED8FBAE2FCEC35363192E98 ====
Код:
REM GENRE "Alt. Pop/Rock, Folk-Rock"
REM DATE 1996
REM DISCID 8F0AE10B
REM COMMENT "ExactAudioCopy v1.0b2"
PERFORMER "Andreone, Leah"
TITLE "Veiled"
FILE "01 It's Alright, It's OK.wav" WAVE
  TRACK 01 AUDIO
    TITLE "It's Alright, It's OK"
    PERFORMER "Andreone, Leah"
    ISRC H2IM19503192
    INDEX 01 00:00:00
  TRACK 02 AUDIO
    TITLE "Happy Birthday"
    PERFORMER "Andreone, Leah"
    ISRC H2IM19503193
    INDEX 00 04:23:05
FILE "02 Happy Birthday.wav" WAVE
    INDEX 01 00:00:00
  TRACK 03 AUDIO
    TITLE "Mother Tongue"
    PERFORMER "Andreone, Leah"
    ISRC H2IM19503194
    INDEX 00 03:55:17
FILE "03 Mother Tongue.wav" WAVE
    INDEX 01 00:00:00
  TRACK 04 AUDIO
    TITLE "You Make Me Remember"
    PERFORMER "Andreone, Leah"
    ISRC H2IM19604934
    INDEX 00 03:57:65
FILE "04 You Make Me Remember.wav" WAVE
    INDEX 01 00:00:00
  TRACK 05 AUDIO
    TITLE "Who Are They To Say"
    PERFORMER "Andreone, Leah"
    ISRC H2IM19604935
    INDEX 00 05:17:20
FILE "05 Who Are They To Say.wav" WAVE
    INDEX 01 00:00:00
FILE "06 Problem Child.wav" WAVE
  TRACK 06 AUDIO
    TITLE "Problem Child"
    PERFORMER "Andreone, Leah"
    ISRC H2IM19503197
    INDEX 01 00:00:00
  TRACK 07 AUDIO
    TITLE "Come Sunday Morning"
    PERFORMER "Andreone, Leah"
    ISRC H2IM19503198
    INDEX 00 04:41:30
FILE "07 Come Sunday Morning.wav" WAVE
    INDEX 01 00:00:00
  TRACK 08 AUDIO
    TITLE "Kiss Me Goodbye"
    PERFORMER "Andreone, Leah"
    ISRC H2IM19503199
    INDEX 00 03:55:03
FILE "08 Kiss Me Goodbye.wav" WAVE
    INDEX 01 00:00:00
FILE "09 Hell To Pay.wav" WAVE
  TRACK 09 AUDIO
    TITLE "Hell To Pay"
    PERFORMER "Andreone, Leah"
    ISRC H2IM19503200
    INDEX 01 00:00:00
  TRACK 10 AUDIO
    TITLE "Will You Still Love Me"
    PERFORMER "Andreone, Leah"
    ISRC H2IM19503201
    INDEX 00 03:47:70
FILE "10 Will You Still Love Me.wav" WAVE
    INDEX 01 00:00:00
  TRACK 11 AUDIO
    TITLE "Imagining You"
    PERFORMER "Andreone, Leah"
    ISRC H2IM19503204
    INDEX 00 04:35:30
FILE "11 Imagining You.wav" WAVE
    INDEX 01 00:00:00
Правила, инструкции, FAQ!!!
Торрент  Добавлен [26 мар 2019, 19:30] Скачать торрент Магнет ссылка
Скачать торрент
[ Размер 14.13 КБ / Просмотров 2 ]

Статус
Проверен 
 
Размер  330.9 МБ
Приватный: Нет (DHT включён)
.torrent скачан  0
 


     Отправить личное сообщение
   
Страница 1 из 1
Показать сообщения за:  Поле сортировки  
Начать новую тему Ответить на тему


Сейчас этот форум просматривают: нет зарегистрированных пользователей и гости: 0


Вы не можете начинать темы
Вы не можете отвечать на сообщения
Вы не можете редактировать свои сообщения
Вы не можете удалять свои сообщения
Вы не можете добавлять вложения

Перейти:  
cron