Начать новую тему Ответить на тему
Статистика раздачи
Размер: 356.17 МБ | Добавлен: 26 мар 2019, 21:08 | Скачали: 1
Сидеров: 5  [0 байт/сек]    Личеров: 1  [0 байт/сек]
Пред. тема | След. тема 

Автор
Сообщение

СообщениеДобавлено: 26 мар 2019, 21:08 

Ответить с цитатой 

Los Prisioneros / Grandes Éxitos

Жанр: Pop-Rock / Latin Rock
Страна-производитель диска: Chile
Год издания: 1997
Издатель (лейбл): EMI Odeon
Номер по каталогу: 798186-2
Страна: Chile
Аудиокодек: FLAC (*.flac)
Тип рипа: image+.cue
Битрейт аудио: lossless
Продолжительность: 00:52:05
Источник (релизер): собственный рип
Наличие сканов в содержимом раздачи: да
Треклист:
01- La Voz de los Ochenta
02- Sexo
03- Quién Mató a Marilyn
04- Muevan las Industrias
05- Por qué No se Van
06- El Baile de los que Sobran
07- We Are South American Rockers
08- Que No Destrocen tu Vida
09- Pa Pa Pa
10- Tren al Sur
11- Estrechez de Corazón
12- Corazones Rojos
Код:
Exact Audio Copy V1.0 beta 1 from 15. November 2010
EAC extraction logfile from 1. January 2005, 21:31
Los Prisioneros / Grandes Éxitos
Used drive  : HL-DT-STDVDRAM GSA-H10N   Adapter: 1  ID: 1
Read mode               : Secure
Utilize accurate stream : Yes
Defeat audio cache      : Yes
Make use of C2 pointers : No
Read offset correction                      : 667
Overread into Lead-In and Lead-Out          : No
Fill up missing offset samples with silence : Yes
Delete leading and trailing silent blocks   : No
Null samples used in CRC calculations       : Yes
Used interface                              : Native Win32 interface for Win NT & 2000
Used output format              : User Defined Encoder
Selected bitrate                : 128 kBit/s
Quality                         : High
Add ID3 tag                     : Yes
Command line compressor         : C:\Archivos de programa\Exact Audio Copy\Flac\flac.exe
Additional command line options : -8 -V %s
TOC of the extracted CD
     Track |   Start  |  Length  | Start sector | End sector
    ---------------------------------------------------------
        1  |  0:00.00 |  4:11.27 |         0    |    18851
        2  |  4:11.27 |  4:49.23 |     18852    |    40549
        3  |  9:00.50 |  3:09.25 |     40550    |    54749
        4  | 12:10.00 |  4:08.55 |     54750    |    73404
        5  | 16:18.55 |  3:01.42 |     73405    |    87021
        6  | 19:20.22 |  5:47.25 |     87022    |   113071
        7  | 25:07.47 |  3:37.55 |    113072    |   129401
        8  | 28:45.27 |  4:12.68 |    129402    |   148369
        9  | 32:58.20 |  3:32.14 |    148370    |   164283
       10  | 36:30.34 |  5:36.61 |    164284    |   189544
       11  | 42:07.20 |  6:21.22 |    189545    |   218141
       12  | 48:28.42 |  3:36.03 |    218142    |   234344
Range status and errors
Selected range
     Filename C:\Documents and Settings\Vito\Escritorio\Los Prisioneros - Grandes Éxitos\Los Prisioneros - Grandes Éxitos.wav
     Peak level 100.0 %
     Extraction speed 0.5 X
     Range quality 100.0 %
     Copy CRC 27782151
     Copy OK
No errors occurred
End of status report
Правила, инструкции, FAQ!!!
Торрент  Добавлен [26 мар 2019, 21:08] Скачать торрент Магнет ссылка
Скачать торрент
[ Размер 14.8 КБ / Просмотров 7 ]

Статус
Проверен 
 
Размер  356.17 МБ
Приватный: Нет (DHT включён)
.torrent скачан  1
 


     Отправить личное сообщение
   
Страница 1 из 1
Показать сообщения за:  Поле сортировки  
Начать новую тему Ответить на тему


Сейчас этот форум просматривают: нет зарегистрированных пользователей и гости: 0


Вы не можете начинать темы
Вы не можете отвечать на сообщения
Вы не можете редактировать свои сообщения
Вы не можете удалять свои сообщения
Вы не можете добавлять вложения

Перейти:  
cron