Начать новую тему Ответить на тему
Статистика раздачи
Размер: 337.24 МБ | Добавлен: 26 мар 2019, 19:54 | Скачали: 0
Сидеров: 1  [0 байт/сек]    Личеров: 0  [0 байт/сек]
Пред. тема | След. тема 

Автор
Сообщение

СообщениеДобавлено: 26 мар 2019, 19:54 

Ответить с цитатой 

LaFee - Ring Frei
Жанр: Pop-Rock
Год выпуска диска: 2009
Аудио кодек: APE
Тип рипа: image+.cue
Битрейт аудио: lossless
Продолжительность: 50:28
Трэклист:
1.Intro
2.Ring Frei
3.Eiskalter Engel
4.Ein Letztes Mal
5.Scheiss Liebe
6.Ich bin Ich
7.Angst
8.Hand in Hand
9.Nur das Eine
10.Lieber Gott
11.Was hat Sie
12.Normalerweise
13.Danke
Состав:
Ricky Garcia-guitars
Klaus Hochhauser-keyboards
Tamon Nussner-drums
Goran Vujic-bass
Exact Audio Copy V0.99 prebeta 4 from 23. January 2008
Отчёт EAC об извлечении, выполненном 14. февраля 2009, 23:46
La Fee / Ring frei
Дисковод: HL-DT-STDVDRAM GSA-H10N Adapter: 0 ID: 1
Режим чтения : Достоверность
Использование точного потока : Да
Отключение кэша аудио : Да
Использование указателей C2 : Нет
Коррекция смещения при чтении : 667
Способность читать области Lead-in и Lead-out : Нет
Заполнение пропущенных сэмплов тишиной : Да
Удаление блоков с тишиной в начале и конце : Нет
При вычислениях CRC использовались нулевые сэмплы : Да
Интерфейс : Установленный внешний ASPI-интерфейс
Выходной формат : Внутренние WAV-операции
Формат сэмплов : 44.100 Гц; 16 бит; стерео
TOC извлечённого CD
Трек | Старт | Длительность | Начальный сектор | Конечный сектор
---------------------------------------------------------------------
1 | 0:00.00 | 1:12.73 | 0 | 5472
2 | 1:12.73 | 3:47.56 | 5473 | 22553
3 | 5:00.54 | 3:53.02 | 22554 | 40030
4 | 8:53.56 | 3:47.36 | 40031 | 57091
5 | 12:41.17 | 3:43.38 | 57092 | 73854
6 | 16:24.55 | 4:51.14 | 73855 | 95693
7 | 21:15.69 | 3:10.74 | 95694 | 110017
8 | 24:26.68 | 4:23.17 | 110018 | 129759
9 | 28:50.10 | 4:06.24 | 129760 | 148233
10 | 32:56.34 | 5:23.40 | 148234 | 172498
11 | 38:19.74 | 3:50.74 | 172499 | 189822
12 | 42:10.73 | 3:55.18 | 189823 | 207465
13 | 46:06.16 | 4:21.41 | 207466 | 227081
Характеристики диапазона извлечения и сообщения об ошибках
Выбранный диапазон
Имя файла U:\Downloads\Прием\La Fee 2009\La Fee - Ring frei.wav
Пиковый уровень 99.8 %
Качество диапазона 99.9 %
CRC копии 8072F1EB
Копирование... OK
Ошибок не произошло
Конец отчёта
Правила, инструкции, FAQ!!!
Торрент  Добавлен [26 мар 2019, 19:54] Скачать торрент Магнет ссылка
Скачать торрент
[ Размер 13.75 КБ / Просмотров 10 ]

Статус
Проверен 
 
Размер  337.24 МБ
Приватный: Нет (DHT включён)
.torrent скачан  0
 


     Отправить личное сообщение
   
Страница 1 из 1
Показать сообщения за:  Поле сортировки  
Начать новую тему Ответить на тему


Сейчас этот форум просматривают: нет зарегистрированных пользователей и гости: 0


Вы не можете начинать темы
Вы не можете отвечать на сообщения
Вы не можете редактировать свои сообщения
Вы не можете удалять свои сообщения
Вы не можете добавлять вложения

Перейти:  
cron