Начать новую тему Ответить на тему
Статистика раздачи
Размер: 264.18 МБ | Добавлен: 26 мар 2019, 20:32 | Скачали: 0
Сидеров: 1  [0 байт/сек]    Личеров: 0  [0 байт/сек]
Пред. тема | След. тема 

Автор
Сообщение

СообщениеДобавлено: 26 мар 2019, 20:32 

Ответить с цитатой 

LaFee / Frei
Жанр: Pop/Rock
Страна-производитель диска: Germany
Год издания диска: 2011
Издатель (лейбл): EMI Music Germany
Номер по каталогу: 50999 085069 2 4
Страна: Germany
Аудиокодек: FLAC (*.flac)
Тип рипа: image+.cue
Битрейт аудио: lossless
Продолжительность: 38:15
Источник (релизер): CD (Собственный рип)
Наличие сканов в содержимом раздачи: да
Треклист:
1. Herzlich Willkommen
2. Lass die Puppe tanzen
3. Alles Gute
4. Sonnensystem
5. Du Allein
6. Ich Bin
7. Fliegen Mit Mir
8. 7 Sünden
9. Leben Wir Jetzt
10. Phönix
11. Sieh Mich An
12. Danke
13. Ich Hab Dich Lieb
Код:
Exact Audio Copy V0.99 prebeta 5 from 4. May 2009
EAC extraction logfile from 2. November 2011, 19:31
LaFee / Frei
Used drive  : PIONEER DVD-RW  DVR-216D   Adapter: 2  ID: 0
Read mode               : Secure
Utilize accurate stream : Yes
Defeat audio cache      : Yes
Make use of C2 pointers : No
Read offset correction                      : 96
Overread into Lead-In and Lead-Out          : No
Fill up missing offset samples with silence : Yes
Delete leading and trailing silent blocks   : No
Null samples used in CRC calculations       : Yes
Used interface                              : Native Win32 interface for Win NT & 2000
Used output format : Internal WAV Routines
Sample format      : 44.100 Hz; 16 Bit; Stereo
TOC of the extracted CD
     Track |   Start  |  Length  | Start sector | End sector
    ---------------------------------------------------------
        1  |  0:00.00 |  2:36.18 |         0    |    11717
        2  |  2:36.18 |  2:38.11 |     11718    |    23578
        3  |  5:14.29 |  3:29.43 |     23579    |    39296
        4  |  8:43.72 |  3:16.57 |     39297    |    54053
        5  | 12:00.54 |  3:29.10 |     54054    |    69738
        6  | 15:29.64 |  2:57.43 |     69739    |    83056
        7  | 18:27.32 |  2:39.10 |     83057    |    94991
        8  | 21:06.42 |  3:15.64 |     94992    |   109680
        9  | 24:22.31 |  3:15.36 |    109681    |   124341
       10  | 27:37.67 |  2:31.07 |    124342    |   135673
       11  | 30:08.74 |  2:54.03 |    135674    |   148726
       12  | 33:03.02 |  2:55.69 |    148727    |   161920
       13  | 35:58.71 |  2:16.70 |    161921    |   172190
Range status and errors
Selected range
     Filename X:\wav\LaFee - Frei.wav
     Peak level 99.3 %
     Range quality 99.9 %
     Test CRC 6A885FC7
     Copy CRC 6A885FC7
     Copy OK
No errors occurred
End of status report
Код:
REM DATE 2011
REM DISCID A808F70D
REM COMMENT "ExactAudioCopy v0.99pb5"
PERFORMER "LaFee"
TITLE "Frei"
FILE "LaFee - Frei.wav" WAVE
  TRACK 01 AUDIO
    TITLE "Herzlich Willkommen"
    PERFORMER "LaFee"
    FLAGS DCP
    INDEX 01 00:00:00
  TRACK 02 AUDIO
    TITLE "Lass Die Puppe Tanzen"
    PERFORMER "LaFee"
    FLAGS DCP
    INDEX 00 02:35:19
    INDEX 01 02:36:18
  TRACK 03 AUDIO
    TITLE "Alles Gute"
    PERFORMER "LaFee"
    FLAGS DCP
    INDEX 00 05:12:30
    INDEX 01 05:14:29
  TRACK 04 AUDIO
    TITLE "Sonnensystem"
    PERFORMER "LaFee"
    FLAGS DCP
    INDEX 00 08:42:73
    INDEX 01 08:43:72
  TRACK 05 AUDIO
    TITLE "Du Allein"
    PERFORMER "LaFee"
    FLAGS DCP
    INDEX 00 11:57:55
    INDEX 01 12:00:54
  TRACK 06 AUDIO
    TITLE "Ich Bin"
    PERFORMER "LaFee"
    FLAGS DCP
    INDEX 00 15:27:65
    INDEX 01 15:29:64
  TRACK 07 AUDIO
    TITLE "Fliegen Mit Mir"
    PERFORMER "LaFee"
    FLAGS DCP
    INDEX 00 18:25:33
    INDEX 01 18:27:32
  TRACK 08 AUDIO
    TITLE "7 Suenden"
    PERFORMER "LaFee"
    FLAGS DCP
    INDEX 00 21:04:43
    INDEX 01 21:06:42
  TRACK 09 AUDIO
    TITLE "Leben Wir Jetzt"
    PERFORMER "LaFee"
    FLAGS DCP
    INDEX 00 24:19:31
    INDEX 01 24:22:31
  TRACK 10 AUDIO
    TITLE "Phoenix"
    PERFORMER "LaFee"
    FLAGS DCP
    INDEX 00 27:35:67
    INDEX 01 27:37:67
  TRACK 11 AUDIO
    TITLE "Sieh Mich An"
    PERFORMER "LaFee"
    FLAGS DCP
    INDEX 00 30:06:00
    INDEX 01 30:08:74
  TRACK 12 AUDIO
    TITLE "Danke"
    PERFORMER "LaFee"
    FLAGS DCP
    INDEX 00 33:00:03
    INDEX 01 33:03:02
  TRACK 13 AUDIO
    TITLE "Ich Hab Dich Lieb"
    PERFORMER "LaFee"
    FLAGS DCP
    INDEX 00 35:56:71
    INDEX 01 35:58:71
Правила, инструкции, FAQ!!!
Торрент  Добавлен [26 мар 2019, 20:32] Скачать торрент Магнет ссылка
Скачать торрент
[ Размер 11.36 КБ / Просмотров 13 ]

Статус
Проверен 
 
Размер  264.18 МБ
Приватный: Нет (DHT включён)
.torrent скачан  0
 


     Отправить личное сообщение
   
Страница 1 из 1
Показать сообщения за:  Поле сортировки  
Начать новую тему Ответить на тему


Сейчас этот форум просматривают: нет зарегистрированных пользователей и гости: 0


Вы не можете начинать темы
Вы не можете отвечать на сообщения
Вы не можете редактировать свои сообщения
Вы не можете удалять свои сообщения
Вы не можете добавлять вложения

Перейти:  
cron