Начать новую тему Ответить на тему
Статистика раздачи
Размер: 216.96 МБ | Добавлен: 26 мар 2019, 19:11 | Скачали: 0
Сидеров: 0  [0 байт/сек]    Личеров: 0  [0 байт/сек]
Пред. тема | След. тема 

Автор
Сообщение

СообщениеДобавлено: 26 мар 2019, 19:11 

Ответить с цитатой 

Kris Allen - Horizons
Жанр: Pop-Rock
Носитель: CD
Год издания: 2014
Издатель (лейбл): DogBear Records
Страна: USA
Аудиокодек: FLAC (*.flac)
Тип рипа: tracks+.cue
Битрейт аудио: lossless
Продолжительность: 35:10
Источник (релизер): waffles.fm
Наличие сканов в содержимом раздачи: нет
Треклист:
01. Young Love ('Paul Simon') (3:27)
02. Prove It To You [feat. Lenachka] (3:34)
03. Beautiful & Wild (3:51)
04. In Time (3:28)
05. Lost (3:18)
06. Don't Set Me Free (3:33)
07. Everybody Just Wants To Dance (3:08)
08. Parachute (3:18)
09. It's Always You (4:01)
10. Girl Across The Room (3:32)
Код:
Exact Audio Copy V1.0 beta 3 from 29. August 2011
EAC extraction logfile from 13. August 2014, 1:09
Kris Allen / Horizons
Used drive  : PLDS    DVD-RW DU8A5SH   Adapter: 0  ID: 0
Read mode               : Secure
Utilize accurate stream : Yes
Defeat audio cache      : Yes
Make use of C2 pointers : No
Read offset correction                      : 6
Overread into Lead-In and Lead-Out          : No
Fill up missing offset samples with silence : Yes
Delete leading and trailing silent blocks   : No
Null samples used in CRC calculations       : Yes
Used interface                              : Native Win32 interface for Win NT & 2000
Gap handling                                : Appended to previous track
Used output format              : User Defined Encoder
Selected bitrate                : 1024 kBit/s
Quality                         : High
Add ID3 tag                     : No
Command line compressor         : C:\Program Files (x86)\Exact Audio Copy\Flac\flac.exe
Additional command line options :  -8 -V -T "ARTIST=%artist%" -T "TITLE=%title%" -T "ALBUM=%albumtitle%" -T "DATE=%year%" -T "TRACKNUMBER=%tracknr%" -T "GENRE=%genre%" -T "PERFORMER=%albuminterpret%" -T "COMPOSER=%composer%" %haslyrics%--tag-from-file=LYRICS="%lyricsfile%"%haslyrics% -T "ALBUMARTIST=%albumartist%" -T "DISCNUMBER=%cdnumber%" -T "TOTALDISCS=%totalcds%" -T "TOTALTRACKS=%numtracks%" -T "COMMENT=%comment%" %source% -o %dest%
TOC of the extracted CD
     Track |   Start  |  Length  | Start sector | End sector
    ---------------------------------------------------------
        1  |  0:00.00 |  3:26.54 |         0    |    15503
        2  |  3:26.54 |  3:34.09 |     15504    |    31562
        3  |  7:00.63 |  3:50.54 |     31563    |    48866
        4  | 10:51.42 |  3:27.69 |     48867    |    64460
        5  | 14:19.36 |  3:18.29 |     64461    |    79339
        6  | 17:37.65 |  3:32.66 |     79340    |    95305
        7  | 21:10.56 |  3:08.14 |     95306    |   109419
        8  | 24:18.70 |  3:17.66 |    109420    |   124260
        9  | 27:36.61 |  4:01.17 |    124261    |   142352
       10  | 31:38.03 |  3:32.33 |    142353    |   158285
Track  1
     Filename C:\_\Kris Allen - Horizons\01 Young Love (''Paul Simon'').wav
     Pre-gap length  0:00:02.00
     Peak level 99.7 %
     Extraction speed 1.7 X
     Track quality 100.0 %
     Test CRC ECDE536B
     Copy CRC ECDE536B
     Track not present in AccurateRip database
     Copy OK
Track  2
     Filename C:\_\Kris Allen - Horizons\02 Prove It To You [feat. Lenachka].wav
     Peak level 99.7 %
     Extraction speed 1.4 X
     Track quality 99.9 %
     Test CRC B1FF5F4E
     Copy CRC B1FF5F4E
     Track not present in AccurateRip database
     Copy OK
Track  3
     Filename C:\_\Kris Allen - Horizons\03 Beautiful & Wild.wav
     Peak level 99.7 %
     Extraction speed 1.6 X
     Track quality 99.9 %
     Test CRC 61F54845
     Copy CRC 61F54845
     Track not present in AccurateRip database
     Copy OK
Track  4
     Filename C:\_\Kris Allen - Horizons\04 In Time.wav
     Peak level 99.7 %
     Extraction speed 2.2 X
     Track quality 100.0 %
     Test CRC C75748C9
     Copy CRC C75748C9
     Track not present in AccurateRip database
     Copy OK
Track  5
     Filename C:\_\Kris Allen - Horizons\05 Lost.wav
     Peak level 99.5 %
     Extraction speed 2.3 X
     Track quality 100.0 %
     Test CRC F872740D
     Copy CRC F872740D
     Track not present in AccurateRip database
     Copy OK
Track  6
     Filename C:\_\Kris Allen - Horizons\06 Don't Set Me Free.wav
     Peak level 99.7 %
     Extraction speed 2.5 X
     Track quality 100.0 %
     Test CRC 16D39589
     Copy CRC 16D39589
     Track not present in AccurateRip database
     Copy OK
Track  7
     Filename C:\_\Kris Allen - Horizons\07 Everybody Just Wants To Dance.wav
     Peak level 99.7 %
     Extraction speed 2.5 X
     Track quality 100.0 %
     Test CRC 43721DB5
     Copy CRC 43721DB5
     Track not present in AccurateRip database
     Copy OK
Track  8
     Filename C:\_\Kris Allen - Horizons\08 Parachute.wav
     Peak level 99.7 %
     Extraction speed 2.0 X
     Track quality 99.9 %
     Test CRC 68194DEB
     Copy CRC 68194DEB
     Track not present in AccurateRip database
     Copy OK
Track  9
     Filename C:\_\Kris Allen - Horizons\09 It's Always You.wav
     Peak level 99.5 %
     Extraction speed 2.8 X
     Track quality 100.0 %
     Test CRC EB2D79FE
     Copy CRC EB2D79FE
     Track not present in AccurateRip database
     Copy OK
Track 10
     Filename C:\_\Kris Allen - Horizons\10 Girl Across The Room.wav
     Peak level 99.7 %
     Extraction speed 2.9 X
     Track quality 100.0 %
     Test CRC 03A062E4
     Copy CRC 03A062E4
     Track not present in AccurateRip database
     Copy OK
None of the tracks are present in the AccurateRip database
No errors occurred
End of status report
==== Log checksum 1E5548F6960CF9A7B3E69E9FB4D6BAAAAB235A23DE665BA3BF185F27D474723D ====
Код:
REM GENRE Pop
REM DATE 2014
REM DISCID 75083E0A
REM COMMENT "ExactAudioCopy v1.0b3"
PERFORMER "Kris Allen"
TITLE "Horizons"
FILE "01 Young Love (''Paul Simon'').wav" WAVE
  TRACK 01 AUDIO
    TITLE "Young Love ('Paul Simon')"
    PERFORMER "Kris Allen"
    INDEX 01 00:00:00
FILE "02 Prove It To You [feat. Lenachka].wav" WAVE
  TRACK 02 AUDIO
    TITLE "Prove It To You [feat. Lenachka]"
    PERFORMER "Kris Allen"
    INDEX 01 00:00:00
FILE "03 Beautiful & Wild.wav" WAVE
  TRACK 03 AUDIO
    TITLE "Beautiful & Wild"
    PERFORMER "Kris Allen"
    INDEX 01 00:00:00
FILE "04 In Time.wav" WAVE
  TRACK 04 AUDIO
    TITLE "In Time"
    PERFORMER "Kris Allen"
    INDEX 01 00:00:00
FILE "05 Lost.wav" WAVE
  TRACK 05 AUDIO
    TITLE "Lost"
    PERFORMER "Kris Allen"
    INDEX 01 00:00:00
FILE "06 Don't Set Me Free.wav" WAVE
  TRACK 06 AUDIO
    TITLE "Don't Set Me Free"
    PERFORMER "Kris Allen"
    INDEX 01 00:00:00
FILE "07 Everybody Just Wants To Dance.wav" WAVE
  TRACK 07 AUDIO
    TITLE "Everybody Just Wants To Dance"
    PERFORMER "Kris Allen"
    INDEX 01 00:00:00
FILE "08 Parachute.wav" WAVE
  TRACK 08 AUDIO
    TITLE "Parachute"
    PERFORMER "Kris Allen"
    INDEX 01 00:00:00
FILE "09 It's Always You.wav" WAVE
  TRACK 09 AUDIO
    TITLE "It's Always You"
    PERFORMER "Kris Allen"
    INDEX 01 00:00:00
FILE "10 Girl Across The Room.wav" WAVE
  TRACK 10 AUDIO
    TITLE "Girl Across The Room"
    PERFORMER "Kris Allen"
    INDEX 01 00:00:00
Код:
-----------------------
DON'T MODIFY THIS FILE
-----------------------
PERFORMER: auCDtect Task Manager, ver. 1.6.0 RC1 build 1.6.0.1
Copyright (c) 2008-2010 y-soft. All rights reserved
[url=http://y-soft.org]http://y-soft.org[/url]
ANALYZER: auCDtect: CD records authenticity detector, version 0.8.2
Copyright (c) 2004 Oleg Berngardt. All rights reserved.
Copyright (c) 2004 Alexander Djourik. All rights reserved.
FILE: 10 Girl Across The Room.flac
  Size: 23051123 Hash: F25DB71AED52861ED0B1EDAA65557321 Accuracy: -m0
  Conclusion: CDDA 100%
  Signature: 6774999DBEEF9825AEF1946441DAFC74AB61C9FC
FILE: 09 It's Always You.flac
  Size: 24028625 Hash: 86A668B859145FC75ADD03668C15CBFD Accuracy: -m0
  Conclusion: CDDA 100%
  Signature: 15822900E6E064813B4C1368BA180F8C12A9B27F
FILE: 08 Parachute.flac
  Size: 22127696 Hash: 32FFA397A43C11F23A2613DA5DF0BF05 Accuracy: -m0
  Conclusion: CDDA 100%
  Signature: 59678B5EDBCD15E3E6447D8FD0E7DB8140FBDA6D
FILE: 07 Everybody Just Wants To Dance.flac
  Size: 21596813 Hash: ECD592655E9A73CBE270A7DB69849017 Accuracy: -m0
  Conclusion: CDDA 100%
  Signature: CACD631B82DD4E2A24A0C8D2B7B673D377FC09E6
FILE: 06 Don't Set Me Free.flac
  Size: 23240698 Hash: 6D9CEBF7EFEEEA65A110D47C847C25FA Accuracy: -m0
  Conclusion: CDDA 100%
  Signature: 710A1217C4B9DDE6EC15F61D93DD472111D1B640
FILE: 05 Lost.flac
  Size: 18827268 Hash: A298D6FA435135DCA1889375283563C8 Accuracy: -m0
  Conclusion: CDDA 100%
  Signature: F499932A12EDA00E21B2B5F8E1B37DC7FC9D384E
FILE: 04 In Time.flac
  Size: 22704192 Hash: C0E412B4A22C7F347F6C743034EFF183 Accuracy: -m0
  Conclusion: CDDA 100%
  Signature: 1395952C6D3F7E69922CD1C802D51B0BD16DC6B1
FILE: 03 Beautiful & Wild.flac
  Size: 25765532 Hash: 9E13E0F4FCC942920F28F56EB6A20255 Accuracy: -m0
  Conclusion: CDDA 100%
  Signature: 99C2C286D3F7F3F3CA2283FFE545D4CF3D1310ED
FILE: 02 Prove It To You [feat. Lenachka].flac
  Size: 22824285 Hash: 5ED01367453C2F7FD8E9B822F356F402 Accuracy: -m0
  Conclusion: CDDA 100%
  Signature: ECF37541CF0ED99EF54185ACAE7AB8F722553FB8
FILE: 01 Young Love (''Paul Simon'').flac
  Size: 23249949 Hash: B7E19192EC4C358CA6CE7E880056DC00 Accuracy: -m0
  Conclusion: CDDA 100%
  Signature: 6224C2FB5EE8CCFF189F7FD71C69DC833C30BF87
Правила, инструкции, FAQ!!!
Торрент  Добавлен [26 мар 2019, 19:11] Скачать торрент Магнет ссылка
Скачать торрент
[ Размер 18.18 КБ / Просмотров 4 ]

Статус
Проверен 
 
Размер  216.96 МБ
Приватный: Нет (DHT включён)
.torrent скачан  0
 


     Отправить личное сообщение
   
Страница 1 из 1
Показать сообщения за:  Поле сортировки  
Начать новую тему Ответить на тему


Сейчас этот форум просматривают: нет зарегистрированных пользователей и гости: 0


Вы не можете начинать темы
Вы не можете отвечать на сообщения
Вы не можете редактировать свои сообщения
Вы не можете удалять свои сообщения
Вы не можете добавлять вложения

Перейти:  
cron