Начать новую тему Ответить на тему
Статистика раздачи
Размер: 207.54 МБ | Добавлен: 26 мар 2019, 18:40 | Скачали: 0
Сидеров: 0  [0 байт/сек]    Личеров: 0  [0 байт/сек]
Пред. тема | След. тема 

Автор
Сообщение

СообщениеДобавлено: 26 мар 2019, 18:40 

Ответить с цитатой 

Krauthobel / Die Beschta Of D`r Wält
Жанр: Pop-Rock
Страна-производитель диска (релиза): Austria
Год издания: 1996
Издатель (лейбл): Koch International
Номер по каталогу: 323765
Аудиокодек: FLAC (*.flac)
Тип рипа: tracks+.cue
Битрейт аудио: lossless
Продолжительность: 0:32:23.
Источник (релизер): clustert
Наличие сканов в содержимом раздачи: да
Треклист:
01. Sayonara tante klara [0:03:27.50]
02. Geliebtes muntafu [0:03:52.07]
03. Wo dia zauberbluma blüan ... [0:02:54.05]
04. ... di beschta of d`r wält [0:03:36.23]
05. Radio montafon [0:01:15.52]
06. Zulatta`s marie isch in Kenja of safari [0:03:18.58]
07. Trenk mr no`ch a fläschli wi [0:04:12.27]
08. Ho`saladaboogie [0:02:16.68]
09. Wo geht`s hier ins silbertal? [0:01:02.02]
10. I ho`n di gära [0:06:27.53]
Код:
Exact Audio Copy V1.0 beta 3 from 29. August 2011
Отчёт EAC об извлечении, выполненном 6. июля 2015, 23:29
Krauthobel / Die Beschta Of D`r Wält
Дисковод: ASUS    DRW-1814BLT   Adapter: 4  ID: 0
Режим чтения                 : Достоверность
Использование точного потока : Да
Отключение кэша аудио        : Да
Использование указателей C2  : Нет
Коррекция смещения при чтении                     : 6
Способность читать области Lead-in и Lead-out     : Нет
Заполнение пропущенных сэмплов тишиной            : Да
Удаление блоков с тишиной в начале и конце        : Нет
При вычислениях CRC использовались нулевые сэмплы : Да
Интерфейс                                         : Встроенный Win32-интерфейс для Win NT/2000
Обработка зазоров                                 : Добавлено к предыдущему треку
Выходной формат          : Пользовательский кодировщик
Выбранный битрейт        : 128 kBit/s
Качество                 : Высокий
Добавление ID3-тега      : Нет
Утилита сжатия           : C:\Program Files\Exact Audio Copy\Flac\flac.exe
Дополнительные параметры :  -V -8 -T "Genre=%genre%" -T "Artist=%artist%" -T "Title=%title%" -T "Album=%albumtitle%" -T "Date=%year%" -T "Tracknumber=%tracknr%" -T "Comment=EAC1.0b2 FLAC -8" %source%
TOC извлечённого CD
     Трек |   Старт  | Длительность | Начальный сектор | Конечный сектор
    ---------------------------------------------------------------------
       1  |  0:00.00 |    3:27.50   |           0      |      15574
       2  |  3:27.50 |    3:52.07   |       15575      |      32981
       3  |  7:19.57 |    2:54.05   |       32982      |      46036
       4  | 10:13.62 |    3:36.23   |       46037      |      62259
       5  | 13:50.10 |    1:15.52   |       62260      |      67936
       6  | 15:05.62 |    3:18.58   |       67937      |      82844
       7  | 18:24.45 |    4:12.27   |       82845      |     101771
       8  | 22:36.72 |    2:16.68   |      101772      |     112039
       9  | 24:53.65 |    1:02.02   |      112040      |     116691
      10  | 25:55.67 |    6:27.53   |      116692      |     145769
Трек  1
     Имя файла R:\Раздача 49\Krauthobel und die Buschlaband - 1996 - ...di Beschta of d'r Walt!\01 Sayonara tante klara.wav
     Длина предзазора  0:00:02.00
     Пиковый уровень 94.4 %
     Скорость извлечения 4.9 X
     Качество трека 100.0 %
     CRC теста 822E800D
     CRC копии 822E800D
     Точное извлечение (достоверность 1)  [44A3110D]  (AR v1)
     Копирование... OK
Трек  2
     Имя файла R:\Раздача 49\Krauthobel und die Buschlaband - 1996 - ...di Beschta of d'r Walt!\02 Geliebtes muntafu.wav
     Длина предзазора  0:00:01.43
     Пиковый уровень 100.0 %
     Скорость извлечения 4.1 X
     Качество трека 99.9 %
     CRC теста 1E3B4D3B
     CRC копии 1E3B4D3B
     Точное извлечение (достоверность 1)  [8676412C]  (AR v1)
     Копирование... OK
Трек  3
     Имя файла R:\Раздача 49\Krauthobel und die Buschlaband - 1996 - ...di Beschta of d'r Walt!\03 Wo dia zauberbluma blüan ....wav
     Длина предзазора  0:00:01.32
     Пиковый уровень 100.0 %
     Скорость извлечения 5.7 X
     Качество трека 100.0 %
     CRC теста C0770158
     CRC копии C0770158
     Точное извлечение (достоверность 1)  [2519ED8A]  (AR v1)
     Копирование... OK
Трек  4
     Имя файла R:\Раздача 49\Krauthobel und die Buschlaband - 1996 - ...di Beschta of d'r Walt!\04 ... di beschta of d`r wält.wav
     Длина предзазора  0:00:01.20
     Пиковый уровень 100.0 %
     Скорость извлечения 6.3 X
     Качество трека 100.0 %
     CRC теста A5E7405D
     CRC копии A5E7405D
     Точное извлечение (достоверность 1)  [5A5EAFE3]  (AR v1)
     Копирование... OK
Трек  5
     Имя файла R:\Раздача 49\Krauthobel und die Buschlaband - 1996 - ...di Beschta of d'r Walt!\05 Radio montafon.wav
     Пиковый уровень 97.1 %
     Скорость извлечения 3.2 X
     Качество трека 99.8 %
     CRC теста 43A61144
     CRC копии 43A61144
     Точное извлечение (достоверность 1)  [1C501BF9]  (AR v1)
     Копирование... OK
Трек  6
     Имя файла R:\Раздача 49\Krauthobel und die Buschlaband - 1996 - ...di Beschta of d'r Walt!\06 Zulatta`s marie isch in Kenja of safari.wav
     Пиковый уровень 100.0 %
     Скорость извлечения 6.7 X
     Качество трека 100.0 %
     CRC теста 95D3BEB0
     CRC копии 95D3BEB0
     Точное извлечение (достоверность 1)  [98CA40E7]  (AR v1)
     Копирование... OK
Трек  7
     Имя файла R:\Раздача 49\Krauthobel und die Buschlaband - 1996 - ...di Beschta of d'r Walt!\07 Trenk mr no`ch a fläschli wi.wav
     Пиковый уровень 100.0 %
     Скорость извлечения 7.4 X
     Качество трека 100.0 %
     CRC теста F3840F5E
     CRC копии F3840F5E
     Точное извлечение (достоверность 1)  [4721C30C]  (AR v1)
     Копирование... OK
Трек  8
     Имя файла R:\Раздача 49\Krauthobel und die Buschlaband - 1996 - ...di Beschta of d'r Walt!\08 Ho`saladaboogie.wav
     Длина предзазора  0:00:01.35
     Пиковый уровень 100.0 %
     Скорость извлечения 6.8 X
     Качество трека 100.0 %
     CRC теста CDD17726
     CRC копии CDD17726
     Точное извлечение (достоверность 1)  [DA122E52]  (AR v1)
     Копирование... OK
Трек  9
     Имя файла R:\Раздача 49\Krauthobel und die Buschlaband - 1996 - ...di Beschta of d'r Walt!\09 Wo geht`s hier ins silbertal.wav
     Пиковый уровень 60.4 %
     Скорость извлечения 5.5 X
     Качество трека 100.0 %
     CRC теста C3D31DDC
     CRC копии C3D31DDC
     Точное извлечение (достоверность 1)  [5B771B2C]  (AR v1)
     Копирование... OK
Трек 10
     Имя файла R:\Раздача 49\Krauthobel und die Buschlaband - 1996 - ...di Beschta of d'r Walt!\10 I ho`n di gära.wav
     Длина предзазора  0:00:01.30
     Пиковый уровень 100.0 %
     Скорость извлечения 8.5 X
     Качество трека 100.0 %
     CRC теста FE126884
     CRC копии FE126884
     Точное извлечение (достоверность 1)  [223A82EF]  (AR v1)
     Копирование... OK
Все треки извлечены точно
Ошибок не произошло
Конец отчёта
==== Контрольная сумма отчёта F5F1FCD6D9E7A92A313CB6EF92AFC9668648EF1D6A92356B24007C71F8D0678B ====
Код:
REM GENRE Krautrock
REM DATE 1996
REM DISCID 7D07970A
REM COMMENT "ExactAudioCopy v1.0b3"
CATALOG 9002723237658
PERFORMER "Krauthobel"
TITLE "Die Beschta Of D`r Walt"
FILE "01 Sayonara tante klara.wav" WAVE
  TRACK 01 AUDIO
    TITLE "Sayonara tante klara"
    PERFORMER "Krauthobel"
    ISRC ;Rk069600020
    INDEX 01 00:00:00
  TRACK 02 AUDIO
    TITLE "Geliebtes muntafu"
    PERFORMER "Krauthobel"
    ISRC ;Rk069600021
    INDEX 00 03:26:07
FILE "02 Geliebtes muntafu.wav" WAVE
    INDEX 01 00:00:00
  TRACK 03 AUDIO
    TITLE "Wo dia zauberbluma bluan ..."
    PERFORMER "Krauthobel"
    ISRC ;Rk069600022
    INDEX 00 03:50:50
FILE "03 Wo dia zauberbluma bluan ....wav" WAVE
    INDEX 01 00:00:00
  TRACK 04 AUDIO
    TITLE "... di beschta of d`r walt"
    PERFORMER "Krauthobel"
    ISRC ;Rk069600023
    INDEX 00 02:52:60
FILE "04 ... di beschta of d`r walt.wav" WAVE
    INDEX 01 00:00:00
FILE "05 Radio montafon.wav" WAVE
  TRACK 05 AUDIO
    TITLE "Radio montafon"
    PERFORMER "Krauthobel"
    ISRC ;Rk069600023
    INDEX 01 00:00:00
FILE "06 Zulatta`s marie isch in Kenja of safari.wav" WAVE
  TRACK 06 AUDIO
    TITLE "Zulatta`s marie isch in Kenja of safari"
    PERFORMER "Krauthobel"
    ISRC ;Rk069600024
    INDEX 01 00:00:00
FILE "07 Trenk mr no`ch a flaschli wi.wav" WAVE
  TRACK 07 AUDIO
    TITLE "Trenk mr no`ch a flaschli wi"
    PERFORMER "Krauthobel"
    ISRC ;Rk069600026
    INDEX 01 00:00:00
  TRACK 08 AUDIO
    TITLE "Ho`saladaboogie"
    PERFORMER "Krauthobel"
    ISRC ;Rk069600027
    INDEX 00 04:10:67
FILE "08 Ho`saladaboogie.wav" WAVE
    INDEX 01 00:00:00
FILE "09 Wo geht`s hier ins silbertal.wav" WAVE
  TRACK 09 AUDIO
    TITLE "Wo geht`s hier ins silbertal?"
    PERFORMER "Krauthobel"
    ISRC ;Rk069600028
    INDEX 01 00:00:00
  TRACK 10 AUDIO
    TITLE "I ho`n di gara"
    PERFORMER "Krauthobel"
    ISRC ;Rk069600029
    INDEX 00 01:00:47
FILE "10 I ho`n di gara.wav" WAVE
    INDEX 01 00:00:00
Правила, инструкции, FAQ!!!
Торрент  Добавлен [26 мар 2019, 18:40] Скачать торрент Магнет ссылка
Скачать торрент
[ Размер 18.3 КБ / Просмотров 0 ]

Статус
Проверен 
 
Размер  207.54 МБ
Приватный: Нет (DHT включён)
.torrent скачан  0
 


     Отправить личное сообщение
   
Страница 1 из 1
Показать сообщения за:  Поле сортировки  
Начать новую тему Ответить на тему


Сейчас этот форум просматривают: нет зарегистрированных пользователей и гости: 0


Вы не можете начинать темы
Вы не можете отвечать на сообщения
Вы не можете редактировать свои сообщения
Вы не можете удалять свои сообщения
Вы не можете добавлять вложения

Перейти:  
cron