Начать новую тему Ответить на тему
Статистика раздачи
Размер: 740.43 МБ | Добавлен: 26 мар 2019, 20:03 | Скачали: 0
Сидеров: 0  [0 байт/сек]    Личеров: 0  [0 байт/сек]
Пред. тема | След. тема 

Автор
Сообщение

СообщениеДобавлено: 26 мар 2019, 20:03 

Ответить с цитатой 

Az évtized lemeze (2 CD)
(2011)

Жанр: Pop/Rock
Носитель: CD
Страна-производитель диска (релиза): Hungary
Год издания: 2011
Издатель (лейбл): SA
Номер по каталогу: 214-2
Страна исполнителя (группы): Hungary
Аудиокодек: FLAC (*.flac)
Тип рипа: image+.cue
Битрейт аудио: lossless
Продолжительность: 01:55:29
Источник (релизер): собственный рип
Наличие сканов в содержимом раздачи: нет
TRACKLIST:
1. Ébresztő
2. Születésnapodra
3. Semmi pánik
4. Ég és Föld
5. Mindhalálon túl...
6. Szentlélek Network
7. Hol Volt, Hol nem volt..
8. Csiszolatlan gyémántok
9. Magadban, másokat
10. Nincs nélkül, nincs van
Код:
Exact Audio Copy V1.3 from 2. September 2016
EAC extraction logfile from 20. December 2018, 6:48
Kowalsky meg a Vega / Az évtized lemeze CD1
Used drive  : HL-DT-STDVDRAM GH22LS50   Adapter: 1  ID: 0
Read mode               : Secure
Utilize accurate stream : Yes
Defeat audio cache      : Yes
Make use of C2 pointers : No
Read offset correction                      : 667
Overread into Lead-In and Lead-Out          : No
Fill up missing offset samples with silence : Yes
Delete leading and trailing silent blocks   : No
Null samples used in CRC calculations       : Yes
Used interface                              : Native Win32 interface for Win NT & 2000
Used output format              : User Defined Encoder
Selected bitrate                : 1024 kBit/s
Quality                         : High
Add ID3 tag                     : Yes
Command line compressor         : C:\Program Files (x86)\Exact Audio Copy\FLAC\FLAC.EXE
Additional command line options : -6 -V -T "ARTIST=%artist%" -T "TITLE=%title%" -T "ALBUM=%albumtitle%" -T "DATE=%year%" -T "TRACKNUMBER=%tracknr%" -T "GENRE=%genre%" -T "COMMENT=%comment%" -T "BAND=%albuminterpret%" -T "ALBUMARTIST=%albuminterpret%" -T "COMPOSER=%composer%" %haslyrics%--tag-from-file=LYRICS="%lyricsfile%"%haslyrics% -T "DISCNUMBER=%cdnumber%" -T "TOTALDISCS=%totalcds%" -T "TOTALTRACKS=%numtracks%" %hascover%--picture="%coverfile%"%hascover% %source% -o %dest%
TOC of the extracted CD
     Track |   Start  |  Length  | Start sector | End sector
    ---------------------------------------------------------
        1  |  0:00.00 |  3:59.10 |         0    |    17934
        2  |  3:59.10 |  4:47.04 |     17935    |    39463
        3  |  8:46.14 |  3:55.27 |     39464    |    57115
        4  | 12:41.41 |  3:35.05 |     57116    |    73245
        5  | 16:16.46 |  4:17.62 |     73246    |    92582
        6  | 20:34.33 |  4:00.52 |     92583    |   110634
        7  | 24:35.10 |  4:04.56 |    110635    |   128990
        8  | 28:39.66 |  4:01.37 |    128991    |   147102
        9  | 32:41.28 |  4:16.37 |    147103    |   166339
       10  | 36:57.65 |  3:50.01 |    166340    |   183590
Range status and errors
Selected range
     Filename F:\Kowalsky meg a Vega - 2011 - Az évtized lemeze\CD 1\Kowalsky meg a Vega - Az évtized lemeze CD1.wav
     Peak level 35.1 %
     Extraction speed 6.4 X
     Range quality 99.9 %
     Test CRC 9192C4FA
     Copy CRC 9192C4FA
     Copy OK
No errors occurred
End of status report
---- CUETools DB Plugin V2.1.6
[CTDB TOCID: 5l_04NyPgXcSXwtkpwdVetiDCZI-] disk not present in database
Submit result: 5l_04NyPgXcSXwtkpwdVetiDCZI- has been uploaded
==== Log checksum D6DE2F17C0A3DD237CA4974F12D0FB75FE5B2A74BAA9654FEBF5A9D34B9E6CE9 ====
Код:
REM GENRE Pop/Rock
REM DATE 2011
REM DISCID 8B098F0A
REM COMMENT "ExactAudioCopy v1.3"
PERFORMER "Kowalsky meg a Vega"
TITLE "Az évtized lemeze CD1"
REM COMPOSER ""
FILE "Kowalsky meg a Vega - Az évtized lemeze CD1.flac" WAVE
  TRACK 01 AUDIO
    TITLE "Ébresztő"
    PERFORMER "Kowalsky meg a Vega"
    REM COMPOSER ""
    INDEX 01 00:00:00
  TRACK 02 AUDIO
    TITLE "Születésnapodra"
    PERFORMER "Kowalsky meg a Vega"
    REM COMPOSER ""
    INDEX 00 03:57:10
    INDEX 01 03:59:10
  TRACK 03 AUDIO
    TITLE "Semmi pánik"
    PERFORMER "Kowalsky meg a Vega"
    REM COMPOSER ""
    INDEX 00 08:44:14
    INDEX 01 08:46:14
  TRACK 04 AUDIO
    TITLE "Ég és Föld"
    PERFORMER "Kowalsky meg a Vega"
    REM COMPOSER ""
    INDEX 00 12:39:41
    INDEX 01 12:41:41
  TRACK 05 AUDIO
    TITLE "Mindhalálon túl..."
    PERFORMER "Kowalsky meg a Vega"
    REM COMPOSER ""
    INDEX 00 16:14:46
    INDEX 01 16:16:46
  TRACK 06 AUDIO
    TITLE "Szentlélek Network"
    PERFORMER "Kowalsky meg a Vega"
    REM COMPOSER ""
    INDEX 00 20:32:33
    INDEX 01 20:34:33
  TRACK 07 AUDIO
    TITLE "Hol Volt, Hol nem volt.."
    PERFORMER "Kowalsky meg a Vega"
    REM COMPOSER ""
    INDEX 00 24:33:10
    INDEX 01 24:35:10
  TRACK 08 AUDIO
    TITLE "Csiszolatlan gyémántok"
    PERFORMER "Kowalsky meg a Vega"
    REM COMPOSER ""
    INDEX 00 28:37:66
    INDEX 01 28:39:66
  TRACK 09 AUDIO
    TITLE "Magadban, másokat"
    PERFORMER "Kowalsky meg a Vega"
    REM COMPOSER ""
    INDEX 00 32:39:28
    INDEX 01 32:41:28
  TRACK 10 AUDIO
    TITLE "Nincs nélkül, nincs van"
    PERFORMER "Kowalsky meg a Vega"
    REM COMPOSER ""
    INDEX 00 36:55:65
    INDEX 01 36:57:65
Код:
-----------------------
DON'T MODIFY THIS FILE
-----------------------
PERFORMER: auCDtect Task Manager, ver. 1.6.0 RC1 build 1.6.0.1
Copyright (c) 2008-2010 y-soft. All rights reserved
[url=http://y-soft.org]http://y-soft.org[/url]
ANALYZER: auCDtect: CD records authenticity detector, version 0.8.2
Copyright (c) 2004 Oleg Berngardt. All rights reserved.
Copyright (c) 2004 Alexander Djourik. All rights reserved.
FILE: Kowalsky meg a Vega - Az évtized lemeze CD1.flac
  Size: 277388826 Hash: AF222A8AFF4C34455B35180F17FF6457 Accuracy: -m0
  Conclusion: CDDA 100%
  Signature: B68010F1EF2DC4B4827A0DBA186240D01E59116E
TRACKLIST:
1. Ennyi csak
2. Új templom épül
3. Így szép, így jó
4. Kivan ez találva
5. Otthon, édes otthon
6. Fekete lepke
7. Szemenszedett igazság
8. Nem minden szarka farka
9. Többet érdemelsz
10. Minden rendben
11. Nem igaz!
12. Szentimentális bérgyilkos
13. Hotel Eufória
14. Forradalom RT
15. Aszfalt és fehér csík
16. Darsan
17. Balul sül el!
18. Herceg fehér lovon
Код:
Exact Audio Copy V1.3 from 2. September 2016
EAC extraction logfile from 20. December 2018, 7:25
Kowalsky meg a Vega / Az évtized lemeze CD2
Used drive  : HL-DT-STDVDRAM GH22LS50   Adapter: 1  ID: 0
Read mode               : Secure
Utilize accurate stream : Yes
Defeat audio cache      : Yes
Make use of C2 pointers : No
Read offset correction                      : 667
Overread into Lead-In and Lead-Out          : No
Fill up missing offset samples with silence : Yes
Delete leading and trailing silent blocks   : No
Null samples used in CRC calculations       : Yes
Used interface                              : Native Win32 interface for Win NT & 2000
Used output format              : User Defined Encoder
Selected bitrate                : 1024 kBit/s
Quality                         : High
Add ID3 tag                     : Yes
Command line compressor         : C:\Program Files (x86)\Exact Audio Copy\FLAC\FLAC.EXE
Additional command line options : -6 -V -T "ARTIST=%artist%" -T "TITLE=%title%" -T "ALBUM=%albumtitle%" -T "DATE=%year%" -T "TRACKNUMBER=%tracknr%" -T "GENRE=%genre%" -T "COMMENT=%comment%" -T "BAND=%albuminterpret%" -T "ALBUMARTIST=%albuminterpret%" -T "COMPOSER=%composer%" %haslyrics%--tag-from-file=LYRICS="%lyricsfile%"%haslyrics% -T "DISCNUMBER=%cdnumber%" -T "TOTALDISCS=%totalcds%" -T "TOTALTRACKS=%numtracks%" %hascover%--picture="%coverfile%"%hascover% %source% -o %dest%
TOC of the extracted CD
     Track |   Start  |  Length  | Start sector | End sector
    ---------------------------------------------------------
        1  |  0:00.00 |  4:06.34 |         0    |    18483
        2  |  4:06.34 |  3:32.06 |     18484    |    34389
        3  |  7:38.40 |  4:03.04 |     34390    |    52618
        4  | 11:41.44 |  5:02.30 |     52619    |    75298
        5  | 16:43.74 |  3:56.36 |     75299    |    93034
        6  | 20:40.35 |  4:42.61 |     93035    |   114245
        7  | 25:23.21 |  4:29.41 |    114246    |   134461
        8  | 29:52.62 |  5:10.09 |    134462    |   157720
        9  | 35:02.71 |  4:51.11 |    157721    |   179556
       10  | 39:54.07 |  3:34.40 |    179557    |   195646
       11  | 43:28.47 |  4:12.15 |    195647    |   214561
       12  | 47:40.62 |  3:32.04 |    214562    |   230465
       13  | 51:12.66 |  4:32.25 |    230466    |   250890
       14  | 55:45.16 |  3:47.34 |    250891    |   267949
       15  | 59:32.50 |  3:33.05 |    267950    |   283929
       16  | 63:05.55 |  5:22.70 |    283930    |   308149
       17  | 68:28.50 |  3:07.68 |    308150    |   322242
       18  | 71:36.43 |  3:03.12 |    322243    |   335979
Range status and errors
Selected range
     Filename F:\Kowalsky meg a Vega - 2011 - Az évtized lemeze\CD 2\Kowalsky meg a Vega - Az évtized lemeze CD2.wav
     Peak level 41.0 %
     Extraction speed 7.4 X
     Range quality 100.0 %
     Test CRC 71F94362
     Copy CRC 71F94362
     Copy OK
No errors occurred
End of status report
---- CUETools DB Plugin V2.1.6
[CTDB TOCID: VjM9.KeJrinMvkDqr7qlaaUJ2Z4-] disk not present in database
Submit result: VjM9.KeJrinMvkDqr7qlaaUJ2Z4- has been uploaded
==== Log checksum 12E296FF03782AC6126F9BAD6DD168557EE4EEE92E8D084A91F479923051703A ====
Код:
REM GENRE Pop/Rock
REM DATE 2011
REM DISCID F3117F12
REM COMMENT "ExactAudioCopy v1.3"
PERFORMER "Kowalsky meg a Vega"
TITLE "Az évtized lemeze CD2"
REM COMPOSER ""
FILE "Kowalsky meg a Vega - Az évtized lemeze CD2.flac" WAVE
  TRACK 01 AUDIO
    TITLE "Ennyi csak"
    PERFORMER "Kowalsky meg a Vega"
    REM COMPOSER ""
    INDEX 01 00:00:00
  TRACK 02 AUDIO
    TITLE "Szentimentális bérgyilkos"
    PERFORMER "Kowalsky meg a Vega"
    REM COMPOSER ""
    INDEX 00 04:04:34
    INDEX 01 04:06:34
  TRACK 03 AUDIO
    TITLE "Forradalom Rt."
    PERFORMER "Kowalsky meg a Vega"
    REM COMPOSER ""
    INDEX 00 07:36:40
    INDEX 01 07:38:40
  TRACK 04 AUDIO
    TITLE "Új templom épül"
    PERFORMER "Kowalsky meg a Vega"
    REM COMPOSER ""
    INDEX 00 11:39:44
    INDEX 01 11:41:44
  TRACK 05 AUDIO
    TITLE "Nem minden szarka farka"
    PERFORMER "Kowalsky meg a Vega"
    REM COMPOSER ""
    INDEX 00 16:41:74
    INDEX 01 16:43:74
  TRACK 06 AUDIO
    TITLE "Ki van ez találva!"
    PERFORMER "Kowalsky meg a Vega"
    REM COMPOSER ""
    INDEX 00 20:38:35
    INDEX 01 20:40:35
  TRACK 07 AUDIO
    TITLE "Így szép, így jó"
    PERFORMER "Kowalsky meg a Vega"
    REM COMPOSER ""
    INDEX 00 25:21:21
    INDEX 01 25:23:21
  TRACK 08 AUDIO
    TITLE "Otthon, édes otthon"
    PERFORMER "Kowalsky meg a Vega"
    REM COMPOSER ""
    INDEX 00 29:50:62
    INDEX 01 29:52:62
  TRACK 09 AUDIO
    TITLE "Szemenszedett igazság"
    PERFORMER "Kowalsky meg a Vega"
    REM COMPOSER ""
    INDEX 00 35:00:71
    INDEX 01 35:02:71
  TRACK 10 AUDIO
    TITLE "Nem igaz!"
    PERFORMER "Kowalsky meg a Vega"
    REM COMPOSER ""
    INDEX 00 39:52:07
    INDEX 01 39:54:07
  TRACK 11 AUDIO
    TITLE "Fekete lepke"
    PERFORMER "Kowalsky meg a Vega"
    REM COMPOSER ""
    INDEX 00 43:26:47
    INDEX 01 43:28:47
  TRACK 12 AUDIO
    TITLE "Többet érdemelsz"
    PERFORMER "Kowalsky meg a Vega"
    REM COMPOSER ""
    INDEX 00 47:38:62
    INDEX 01 47:40:62
  TRACK 13 AUDIO
    TITLE "Minden rendben"
    PERFORMER "Kowalsky meg a Vega"
    REM COMPOSER ""
    INDEX 00 51:10:66
    INDEX 01 51:12:66
  TRACK 14 AUDIO
    TITLE "Hotel Eufória"
    PERFORMER "Kowalsky meg a Vega"
    REM COMPOSER ""
    INDEX 00 55:43:16
    INDEX 01 55:45:16
  TRACK 15 AUDIO
    TITLE "Aszfalt és fehér csík"
    PERFORMER "Kowalsky meg a Vega"
    REM COMPOSER ""
    INDEX 00 59:30:50
    INDEX 01 59:32:50
  TRACK 16 AUDIO
    TITLE "Darsan"
    PERFORMER "Kowalsky meg a Vega"
    REM COMPOSER ""
    INDEX 00 63:03:55
    INDEX 01 63:05:55
  TRACK 17 AUDIO
    TITLE "Balul sül el!"
    PERFORMER "Kowalsky meg a Vega"
    REM COMPOSER ""
    INDEX 00 68:26:50
    INDEX 01 68:28:50
  TRACK 18 AUDIO
    TITLE "Herceg fehér lovon"
    PERFORMER "Kowalsky meg a Vega"
    REM COMPOSER ""
    INDEX 00 71:34:43
    INDEX 01 71:36:43
Код:
-----------------------
DON'T MODIFY THIS FILE
-----------------------
PERFORMER: auCDtect Task Manager, ver. 1.6.0 RC1 build 1.6.0.1
Copyright (c) 2008-2010 y-soft. All rights reserved
[url=http://y-soft.org]http://y-soft.org[/url]
ANALYZER: auCDtect: CD records authenticity detector, version 0.8.2
Copyright (c) 2004 Oleg Berngardt. All rights reserved.
Copyright (c) 2004 Alexander Djourik. All rights reserved.
FILE: Kowalsky meg a Vega - Az évtized lemeze CD2.flac
  Size: 498888744 Hash: 984B746EEA5A9B77493417BFD57FF9D2 Accuracy: -m0
  Conclusion: CDDA 100%
  Signature: 559278D678F994B995280BD5BF787959DBD54CA2
Доп. информация: http://kowa.hu/
Görög Dani – trombita
Juhász Rob – gitár
Tar Gergő – percussion
Kovács Zsuzska – hegedű
Giret Gijo Gábor – basszusgitár
Kowa – ének
Csányi Zoli – dobok
Gera Gábor – tangóharmonika, vokál
Vidák Robi – akusztikus gitár
Koós- Hutás Áron – trombita
Ковальский и Вега прибыли в 2011 году как важный рубеж. Впервые за десять лет оркестр отправился в студию для первой записи. По случаю юбилея 25 ноября 2011 года на двойном альбоме группы были представлены обновленные версии десяти лучших хитов первых десяти лет и десять новых выпусков.

Kowalsky and Vega arrived in 2011 as an important milestone. For the first time in ten years, the orchestra went to the studio for the first record. On the occasion of the jubilee on November 25, 2011, the band's double album featured updated versions of the top ten hits of the first ten years and ten new releases.

Fontos mérföldkőhöz érkezett 2011-ben a Kowalsky meg a Vega. A zenekar pontosan tíz éve vonult először stúdióba, hogy elkészítse első nagylemezét. A jubileum alkalmából 2011. november 25-én jelent meg a banda dupla albuma az első tíz év legnagyobb slágereinek felfrissített változataival és tíz új szerzeménnyel.
Правила, инструкции, FAQ!!!
Торрент  Добавлен [26 мар 2019, 20:03] Скачать торрент Магнет ссылка
Скачать торрент
[ Размер 15.45 КБ / Просмотров 7 ]

Статус
Проверен 
 
Размер  740.43 МБ
Приватный: Нет (DHT включён)
.torrent скачан  0
 


     Отправить личное сообщение
   
Страница 1 из 1
Показать сообщения за:  Поле сортировки  
Начать новую тему Ответить на тему


Сейчас этот форум просматривают: нет зарегистрированных пользователей и гости: 0


Вы не можете начинать темы
Вы не можете отвечать на сообщения
Вы не можете редактировать свои сообщения
Вы не можете удалять свои сообщения
Вы не можете добавлять вложения

Перейти:  
cron