Начать новую тему Ответить на тему
Статистика раздачи
Размер: 394.05 МБ | Добавлен: 26 мар 2019, 20:03 | Скачали: 0
Сидеров: 0  [0 байт/сек]    Личеров: 0  [0 байт/сек]
Пред. тема | След. тема 

Автор
Сообщение

СообщениеДобавлено: 26 мар 2019, 20:03 

Ответить с цитатой 

Varázsszavak
(2016)

Жанр: Pop/Rock
Носитель: CD
Страна-производитель диска (релиза): Hungary
Год издания: 2016
Издатель (лейбл): Author release
Номер по каталогу: 5999886421021
Страна исполнителя (группы): Hungary
Аудиокодек: FLAC (*.flac)
Тип рипа: image+.cue
Битрейт аудио: lossless
Продолжительность: 0:54:16
Источник (релизер): собственный рип
Наличие сканов в содержимом раздачи: нет

01. Mit mondjak még
02. Hiszek benne
03. Ez a mi mesénk (feat. FankaDeli)
04. Varázsszavak
05. Lélekszerelő
06. Csend legyen!
07. Éjféltől éjfélig
08. Idővel
09. Amilyen hülye vagy... (Daddys version)
10. Nekem elég
11. Az élet az igazi R'n'R
12. Sírig tart
13. Játszd újra!
Код:
Exact Audio Copy V1.3 from 2. September 2016
EAC extraction logfile from 20. December 2018, 11:28
Kowalsky meg a Vega / Varázsszavak
Used drive  : HL-DT-STDVDRAM GH22LS50   Adapter: 1  ID: 0
Read mode               : Secure
Utilize accurate stream : Yes
Defeat audio cache      : Yes
Make use of C2 pointers : No
Read offset correction                      : 667
Overread into Lead-In and Lead-Out          : No
Fill up missing offset samples with silence : Yes
Delete leading and trailing silent blocks   : No
Null samples used in CRC calculations       : Yes
Used interface                              : Native Win32 interface for Win NT & 2000
Used output format              : User Defined Encoder
Selected bitrate                : 1024 kBit/s
Quality                         : High
Add ID3 tag                     : Yes
Command line compressor         : C:\Program Files (x86)\Exact Audio Copy\FLAC\FLAC.EXE
Additional command line options : -6 -V -T "ARTIST=%artist%" -T "TITLE=%title%" -T "ALBUM=%albumtitle%" -T "DATE=%year%" -T "TRACKNUMBER=%tracknr%" -T "GENRE=%genre%" -T "COMMENT=%comment%" -T "BAND=%albuminterpret%" -T "ALBUMARTIST=%albuminterpret%" -T "COMPOSER=%composer%" %haslyrics%--tag-from-file=LYRICS="%lyricsfile%"%haslyrics% -T "DISCNUMBER=%cdnumber%" -T "TOTALDISCS=%totalcds%" -T "TOTALTRACKS=%numtracks%" %hascover%--picture="%coverfile%"%hascover% %source% -o %dest%
TOC of the extracted CD
     Track |   Start  |  Length  | Start sector | End sector
    ---------------------------------------------------------
        1  |  0:00.00 |  4:23.19 |         0    |    19743
        2  |  4:23.19 |  4:39.00 |     19744    |    40668
        3  |  9:02.19 |  4:37.39 |     40669    |    61482
        4  | 13:39.58 |  4:16.02 |     61483    |    80684
        5  | 17:55.60 |  4:36.44 |     80685    |   101428
        6  | 22:32.29 |  4:07.11 |    101429    |   119964
        7  | 26:39.40 |  3:15.19 |    119965    |   134608
        8  | 29:54.59 |  3:57.43 |    134609    |   152426
        9  | 33:52.27 |  4:18.34 |    152427    |   171810
       10  | 38:10.61 |  4:11.53 |    171811    |   190688
       11  | 42:22.39 |  3:42.22 |    190689    |   207360
       12  | 46:04.61 |  4:11.47 |    207361    |   226232
       13  | 50:16.33 |  4:00.39 |    226233    |   244271
Range status and errors
Selected range
     Filename F:\Kowalsky meg a Vega - 2016 - Varázsszavak\Kowalsky meg a Vega - Varázsszavak.wav
     Peak level 98.8 %
     Extraction speed 6.8 X
     Range quality 99.9 %
     Test CRC FC929943
     Copy CRC FC929943
     Copy OK
No errors occurred
End of status report
---- CUETools DB Plugin V2.1.6
[CTDB TOCID: cP.9UKGk1WANKneXizgzh32rRo8-] disk not present in database
Submit result: cP.9UKGk1WANKneXizgzh32rRo8- has been uploaded
==== Log checksum 4A63434FE49880D808CB92249CC3809E0C5F3884C943DD7A93808E2E25B8D1AB ====
Код:
REM GENRE Pop/Rock
REM DATE 2014
REM DISCID 00000000
REM COMMENT "ExactAudioCopy v1.3"
PERFORMER "Kowalsky meg a Vega"
TITLE "Varázsszavak"
REM COMPOSER ""
FILE "Kowalsky meg a Vega - Varázsszavak.flac" WAVE
  TRACK 01 AUDIO
    TITLE "Mit mondjak még"
    PERFORMER "Kowalsky meg a Vega"
    REM COMPOSER ""
    INDEX 01 00:00:00
  TRACK 02 AUDIO
    TITLE "Hiszek benne"
    PERFORMER "Kowalsky meg a Vega"
    REM COMPOSER ""
    INDEX 00 04:21:19
    INDEX 01 04:23:19
  TRACK 03 AUDIO
    TITLE "Ez a mi mesénk (feat. FankaDeli)"
    PERFORMER "Kowalsky meg a Vega"
    REM COMPOSER ""
    INDEX 00 09:00:19
    INDEX 01 09:02:19
  TRACK 04 AUDIO
    TITLE "Varázsszavak"
    PERFORMER "Kowalsky meg a Vega"
    REM COMPOSER ""
    INDEX 00 13:37:58
    INDEX 01 13:39:58
  TRACK 05 AUDIO
    TITLE " Lélekszerelő"
    PERFORMER "Kowalsky meg a Vega"
    REM COMPOSER ""
    INDEX 00 17:53:60
    INDEX 01 17:55:60
  TRACK 06 AUDIO
    TITLE "Csend legyen!"
    PERFORMER "Kowalsky meg a Vega"
    REM COMPOSER ""
    INDEX 00 22:30:29
    INDEX 01 22:32:29
  TRACK 07 AUDIO
    TITLE "Éjféltől éjfélig"
    PERFORMER "Kowalsky meg a Vega"
    REM COMPOSER ""
    INDEX 00 26:37:40
    INDEX 01 26:39:40
  TRACK 08 AUDIO
    TITLE "Idővel"
    PERFORMER "Kowalsky meg a Vega"
    REM COMPOSER ""
    INDEX 00 29:52:59
    INDEX 01 29:54:59
  TRACK 09 AUDIO
    TITLE "Amilyen hülye vagy... (Daddys version)"
    PERFORMER "Kowalsky meg a Vega"
    REM COMPOSER ""
    INDEX 00 33:50:27
    INDEX 01 33:52:27
  TRACK 10 AUDIO
    TITLE "Nekem elég"
    PERFORMER "Kowalsky meg a Vega"
    REM COMPOSER ""
    INDEX 00 38:08:61
    INDEX 01 38:10:61
  TRACK 11 AUDIO
    TITLE "Az élet az igazi R'n'R"
    PERFORMER "Kowalsky meg a Vega"
    REM COMPOSER ""
    INDEX 00 42:20:39
    INDEX 01 42:22:39
  TRACK 12 AUDIO
    TITLE "Sírig tart"
    PERFORMER "Kowalsky meg a Vega"
    REM COMPOSER ""
    INDEX 00 46:02:61
    INDEX 01 46:04:61
  TRACK 13 AUDIO
    TITLE "Játszd újra!"
    PERFORMER "Kowalsky meg a Vega"
    REM COMPOSER ""
    INDEX 00 50:14:33
    INDEX 01 50:16:33
Код:
-----------------------
DON'T MODIFY THIS FILE
-----------------------
PERFORMER: auCDtect Task Manager, ver. 1.6.0 RC1 build 1.6.0.1
Copyright (c) 2008-2010 y-soft. All rights reserved
[url=http://y-soft.org]http://y-soft.org[/url]
ANALYZER: auCDtect: CD records authenticity detector, version 0.8.2
Copyright (c) 2004 Oleg Berngardt. All rights reserved.
Copyright (c) 2004 Alexander Djourik. All rights reserved.
FILE: Kowalsky meg a Vega - Varázsszavak.flac
  Size: 413135408 Hash: 7E444BFA61D1D23E88625F0D17081122 Accuracy: -m0
  Conclusion: CDDA 100%
  Signature: 3DCA71FFAB870143D4E478732CF90ECD66943EFB
Доп. информация: http://kowa.hu/

"Kowalsky" Balázs Gyula - ének
Szórád "Jimmy" Csaba - basszusgitár
Vajda "Sóder" Péter - dobok
Vidák Róbert "More" - akusztikus gitár
Tobak Dániel "Dani" - gitár
Kowalsky - восьмой альбом группы Vega.

The eighth album of the Kowalsky és a Vega band.

A Kowalsky meg a Vega zenekar nyolcadik nagylemeze.
Правила, инструкции, FAQ!!!
Торрент  Добавлен [26 мар 2019, 20:03] Скачать торрент Магнет ссылка
Скачать торрент
[ Размер 16.09 КБ / Просмотров 2 ]

Статус
Проверен 
 
Размер  394.05 МБ
Приватный: Нет (DHT включён)
.torrent скачан  0
 


     Отправить личное сообщение
   
Страница 1 из 1
Показать сообщения за:  Поле сортировки  
Начать новую тему Ответить на тему


Сейчас этот форум просматривают: нет зарегистрированных пользователей и гости: 0


Вы не можете начинать темы
Вы не можете отвечать на сообщения
Вы не можете редактировать свои сообщения
Вы не можете удалять свои сообщения
Вы не можете добавлять вложения

Перейти:  
cron