Начать новую тему Ответить на тему
Статистика раздачи
Размер: 315.42 МБ | Добавлен: 26 мар 2019, 20:01 | Скачали: 0
Сидеров: 0  [0 байт/сек]    Личеров: 0  [0 байт/сек]
Пред. тема | След. тема 

Автор
Сообщение

СообщениеДобавлено: 26 мар 2019, 20:01 

Ответить с цитатой 

Szemenszedett igazság
(2008)

Жанр: Pop/Rock
Носитель: CD
Страна-производитель диска (релиза): Hungary
Год издания: 2008
Издатель (лейбл): SA
Номер по каталогу: 149-2
Страна исполнителя (группы): Hungary
Аудиокодек: FLAC (*.flac)
Тип рипа: image+.cue
Битрейт аудио: lossless
Продолжительность: 0:51:06
Источник (релизер): собственный рип
Наличие сканов в содержимом раздачи: нет

01. Szemenszedett Igazság
02. Jövünk Mint a Hunok
03. Szentimentális Bérgyilkos
04. Több Mint Elég
05. Otthon, Édes Otthon
06. Megáll az Ész!
07. Ne Hagyd Magad 1.
08. Magasban és Mélyben
09. Új Templom Épül
10. Minden Rendben
11. Ne Hagyd Magad 2.
12. Örök Törvény
13. Nincs Jobb Mint a Legjobb
14. Hagyd Magad!
Код:
Exact Audio Copy V1.3 from 2. September 2016
EAC extraction logfile from 19. December 2018, 20:16
Kowalsky meg a Vega / Szemenszedett igazság
Used drive  : HL-DT-STDVDRAM GH22LS50   Adapter: 1  ID: 0
Read mode               : Secure
Utilize accurate stream : Yes
Defeat audio cache      : Yes
Make use of C2 pointers : No
Read offset correction                      : 667
Overread into Lead-In and Lead-Out          : No
Fill up missing offset samples with silence : Yes
Delete leading and trailing silent blocks   : No
Null samples used in CRC calculations       : Yes
Used interface                              : Native Win32 interface for Win NT & 2000
Used output format              : User Defined Encoder
Selected bitrate                : 1024 kBit/s
Quality                         : High
Add ID3 tag                     : Yes
Command line compressor         : C:\Program Files (x86)\Exact Audio Copy\FLAC\FLAC.EXE
Additional command line options : -6 -V -T "ARTIST=%artist%" -T "TITLE=%title%" -T "ALBUM=%albumtitle%" -T "DATE=%year%" -T "TRACKNUMBER=%tracknr%" -T "GENRE=%genre%" -T "COMMENT=%comment%" -T "BAND=%albuminterpret%" -T "ALBUMARTIST=%albuminterpret%" -T "COMPOSER=%composer%" %haslyrics%--tag-from-file=LYRICS="%lyricsfile%"%haslyrics% -T "DISCNUMBER=%cdnumber%" -T "TOTALDISCS=%totalcds%" -T "TOTALTRACKS=%numtracks%" %hascover%--picture="%coverfile%"%hascover% %source% -o %dest%
TOC of the extracted CD
     Track |   Start  |  Length  | Start sector | End sector
    ---------------------------------------------------------
        1  |  0:00.00 |  4:52.37 |         0    |    21936
        2  |  4:52.37 |  3:59.47 |     21937    |    39908
        3  |  8:52.09 |  3:32.51 |     39909    |    55859
        4  | 12:24.60 |  4:04.19 |     55860    |    74178
        5  | 16:29.04 |  5:19.68 |     74179    |    98171
        6  | 21:48.72 |  4:09.27 |     98172    |   116873
        7  | 25:58.24 |  0:53.74 |    116874    |   120922
        8  | 26:52.23 |  4:43.51 |    120923    |   142198
        9  | 31:35.74 |  5:05.39 |    142199    |   165112
       10  | 36:41.38 |  4:40.08 |    165113    |   186120
       11  | 41:21.46 |  0:55.15 |    186121    |   190260
       12  | 42:16.61 |  4:09.30 |    190261    |   208965
       13  | 46:26.16 |  4:01.26 |    208966    |   227066
       14  | 50:27.42 |  0:39.25 |    227067    |   230016
Range status and errors
Selected range
     Filename F:\Kowalsky meg a Vega - 2008 - Szemenszedett igazság\Kowalsky meg a Vega - Szemenszedett igazság.wav
     Peak level 44.3 %
     Extraction speed 6.8 X
     Range quality 100.0 %
     Test CRC D68B6034
     Copy CRC D68B6034
     Copy OK
No errors occurred
End of status report
---- CUETools DB Plugin V2.1.6
[CTDB TOCID: 4b7eKvpzGH4ShFh2DhHaHHzL8Rs-] disk not present in database
Submit result: 4b7eKvpzGH4ShFh2DhHaHHzL8Rs- has been uploaded
==== Log checksum C471397C634D700E4A934685DA98D8870D7FE569DD99C0F6B923780B77F722D9 ====
Код:
REM DATE 2008
REM DISCID C80BFA0E
REM COMMENT "ExactAudioCopy v1.3"
PERFORMER "Kowalsky meg a Vega"
TITLE "Szemenszedett igazság"
REM COMPOSER ""
FILE "Kowalsky meg a Vega - Szemenszedett igazság.flac" WAVE
  TRACK 01 AUDIO
    TITLE "Szemenszedett igazság"
    PERFORMER "Kowalsky meg a Vega"
    REM COMPOSER ""
    INDEX 01 00:00:00
  TRACK 02 AUDIO
    TITLE "Jövünk mint a hunok"
    PERFORMER "Kowalsky meg a Vega"
    REM COMPOSER ""
    INDEX 00 04:50:37
    INDEX 01 04:52:37
  TRACK 03 AUDIO
    TITLE "Szentimentális bérgyilkos"
    PERFORMER "Kowalsky meg a Vega"
    REM COMPOSER ""
    INDEX 00 08:50:09
    INDEX 01 08:52:09
  TRACK 04 AUDIO
    TITLE "Több mint elég"
    PERFORMER "Kowalsky meg a Vega"
    REM COMPOSER ""
    INDEX 00 12:22:60
    INDEX 01 12:24:60
  TRACK 05 AUDIO
    TITLE "Otthon, édes otthon"
    PERFORMER "Kowalsky meg a Vega"
    REM COMPOSER ""
    INDEX 00 16:27:04
    INDEX 01 16:29:04
  TRACK 06 AUDIO
    TITLE "Megáll az ész!"
    PERFORMER "Kowalsky meg a Vega"
    REM COMPOSER ""
    INDEX 00 21:46:72
    INDEX 01 21:48:72
  TRACK 07 AUDIO
    TITLE "Ne hagyd magad I."
    PERFORMER "Kowalsky meg a Vega"
    REM COMPOSER ""
    INDEX 00 25:56:24
    INDEX 01 25:58:24
  TRACK 08 AUDIO
    TITLE "Magasban és mélyben"
    PERFORMER "Kowalsky meg a Vega"
    REM COMPOSER ""
    INDEX 00 26:50:23
    INDEX 01 26:52:23
  TRACK 09 AUDIO
    TITLE "Új templom épül"
    PERFORMER "Kowalsky meg a Vega"
    REM COMPOSER ""
    INDEX 00 31:33:74
    INDEX 01 31:35:74
  TRACK 10 AUDIO
    TITLE "Minden rendben"
    PERFORMER "Kowalsky meg a Vega"
    REM COMPOSER ""
    INDEX 00 36:39:38
    INDEX 01 36:41:38
  TRACK 11 AUDIO
    TITLE "Ne hagyd magad II."
    PERFORMER "Kowalsky meg a Vega"
    REM COMPOSER ""
    INDEX 00 41:19:46
    INDEX 01 41:21:46
  TRACK 12 AUDIO
    TITLE "Örök törvény"
    PERFORMER "Kowalsky meg a Vega"
    REM COMPOSER ""
    INDEX 00 42:14:61
    INDEX 01 42:16:61
  TRACK 13 AUDIO
    TITLE "Nincs jobb mint a legjobb"
    PERFORMER "Kowalsky meg a Vega"
    REM COMPOSER ""
    INDEX 00 46:24:16
    INDEX 01 46:26:16
  TRACK 14 AUDIO
    TITLE "Hagyd magad!"
    PERFORMER "Kowalsky meg a Vega"
    REM COMPOSER ""
    INDEX 00 50:25:42
    INDEX 01 50:27:42
Код:
-----------------------
DON'T MODIFY THIS FILE
-----------------------
PERFORMER: auCDtect Task Manager, ver. 1.6.0 RC1 build 1.6.0.1
Copyright (c) 2008-2010 y-soft. All rights reserved
[url=http://y-soft.org]http://y-soft.org[/url]
ANALYZER: auCDtect: CD records authenticity detector, version 0.8.2
Copyright (c) 2004 Oleg Berngardt. All rights reserved.
Copyright (c) 2004 Alexander Djourik. All rights reserved.
FILE: Kowalsky meg a Vega - Szemenszedett igazság.flac
  Size: 330685434 Hash: 7B013E7D373F259ED13D9F4BD94F24DA Accuracy: -m0
  Conclusion: CDDA 100%
  Signature: E56944198BE8D3F1578EE83EEA7EC2CB5D3C56F6
Доп. информация: http://kowa.hu/

"Kowalsky" Balázs Gyula - ének
Szórád "Jimmy" Csaba - basszusgitár
Vajda "Sóder" Péter - dobok
Vidák Róbert "More" - akusztikus gitár
Tobak Dániel "Dani" - gitár
Осенью 1999 года к ним уже присоединились два музыканта: Balázs Gyula Kowalsky и Béla Jávorszky, которые призвали к созданию совместного оркестра. Третьим участником был Робо, ответственный за паз фонтанов.
Их первый альбом "Pimasz Grimasz" был выпущен в октябре 2003 года. Их второй альбом, Vegasztár - Second Puzzles, был выпущен в апреле 2005 года.
Третий альбом, выпущенный в сентябре 2006 года Revolution RT. Стиль Ковальского продолжал всплывать.
На последней записи (треке) Дедушки Правды всего тридцать три секунды. Ковальский звонит - или, скорее, - инструктирует слушателя пойти на альбом еще раз, потому что сначала невозможно понять все это.
Во-первых, невозможно получить этот твердый, более пятидесятиминутный, но гораздо более длинный звук. Даже во многих случаях молчания мы можем найти интересные музыкальные решения, послание между рядами, так что, как предполагает «фронтмен», который слушал сто двадцать, он также сократил его.
«На нашем диске много стилей. Этому предшествовала песня "Hip-Hop" от Much, латиноамериканского принца на белом коне или песня "Balul", содержащая элементы народной музыки.
Работы Семитской Правды основаны на груве, акустических основах, и с этого момента мы смело коснулись всего, что нам понравилось. В записях звучат труба, кларнет, флейта, губная гармоника и скрипка. Материал в основном популярен », - сказал Ковальский.
Одиннадцать песен на четырнадцати треках дополнены тремя короткими связями рапа.
«Тебе нравится, как ты это рисуешь», - поет губернатор Ковальский. в песне под названием «Песня». Если бы вам пришлось обобщить сообщение диска в одном предложении, это было бы так.

In the autumn of 1999, two musicians had already joined: Balázs Gyula Kowalsky and Béla Jávorszky, who called for the establishment of a joint orchestra. The third member was Robo responsible for groove funds.
Their first album, "Pimasz Grimasz", was released in October 2003. Their second album, Vegasztár - Second Puzzles, was released in April 2005.
The third album released in September 2006 by Revolution RT. Kowalsky's style continued to pop up.
In the last recording (track) of the Grandfather Truth, just thirty-three seconds. Kowalsky calls - or rather - instructs the listener to go to the album one more time, because at first it is impossible to grasp the whole thing.
In the first place, it is not possible to receive this solid, more than fifty-minute, but much longer sound. Even in the many times of silence, we can discover interesting musical solutions, a message between rows, so - as the frontman "suggests" - who listened to one hundred and twenty, also cut it again.
“There are a lot of styles on our disk. This was preceded by the song "Hip-Hop" by the Much, the Latino Sound Prince on the White Horse, or the song "Balul" that contains folk music elements.
The works of Semitic Truth are based on groove, acoustic bases, and from that point on, we have boldly touched everything we liked. Trumpet, clarinet, flute, harmonica and violin can be heard in the recordings. The material is basically popular, ”Kowalsky described.
Eleven songs on the fourteen track tracks are completed with three short rapa bindings.
"You like the way you paint it," Kowalsky sings the harmonica. in the song titled "Song." If you had to summarize the message of the disc in one sentence, that would be the case.

1999 őszén két, már befutott zenész: Kowalsky Balázs Gyula és Jávorszky Béla felvetette, hogy alapítsanak közös zenekart. A harmadik tag a groove-os alapokért felelős Juhász Rob volt.
Az első nagylemezük, a szemtelenül laza Pimasz grimasz című 2003 októberében jelent meg. A második albumuk Vegasztár – Második pimaszság címmel 2005 áprilisában került a boltokba.
A 2006 szeptemberében kiadott harmadik lemezen, a Forradalom RT. címűn Kowalskyék stílusa tovább poposodott.
A Szemenszedett igazság című nagylemez utolsó felvételében (trackjében), a mindössze harminchárom másodperces Hagyd magad! címűben Kowalsky arra kéri – vagyis inkább utasítja – a hallgatót, hogy induljon neki még egyszer az albumnak, elsőre ugyanis képtelenség az egészet felfogni.
Elsőre valóban nem lehet befogadni ezt a tömör, több mint ötvenpercnyi, de sokkal hosszabbnak tűnő hanganyagot. Sőt még a sokszori hallgatás során is fedezhetünk fel érdekes zenei megoldásokat, sorok között megbúvó üzenetet, így – ahogy a frontember „javasolja” –, aki százhuszadjára hallgatta, szintén vágjon bele újra.
„Sokféle stílus keveredik a lemezünkön. Ennek előfutára volt a hiphopos Ennyi csak, a latinos hangzású Herceg fehér lovon, vagy a népzenei elemeket tartalmazó Balul sül el című dalunk.
A Szemenszedett igazság szerzeményei groove-os, akusztikus alapokra építkeznek, innentől kezdve bátran nyúltunk mindenhez, amihez csak kedvünk volt. Trombita, klarinét, furulya, szájharmonika és hegedű is hallható a felvételekben. Alapvetően populáris az anyag” – Kowalsky így jellemezte.
A tizennégy trackes albumon tizenegy dal csendül fel három rövid rapátkötéssel kiegészítve.
„Olyan a kedved, amilyenre fested” – énekli Kowalsky a szájharmonikás Megáll az ész! című dalban. Ha egy mondatban kellene összegezni a korong üzenetét, ez lenne az.
Правила, инструкции, FAQ!!!
Торрент  Добавлен [26 мар 2019, 20:01] Скачать торрент Магнет ссылка
Скачать торрент
[ Размер 13.04 КБ / Просмотров 0 ]

Статус
Проверен 
 
Размер  315.42 МБ
Приватный: Нет (DHT включён)
.torrent скачан  0
 


     Отправить личное сообщение
   
Страница 1 из 1
Показать сообщения за:  Поле сортировки  
Начать новую тему Ответить на тему


Сейчас этот форум просматривают: нет зарегистрированных пользователей и гости: 0


Вы не можете начинать темы
Вы не можете отвечать на сообщения
Вы не можете редактировать свои сообщения
Вы не можете удалять свои сообщения
Вы не можете добавлять вложения

Перейти:  
cron