Начать новую тему Ответить на тему
Статистика раздачи
Размер: 294.62 МБ | Добавлен: 26 мар 2019, 20:01 | Скачали: 0
Сидеров: 0  [0 байт/сек]    Личеров: 0  [0 байт/сек]
Пред. тема | След. тема 

Автор
Сообщение

СообщениеДобавлено: 26 мар 2019, 20:01 

Ответить с цитатой 

Pimasz grimasz
(2003)

Жанр: Pop/Rock
Носитель: CD
Страна-производитель диска (релиза): Hungary
Год издания: 2003
Издатель (лейбл): RH
Номер по каталогу: 03001
Страна исполнителя (группы): Hungary
Аудиокодек: FLAC (*.flac)
Тип рипа: image+.cue
Битрейт аудио: lossless
Продолжительность: 0:45:45
Источник (релизер): собственный рип
Наличие сканов в содержимом раздачи: да (from net)

01. Fekete lepke
02. Mintha bankot rabolnék ...
03. Pimasz grimasz
04. Aszfalt és fehér csík
05. Többet érdemelsz
06. Lesz jobb!!!
07. Csak egy vicc
08. Akit a pénznem boldogít
09. Budapest éjjel
10. Szabad rég
11. Utolsó tangó
12. Októberben leverten a Keletinél
13. Te vagy a legjobb fej!
14. Egy kis csend
Код:
Exact Audio Copy V1.3 from 2. September 2016
EAC extraction logfile from 19. December 2018, 17:38
Kowalsky meg a Vega / Pimasz grimasz
Used drive  : HL-DT-STDVDRAM GH22LS50   Adapter: 1  ID: 0
Read mode               : Secure
Utilize accurate stream : Yes
Defeat audio cache      : Yes
Make use of C2 pointers : No
Read offset correction                      : 667
Overread into Lead-In and Lead-Out          : No
Fill up missing offset samples with silence : Yes
Delete leading and trailing silent blocks   : No
Null samples used in CRC calculations       : Yes
Used interface                              : Native Win32 interface for Win NT & 2000
Used output format              : User Defined Encoder
Selected bitrate                : 1024 kBit/s
Quality                         : High
Add ID3 tag                     : Yes
Command line compressor         : C:\Program Files (x86)\Exact Audio Copy\FLAC\FLAC.EXE
Additional command line options : -6 -V -T "ARTIST=%artist%" -T "TITLE=%title%" -T "ALBUM=%albumtitle%" -T "DATE=%year%" -T "TRACKNUMBER=%tracknr%" -T "GENRE=%genre%" -T "COMMENT=%comment%" -T "BAND=%albuminterpret%" -T "ALBUMARTIST=%albuminterpret%" -T "COMPOSER=%composer%" %haslyrics%--tag-from-file=LYRICS="%lyricsfile%"%haslyrics% -T "DISCNUMBER=%cdnumber%" -T "TOTALDISCS=%totalcds%" -T "TOTALTRACKS=%numtracks%" %hascover%--picture="%coverfile%"%hascover% %source% -o %dest%
TOC of the extracted CD
     Track |   Start  |  Length  | Start sector | End sector
    ---------------------------------------------------------
        1  |  0:00.00 |  4:11.71 |         0    |    18895
        2  |  4:11.71 |  4:23.56 |     18896    |    38676
        3  |  8:35.52 |  4:01.61 |     38677    |    56812
        4  | 12:37.38 |  3:32.15 |     56813    |    72727
        5  | 16:09.53 |  3:30.59 |     72728    |    88536
        6  | 19:40.37 |  2:11.53 |     88537    |    98414
        7  | 21:52.15 |  1:03.64 |     98415    |   103203
        8  | 22:56.04 |  3:10.19 |    103204    |   117472
        9  | 26:06.23 |  4:21.51 |    117473    |   137098
       10  | 30:27.74 |  4:12.57 |    137099    |   156055
       11  | 34:40.56 |  4:27.45 |    156056    |   176125
       12  | 39:08.26 |  4:24.40 |    176126    |   195965
       13  | 43:32.66 |  1:33.21 |    195966    |   202961
       14  | 45:06.12 |  0:39.64 |    202962    |   205950
Range status and errors
Selected range
     Filename F:\Kowalsky meg a Vega - 2003 - Pimasz grimasz\Kowalsky meg a Vega - Pimasz grimasz.wav
     Peak level 38.8 %
     Extraction speed 6.5 X
     Range quality 99.9 %
     Test CRC C6AF9AB2
     Copy CRC C6AF9AB2
     Copy OK
No errors occurred
End of status report
---- CUETools DB Plugin V2.1.6
[CTDB TOCID: 1uBjXBn4lsdtOy_3FnqAz320cqU-] disk not present in database
Submit result: 1uBjXBn4lsdtOy_3FnqAz320cqU- has been uploaded
==== Log checksum 65C3496C8F378976DB9AADF41B46EA529760F605C600C23EDE729A95D3553F5F ====
Код:
REM GENRE Pop/Rock
REM DATE 2003
REM DISCID C30ABA0E
REM COMMENT "ExactAudioCopy v1.3"
PERFORMER "Kowalsky meg a Vega"
TITLE "Pimasz grimasz"
REM COMPOSER ""
FILE "Kowalsky meg a Vega - Pimasz grimasz.flac" WAVE
  TRACK 01 AUDIO
    TITLE "Fekete lepke"
    PERFORMER "Kowalsky meg a Vega"
    REM COMPOSER ""
    INDEX 01 00:00:00
  TRACK 02 AUDIO
    TITLE "Mintha bankot rabolnék..."
    PERFORMER "Kowalsky meg a Vega"
    REM COMPOSER ""
    INDEX 00 04:09:71
    INDEX 01 04:11:71
  TRACK 03 AUDIO
    TITLE "Pimasz grimasz"
    PERFORMER "Kowalsky meg a Vega"
    REM COMPOSER ""
    INDEX 00 08:33:52
    INDEX 01 08:35:52
  TRACK 04 AUDIO
    TITLE "Aszfalt és fehér csík"
    PERFORMER "Kowalsky meg a Vega"
    REM COMPOSER ""
    INDEX 00 12:35:38
    INDEX 01 12:37:38
  TRACK 05 AUDIO
    TITLE "Többet érdemelsz"
    PERFORMER "Kowalsky meg a Vega"
    REM COMPOSER ""
    INDEX 00 16:07:53
    INDEX 01 16:09:53
  TRACK 06 AUDIO
    TITLE "Lesz jobb!!!"
    PERFORMER "Kowalsky meg a Vega"
    REM COMPOSER ""
    INDEX 00 19:38:37
    INDEX 01 19:40:37
  TRACK 07 AUDIO
    TITLE "Csak egy vicc"
    PERFORMER "Kowalsky meg a Vega"
    REM COMPOSER ""
    INDEX 00 21:50:15
    INDEX 01 21:52:15
  TRACK 08 AUDIO
    TITLE "Akit a pénznem boldogít"
    PERFORMER "Kowalsky meg a Vega"
    REM COMPOSER ""
    INDEX 00 22:54:04
    INDEX 01 22:56:04
  TRACK 09 AUDIO
    TITLE "Budapest éjjel"
    PERFORMER "Kowalsky meg a Vega"
    REM COMPOSER ""
    INDEX 00 26:04:23
    INDEX 01 26:06:23
  TRACK 10 AUDIO
    TITLE "Szabad rég"
    PERFORMER "Kowalsky meg a Vega"
    REM COMPOSER ""
    INDEX 00 30:25:74
    INDEX 01 30:27:74
  TRACK 11 AUDIO
    TITLE "Utolsó tangó"
    PERFORMER "Kowalsky meg a Vega"
    REM COMPOSER ""
    INDEX 00 34:38:56
    INDEX 01 34:40:56
  TRACK 12 AUDIO
    TITLE "Októberben leverten a Keletinél"
    PERFORMER "Kowalsky meg a Vega"
    REM COMPOSER ""
    INDEX 00 39:06:26
    INDEX 01 39:08:26
  TRACK 13 AUDIO
    TITLE "Te vagy a legjobb fej!"
    PERFORMER "Kowalsky meg a Vega"
    REM COMPOSER ""
    INDEX 00 43:30:66
    INDEX 01 43:32:66
  TRACK 14 AUDIO
    TITLE "Egy kis csend"
    PERFORMER "Kowalsky meg a Vega"
    REM COMPOSER ""
    INDEX 00 45:04:12
    INDEX 01 45:06:12
Код:
-----------------------
DON'T MODIFY THIS FILE
-----------------------
PERFORMER: auCDtect Task Manager, ver. 1.6.0 RC1 build 1.6.0.1
Copyright (c) 2008-2010 y-soft. All rights reserved
[url=http://y-soft.org]http://y-soft.org[/url]
ANALYZER: auCDtect: CD records authenticity detector, version 0.8.2
Copyright (c) 2004 Oleg Berngardt. All rights reserved.
Copyright (c) 2004 Alexander Djourik. All rights reserved.
FILE: Kowalsky meg a Vega - Pimasz grimasz.flac
  Size: 301083760 Hash: A16060E225C18CD954952AD8CA4D70A2 Accuracy: -m0
  Conclusion: CDDA 100%
  Signature: 585FE4909C07AF2D33AE286B203BCA1782B7ED37
Доп. информация: http://kowa.hu/

"Kowalsky" Balázs Gyula - ének
Szórád "Jimmy" Csaba - basszusgitár
Vajda "Sóder" Péter - dobok
Vidák Róbert "More" - akusztikus gitár
Tobak Dániel "Dani" - gitár
Команда была основана в 1999 году Баласом Ковальским Дьюлы Ковальски (который с 2007 года является только «Ковальским и Вегой»).
Новая группа выпустила свой первый альбом в 2003 году, который получил название Pimasz grimasz.
Их музыка не может быть четко классифицирована в одном жанре. Для них характерны акустические гитары, но в их музыке можно найти поп-музыку, немного джаза, драм-н-бэйс и хип-хоп. Они мелодичны, современны и юмористичны.

The team was founded in 1999 by Gyula Kowalsky's Balázs Kowalsky (who since 2007 is only "Kowalsky and Vega").
The new band released their first album in 2003, which was named Pimasz grimasz.
Their music cannot be clearly classified into a single genre. Acoustic guitars are typical of them, but pop music, some jazz, drum n 'bass and hip-hop can be found in their music as well. They are melodic, modern and humorous.

A csapatot 1999-ben alapította az akkor még a Black-Out-ban énekesi posztot betöltő Kowalsky Balázs Gyula (2007-től már kizárólag a "Kowalsky meg a Vegában" hallható).
Az új banda első albumát 2003-ban adta ki, melynek a Pimasz grimasz címet választották.
Zenéjük nem sorolható be egyértelműen egyetlen műfajba se. Jellemző rájuk az akusztikus gitár, de ugyanúgy fellelhető a zenéjükben a pop műfaj, némi jazz, drum n' bass és hip-hop is. Egytől egyig dallamosak, modernek, és a humort sem vetik meg.
Правила, инструкции, FAQ!!!
Торрент  Добавлен [26 мар 2019, 20:01] Скачать торрент Магнет ссылка
Скачать торрент
[ Размер 12.35 КБ / Просмотров 1 ]

Статус
Проверен 
 
Размер  294.62 МБ
Приватный: Нет (DHT включён)
.torrent скачан  0
 


     Отправить личное сообщение
   
Страница 1 из 1
Показать сообщения за:  Поле сортировки  
Начать новую тему Ответить на тему


Сейчас этот форум просматривают: нет зарегистрированных пользователей и гости: 0


Вы не можете начинать темы
Вы не можете отвечать на сообщения
Вы не можете редактировать свои сообщения
Вы не можете удалять свои сообщения
Вы не можете добавлять вложения

Перейти:  
cron