Начать новую тему Ответить на тему
Статистика раздачи
Размер: 1.1 ГБ | Добавлен: 26 мар 2019, 20:03 | Скачали: 0
Сидеров: 0  [0 байт/сек]    Личеров: 0  [0 байт/сек]
Пред. тема | След. тема 

Автор
Сообщение

СообщениеДобавлено: 26 мар 2019, 20:03 

Ответить с цитатой 

Kilenc
(2017)

Жанр: Pop/Rock
Носитель: CD
Страна-производитель диска (релиза): Hungary
Год издания: 2017
Издатель (лейбл): MFM
Номер по каталогу: 007
Страна исполнителя (группы): Hungary
Аудиокодек: FLAC (*.flac)
Тип рипа: tracks+.cue
Битрейт аудио: lossless
Продолжительность: 02:24:38
Источник (релизер): Naftamusic
Наличие сканов в содержимом раздачи: да
Корректность рипа: В оригинале не было применено сжатие при конвертировании во Флак (FLAC Level 0). Для приведения в соответствие правилам пережато во FLAC Level 5 с сохранением тэгов
TRACKLIST:
01 - Tizenötmillióból egy (00:04:59)
02 - Ébredj! (00:04:13)
03 - Semmim nincs (00:04:05)
04 - Hála veled (00:04:05)
05 - A lélek éjszakája (00:03:57)
06 - Egy test (00:04:43)
07 - Az élet maga (00:03:39)
08 - Ragyogás (00:03:58)
09 - Bármire képes (00:03:17)
10 - Rajtatok múlik (00:04:41)
11 - Mit mondjak még (00:04:21)
12 - Darsan (00:05:19)
13 - Szemenszedett igazság (00:05:31)
14 - Amilyen hülye vagy.... (00:04:14)
15 - Helló, halló (00:04:16)
16 - Egy világon át (00:04:30)
17 - Csend legyen (00:04:02)
Код:
Exact Audio Copy V1.3 from 2. September 2016
EAC extraction logfile from 2. October 2017, 21:06
Kowalsky meg a Vega / Kilenc
Used drive  : PLEXTOR DVDR   PX-891SAF   Adapter: 1  ID: 0
Read mode               : Secure
Utilize accurate stream : Yes
Defeat audio cache      : Yes
Make use of C2 pointers : No
Read offset correction                      : 6
Overread into Lead-In and Lead-Out          : No
Fill up missing offset samples with silence : Yes
Delete leading and trailing silent blocks   : No
Null samples used in CRC calculations       : Yes
Used interface                              : Native Win32 interface for Win NT & 2000
Gap handling                                : Appended to previous track
Used output format              : User Defined Encoder
Selected bitrate                : 1024 kBit/s
Quality                         : High
Add ID3 tag                     : No
Command line compressor         : C:\Program Files (x86)\Exact Audio Copy\Flac\flac.exe
Additional command line options : -0 -V -T "ARTIST=%artist%" -T "TITLE=%title%" -T "ALBUM=%albumtitle%" -T "DATE=%year%" -T "TRACKNUMBER=%tracknr%" -T "TOTALTRACKS=%numtracks%" -T "GENRE=%genre%" -T "COMMENT=Naftamusic Release!" %source%
TOC of the extracted CD
     Track |   Start  |  Length  | Start sector | End sector
    ---------------------------------------------------------
        1  |  0:00.00 |  4:58.50 |         0    |    22399
        2  |  4:58.50 |  4:13.12 |     22400    |    41386
        3  |  9:11.62 |  4:05.19 |     41387    |    59780
        4  | 13:17.06 |  4:04.42 |     59781    |    78122
        5  | 17:21.48 |  3:57.29 |     78123    |    95926
        6  | 21:19.02 |  4:43.32 |     95927    |   117183
        7  | 26:02.34 |  3:38.67 |    117184    |   133600
        8  | 29:41.26 |  3:58.23 |    133601    |   151473
        9  | 33:39.49 |  3:16.68 |    151474    |   166241
       10  | 36:56.42 |  4:41.13 |    166242    |   187329
       11  | 41:37.55 |  4:21.29 |    187330    |   206933
       12  | 45:59.09 |  5:19.07 |    206934    |   230865
       13  | 51:18.16 |  5:31.35 |    230866    |   255725
       14  | 56:49.51 |  4:14.29 |    255726    |   274804
       15  | 61:04.05 |  4:15.60 |    274805    |   293989
       16  | 65:19.65 |  4:29.64 |    293990    |   314228
       17  | 69:49.54 |  4:02.21 |    314229    |   332399
Track  1
     Filename E:\Nafta Releases\Kowalsky meg a Vega - Kilenc (2 CD 2017)[FLAC] - Naftamusic\CD 1\01 - Tizenötmillióból egy.wav
     Pre-gap length  0:00:02.00
     Peak level 98.8 %
     Extraction speed 2.9 X
     Track quality 100.0 %
     Test CRC 3C327EB6
     Copy CRC 3C327EB6
     Track not present in AccurateRip database
     Copy OK
Track  2
     Filename E:\Nafta Releases\Kowalsky meg a Vega - Kilenc (2 CD 2017)[FLAC] - Naftamusic\CD 1\02 - Ébredj!.wav
     Pre-gap length  0:00:02.00
     Peak level 98.8 %
     Extraction speed 3.1 X
     Track quality 100.0 %
     Test CRC 5E8F6424
     Copy CRC 5E8F6424
     Track not present in AccurateRip database
     Copy OK
Track  3
     Filename E:\Nafta Releases\Kowalsky meg a Vega - Kilenc (2 CD 2017)[FLAC] - Naftamusic\CD 1\03 - Semmim nincs.wav
     Pre-gap length  0:00:02.00
     Peak level 98.8 %
     Extraction speed 3.4 X
     Track quality 100.0 %
     Test CRC 4CF8CD18
     Copy CRC 4CF8CD18
     Track not present in AccurateRip database
     Copy OK
Track  4
     Filename E:\Nafta Releases\Kowalsky meg a Vega - Kilenc (2 CD 2017)[FLAC] - Naftamusic\CD 1\04 - Hála veled.wav
     Pre-gap length  0:00:02.00
     Peak level 98.8 %
     Extraction speed 3.6 X
     Track quality 100.0 %
     Test CRC 7DC18C35
     Copy CRC 7DC18C35
     Track not present in AccurateRip database
     Copy OK
Track  5
     Filename E:\Nafta Releases\Kowalsky meg a Vega - Kilenc (2 CD 2017)[FLAC] - Naftamusic\CD 1\05 - A lélek éjszakája.wav
     Pre-gap length  0:00:02.00
     Peak level 98.8 %
     Extraction speed 3.1 X
     Track quality 99.9 %
     Test CRC D78E5D59
     Copy CRC D78E5D59
     Track not present in AccurateRip database
     Copy OK
Track  6
     Filename E:\Nafta Releases\Kowalsky meg a Vega - Kilenc (2 CD 2017)[FLAC] - Naftamusic\CD 1\06 - Egy test.wav
     Pre-gap length  0:00:02.00
     Peak level 98.8 %
     Extraction speed 4.2 X
     Track quality 100.0 %
     Test CRC 406930AE
     Copy CRC 406930AE
     Track not present in AccurateRip database
     Copy OK
Track  7
     Filename E:\Nafta Releases\Kowalsky meg a Vega - Kilenc (2 CD 2017)[FLAC] - Naftamusic\CD 1\07 - Az élet maga.wav
     Pre-gap length  0:00:02.00
     Peak level 98.8 %
     Extraction speed 4.3 X
     Track quality 100.0 %
     Test CRC 5285A248
     Copy CRC 5285A248
     Track not present in AccurateRip database
     Copy OK
Track  8
     Filename E:\Nafta Releases\Kowalsky meg a Vega - Kilenc (2 CD 2017)[FLAC] - Naftamusic\CD 1\08 - Ragyogás.wav
     Pre-gap length  0:00:02.00
     Peak level 98.8 %
     Extraction speed 4.4 X
     Track quality 100.0 %
     Test CRC 119926AB
     Copy CRC 119926AB
     Track not present in AccurateRip database
     Copy OK
Track  9
     Filename E:\Nafta Releases\Kowalsky meg a Vega - Kilenc (2 CD 2017)[FLAC] - Naftamusic\CD 1\09 - Bármire képes.wav
     Pre-gap length  0:00:02.00
     Peak level 98.8 %
     Extraction speed 4.4 X
     Track quality 100.0 %
     Test CRC 4C45FAED
     Copy CRC 4C45FAED
     Track not present in AccurateRip database
     Copy OK
Track 10
     Filename E:\Nafta Releases\Kowalsky meg a Vega - Kilenc (2 CD 2017)[FLAC] - Naftamusic\CD 1\10 - Rajtatok múlik.wav
     Pre-gap length  0:00:02.00
     Peak level 98.8 %
     Extraction speed 3.9 X
     Track quality 99.9 %
     Test CRC D94C1E9E
     Copy CRC D94C1E9E
     Track not present in AccurateRip database
     Copy OK
Track 11
     Filename E:\Nafta Releases\Kowalsky meg a Vega - Kilenc (2 CD 2017)[FLAC] - Naftamusic\CD 1\11 - Mit mondjak még.wav
     Pre-gap length  0:00:02.00
     Peak level 98.8 %
     Extraction speed 4.9 X
     Track quality 100.0 %
     Test CRC E6BF1D52
     Copy CRC E6BF1D52
     Track not present in AccurateRip database
     Copy OK
Track 12
     Filename E:\Nafta Releases\Kowalsky meg a Vega - Kilenc (2 CD 2017)[FLAC] - Naftamusic\CD 1\12 - Darsan.wav
     Pre-gap length  0:00:02.00
     Peak level 98.8 %
     Extraction speed 5.2 X
     Track quality 100.0 %
     Test CRC 4810BE8D
     Copy CRC 4810BE8D
     Track not present in AccurateRip database
     Copy OK
Track 13
     Filename E:\Nafta Releases\Kowalsky meg a Vega - Kilenc (2 CD 2017)[FLAC] - Naftamusic\CD 1\13 - Szemenszedett igazság.wav
     Pre-gap length  0:00:02.00
     Peak level 98.8 %
     Extraction speed 5.5 X
     Track quality 100.0 %
     Test CRC 03DF8318
     Copy CRC 03DF8318
     Track not present in AccurateRip database
     Copy OK
Track 14
     Filename E:\Nafta Releases\Kowalsky meg a Vega - Kilenc (2 CD 2017)[FLAC] - Naftamusic\CD 1\14 - Amilyen hülye vagy.....wav
     Pre-gap length  0:00:02.00
     Peak level 100.0 %
     Extraction speed 5.5 X
     Track quality 100.0 %
     Test CRC 23D2328B
     Copy CRC 23D2328B
     Track not present in AccurateRip database
     Copy OK
Track 15
     Filename E:\Nafta Releases\Kowalsky meg a Vega - Kilenc (2 CD 2017)[FLAC] - Naftamusic\CD 1\15 - Helló, halló.wav
     Pre-gap length  0:00:02.00
     Peak level 98.8 %
     Extraction speed 5.6 X
     Track quality 100.0 %
     Test CRC 12CF9406
     Copy CRC 12CF9406
     Track not present in AccurateRip database
     Copy OK
Track 16
     Filename E:\Nafta Releases\Kowalsky meg a Vega - Kilenc (2 CD 2017)[FLAC] - Naftamusic\CD 1\16 - Egy világon át.wav
     Pre-gap length  0:00:02.00
     Peak level 100.0 %
     Extraction speed 5.8 X
     Track quality 100.0 %
     Test CRC E9612B80
     Copy CRC E9612B80
     Track not present in AccurateRip database
     Copy OK
Track 17
     Filename E:\Nafta Releases\Kowalsky meg a Vega - Kilenc (2 CD 2017)[FLAC] - Naftamusic\CD 1\17 - Csend legyen.wav
     Pre-gap length  0:00:02.00
     Peak level 98.8 %
     Extraction speed 5.8 X
     Track quality 100.0 %
     Test CRC A0885C22
     Copy CRC A0885C22
     Track not present in AccurateRip database
     Copy OK
None of the tracks are present in the AccurateRip database
No errors occurred
End of status report
==== Log checksum 43F44010E57A4BA2AEA18E4E500C757ED6CD86FC43659922BA332AFC68E256BC ====
Код:
REM GENRE Pop-Rock
REM DATE 2017
REM DISCID E3115011
REM COMMENT "ExactAudioCopy v1.3"
PERFORMER "Kowalsky meg a Vega"
TITLE "Kilenc"
REM COMPOSER ""
FILE "01 - Tizenötmillióból egy.wav" WAVE
  TRACK 01 AUDIO
    TITLE "Tizenötmillióból egy"
    PERFORMER "Kowalsky meg a Vega"
    REM COMPOSER ""
    INDEX 01 00:00:00
  TRACK 02 AUDIO
    TITLE "Ébredj!"
    PERFORMER "Kowalsky meg a Vega"
    REM COMPOSER ""
    INDEX 00 04:56:50
FILE "02 - Ébredj!.wav" WAVE
    INDEX 01 00:00:00
  TRACK 03 AUDIO
    TITLE "Semmim nincs"
    PERFORMER "Kowalsky meg a Vega"
    REM COMPOSER ""
    INDEX 00 04:11:12
FILE "03 - Semmim nincs.wav" WAVE
    INDEX 01 00:00:00
  TRACK 04 AUDIO
    TITLE "Hála veled"
    PERFORMER "Kowalsky meg a Vega"
    REM COMPOSER ""
    INDEX 00 04:03:19
FILE "04 - Hála veled.wav" WAVE
    INDEX 01 00:00:00
  TRACK 05 AUDIO
    TITLE "A lélek éjszakája"
    PERFORMER "Kowalsky meg a Vega"
    REM COMPOSER ""
    INDEX 00 04:02:42
FILE "05 - A lélek éjszakája.wav" WAVE
    INDEX 01 00:00:00
  TRACK 06 AUDIO
    TITLE "Egy test"
    PERFORMER "Kowalsky meg a Vega"
    REM COMPOSER ""
    INDEX 00 03:55:29
FILE "06 - Egy test.wav" WAVE
    INDEX 01 00:00:00
  TRACK 07 AUDIO
    TITLE "Az élet maga"
    PERFORMER "Kowalsky meg a Vega"
    REM COMPOSER ""
    INDEX 00 04:41:32
FILE "07 - Az élet maga.wav" WAVE
    INDEX 01 00:00:00
  TRACK 08 AUDIO
    TITLE "Ragyogás"
    PERFORMER "Kowalsky meg a Vega"
    REM COMPOSER ""
    INDEX 00 03:36:67
FILE "08 - Ragyogás.wav" WAVE
    INDEX 01 00:00:00
  TRACK 09 AUDIO
    TITLE "Bármire képes"
    PERFORMER "Kowalsky meg a Vega"
    REM COMPOSER ""
    INDEX 00 03:56:23
FILE "09 - Bármire képes.wav" WAVE
    INDEX 01 00:00:00
  TRACK 10 AUDIO
    TITLE "Rajtatok múlik"
    PERFORMER "Kowalsky meg a Vega"
    REM COMPOSER ""
    INDEX 00 03:14:68
FILE "10 - Rajtatok múlik.wav" WAVE
    INDEX 01 00:00:00
  TRACK 11 AUDIO
    TITLE "Mit mondjak még"
    PERFORMER "Kowalsky meg a Vega"
    REM COMPOSER ""
    INDEX 00 04:39:13
FILE "11 - Mit mondjak még.wav" WAVE
    INDEX 01 00:00:00
  TRACK 12 AUDIO
    TITLE "Darsan"
    PERFORMER "Kowalsky meg a Vega"
    REM COMPOSER ""
    INDEX 00 04:19:29
FILE "12 - Darsan.wav" WAVE
    INDEX 01 00:00:00
  TRACK 13 AUDIO
    TITLE "Szemenszedett igazság"
    PERFORMER "Kowalsky meg a Vega"
    REM COMPOSER ""
    INDEX 00 05:17:07
FILE "13 - Szemenszedett igazság.wav" WAVE
    INDEX 01 00:00:00
  TRACK 14 AUDIO
    TITLE "Amilyen hülye vagy...."
    PERFORMER "Kowalsky meg a Vega"
    REM COMPOSER ""
    INDEX 00 05:29:35
FILE "14 - Amilyen hülye vagy.....wav" WAVE
    INDEX 01 00:00:00
  TRACK 15 AUDIO
    TITLE "Helló, halló"
    PERFORMER "Kowalsky meg a Vega"
    REM COMPOSER ""
    INDEX 00 04:12:29
FILE "15 - Helló, halló.wav" WAVE
    INDEX 01 00:00:00
  TRACK 16 AUDIO
    TITLE "Egy világon át"
    PERFORMER "Kowalsky meg a Vega"
    REM COMPOSER ""
    INDEX 00 04:13:60
FILE "16 - Egy világon át.wav" WAVE
    INDEX 01 00:00:00
  TRACK 17 AUDIO
    TITLE "Csend legyen"
    PERFORMER "Kowalsky meg a Vega"
    REM COMPOSER ""
    INDEX 00 04:27:64
FILE "17 - Csend legyen.wav" WAVE
    INDEX 01 00:00:00
Код:
[url=https://fastpic.ru/view/106/2018/1224/28d4000e3f5d84be43f9bf55fb560f15.png.html][img]https://i106.fastpic.ru/thumb/2018/1224/15/28d4000e3f5d84be43f9bf55fb560f15.jpeg[/img][/url]
Код:
foobar2000 1.2.2 / Dynamic Range Meter 1.1.1
log date: 2017-10-02 21:16:39
--------------------------------------------------------------------------------
Analyzed: Kowalsky meg a Vega / Kilenc
--------------------------------------------------------------------------------
DR         Peak         RMS     Duration Track
--------------------------------------------------------------------------------
DR6       -0.10 dB    -8.48 dB      4:59 01-Tizenötmillióból egy
DR6       -0.10 dB    -7.17 dB      4:13 02-Ébredj!
DR7       -0.10 dB    -8.02 dB      4:05 03-Semmim nincs
DR7       -0.10 dB    -8.71 dB      4:05 04-Hála veled
DR6       -0.10 dB    -7.99 dB      3:57 05-A lélek éjszakája
DR6       -0.10 dB    -8.37 dB      4:43 06-Egy test
DR6       -0.10 dB    -7.95 dB      3:39 07-Az élet maga
DR6       -0.10 dB    -7.20 dB      3:58 08-Ragyogás
DR5       -0.10 dB    -6.68 dB      3:17 09-Bármire képes
DR7       -0.10 dB    -8.34 dB      4:41 10-Rajtatok múlik
DR8       -0.10 dB    -9.61 dB      4:21 11-Mit mondjak még
DR7       -0.10 dB    -8.45 dB      5:19 12-Darsan
DR6       -0.10 dB    -7.65 dB      5:31 13-Szemenszedett igazság
DR7        0.00 dB    -8.02 dB      4:14 14-Amilyen hülye vagy....
DR7       -0.10 dB    -7.94 dB      4:16 15-Helló, halló
DR7        0.00 dB    -9.55 dB      4:30 16-Egy világon át
DR6       -0.10 dB    -8.28 dB      4:02 17-Csend legyen
--------------------------------------------------------------------------------
Number of tracks:  17
Official DR value: DR6
Samplerate:        44100 Hz
Channels:          2
Bits per sample:   16
Bitrate:           1078 kbps
Codec:             FLAC
================================================================================
TRACKLIST:
01 - Ennyi csak (00:04:11)
02 - Még nem éden (00:04:07)
03 - Ez a mi mesénk (00:04:34)
04 - Otthon, édes otthon (00:05:29)
05 - Nyisd ki a tudatod (00:03:59)
06 - Varázsszavak (00:04:14)
07 - Így szép, így jó (00:04:30)
08 - Hullajózan (00:03:56)
09 - Digitális nemzedés (00:03:29)
10 - Új templom épül (00:05:01)
11 - Nem igaz! (00:03:32)
12 - Minden rendben (00:04:10)
13 - Ki van ez találva (00:04:37)
14 - Forradalom Rt. (00:04:04)
15 - Mindenki úgy csinál (00:02:43)
16 - Bölcsődtől a sírodig (00:04:01)
17 - Fekete lepke (00:04:10)
Код:
Exact Audio Copy V1.3 from 2. September 2016
EAC extraction logfile from 2. October 2017, 22:14
Kowalsky meg a Vega / Kilenc
Used drive  : PLEXTOR DVDR   PX-891SAF   Adapter: 1  ID: 0
Read mode               : Secure
Utilize accurate stream : Yes
Defeat audio cache      : Yes
Make use of C2 pointers : No
Read offset correction                      : 6
Overread into Lead-In and Lead-Out          : No
Fill up missing offset samples with silence : Yes
Delete leading and trailing silent blocks   : No
Null samples used in CRC calculations       : Yes
Used interface                              : Native Win32 interface for Win NT & 2000
Gap handling                                : Appended to previous track
Used output format              : User Defined Encoder
Selected bitrate                : 1024 kBit/s
Quality                         : High
Add ID3 tag                     : No
Command line compressor         : C:\Program Files (x86)\Exact Audio Copy\Flac\flac.exe
Additional command line options : -0 -V -T "ARTIST=%artist%" -T "TITLE=%title%" -T "ALBUM=%albumtitle%" -T "DATE=%year%" -T "TRACKNUMBER=%tracknr%" -T "TOTALTRACKS=%numtracks%" -T "GENRE=%genre%" -T "COMMENT=Naftamusic Release!" %source%
TOC of the extracted CD
     Track |   Start  |  Length  | Start sector | End sector
    ---------------------------------------------------------
        1  |  0:00.00 |  4:10.38 |         0    |    18787
        2  |  4:10.38 |  4:06.49 |     18788    |    37286
        3  |  8:17.12 |  4:33.49 |     37287    |    57810
        4  | 12:50.61 |  5:29.05 |     57811    |    82490
        5  | 18:19.66 |  3:59.37 |     82491    |   100452
        6  | 22:19.28 |  4:14.12 |    100453    |   119514
        7  | 26:33.40 |  4:30.17 |    119515    |   139781
        8  | 31:03.57 |  3:55.64 |    139782    |   157470
        9  | 34:59.46 |  3:29.03 |    157471    |   173148
       10  | 38:28.49 |  5:00.53 |    173149    |   195701
       11  | 43:29.27 |  3:31.45 |    195702    |   211571
       12  | 47:00.72 |  4:10.25 |    211572    |   230346
       13  | 51:11.22 |  4:36.59 |    230347    |   251105
       14  | 55:48.06 |  4:04.16 |    251106    |   269421
       15  | 59:52.22 |  2:42.49 |    269422    |   281620
       16  | 62:34.71 |  4:01.10 |    281621    |   299705
       17  | 66:36.06 |  4:10.06 |    299706    |   318461
Track  1
     Filename E:\Nafta Releases\Kowalsky meg a Vega - Kilenc (2 CD 2017)[FLAC] - Naftamusic\CD 2\01 - Ennyi csak.wav
     Pre-gap length  0:00:02.00
     Peak level 98.8 %
     Extraction speed 2.7 X
     Track quality 100.0 %
     Test CRC 1EE73F8D
     Copy CRC 1EE73F8D
     Track not present in AccurateRip database
     Copy OK
Track  2
     Filename E:\Nafta Releases\Kowalsky meg a Vega - Kilenc (2 CD 2017)[FLAC] - Naftamusic\CD 2\02 - Még nem éden.wav
     Pre-gap length  0:00:02.00
     Peak level 100.0 %
     Extraction speed 2.4 X
     Track quality 99.9 %
     Test CRC 4991404E
     Copy CRC 4991404E
     Track not present in AccurateRip database
     Copy OK
Track  3
     Filename E:\Nafta Releases\Kowalsky meg a Vega - Kilenc (2 CD 2017)[FLAC] - Naftamusic\CD 2\03 - Ez a mi mesénk.wav
     Pre-gap length  0:00:02.00
     Peak level 98.8 %
     Extraction speed 3.3 X
     Track quality 100.0 %
     Test CRC 3D679E26
     Copy CRC 3D679E26
     Track not present in AccurateRip database
     Copy OK
Track  4
     Filename E:\Nafta Releases\Kowalsky meg a Vega - Kilenc (2 CD 2017)[FLAC] - Naftamusic\CD 2\04 - Otthon, édes otthon.wav
     Pre-gap length  0:00:02.00
     Peak level 98.8 %
     Extraction speed 3.6 X
     Track quality 100.0 %
     Test CRC 0E2ED052
     Copy CRC 0E2ED052
     Track not present in AccurateRip database
     Copy OK
Track  5
     Filename E:\Nafta Releases\Kowalsky meg a Vega - Kilenc (2 CD 2017)[FLAC] - Naftamusic\CD 2\05 - Nyisd ki a tudatod.wav
     Pre-gap length  0:00:02.00
     Peak level 98.8 %
     Extraction speed 3.8 X
     Track quality 100.0 %
     Test CRC 656E6F19
     Copy CRC 656E6F19
     Track not present in AccurateRip database
     Copy OK
Track  6
     Filename E:\Nafta Releases\Kowalsky meg a Vega - Kilenc (2 CD 2017)[FLAC] - Naftamusic\CD 2\06 - Varázsszavak.wav
     Pre-gap length  0:00:02.00
     Peak level 98.8 %
     Extraction speed 4.0 X
     Track quality 100.0 %
     Test CRC C1853527
     Copy CRC C1853527
     Track not present in AccurateRip database
     Copy OK
Track  7
     Filename E:\Nafta Releases\Kowalsky meg a Vega - Kilenc (2 CD 2017)[FLAC] - Naftamusic\CD 2\07 - Így szép, így jó.wav
     Pre-gap length  0:00:02.00
     Peak level 98.8 %
     Extraction speed 3.4 X
     Track quality 99.9 %
     Test CRC 340687B1
     Copy CRC 340687B1
     Track not present in AccurateRip database
     Copy OK
Track  8
     Filename E:\Nafta Releases\Kowalsky meg a Vega - Kilenc (2 CD 2017)[FLAC] - Naftamusic\CD 2\08 - Hullajózan.wav
     Pre-gap length  0:00:02.00
     Peak level 100.0 %
     Extraction speed 4.3 X
     Track quality 100.0 %
     Test CRC 6FDA995D
     Copy CRC 6FDA995D
     Track not present in AccurateRip database
     Copy OK
Track  9
     Filename E:\Nafta Releases\Kowalsky meg a Vega - Kilenc (2 CD 2017)[FLAC] - Naftamusic\CD 2\09 - Digitális nemzedés.wav
     Pre-gap length  0:00:02.00
     Peak level 98.8 %
     Extraction speed 4.4 X
     Track quality 100.0 %
     Test CRC 39A100AB
     Copy CRC 39A100AB
     Track not present in AccurateRip database
     Copy OK
Track 10
     Filename E:\Nafta Releases\Kowalsky meg a Vega - Kilenc (2 CD 2017)[FLAC] - Naftamusic\CD 2\10 - Új templom épül.wav
     Pre-gap length  0:00:02.00
     Peak level 98.8 %
     Extraction speed 4.8 X
     Track quality 100.0 %
     Test CRC 532592AC
     Copy CRC 532592AC
     Track not present in AccurateRip database
     Copy OK
Track 11
     Filename E:\Nafta Releases\Kowalsky meg a Vega - Kilenc (2 CD 2017)[FLAC] - Naftamusic\CD 2\11 - Nem igaz!.wav
     Pre-gap length  0:00:02.00
     Peak level 98.8 %
     Extraction speed 4.7 X
     Track quality 100.0 %
     Test CRC 7CA9C436
     Copy CRC 7CA9C436
     Track not present in AccurateRip database
     Copy OK
Track 12
     Filename E:\Nafta Releases\Kowalsky meg a Vega - Kilenc (2 CD 2017)[FLAC] - Naftamusic\CD 2\12 - Minden rendben.wav
     Pre-gap length  0:00:02.00
     Peak level 98.8 %
     Extraction speed 4.0 X
     Track quality 99.9 %
     Test CRC CE5432E0
     Copy CRC CE5432E0
     Track not present in AccurateRip database
     Copy OK
Track 13
     Filename E:\Nafta Releases\Kowalsky meg a Vega - Kilenc (2 CD 2017)[FLAC] - Naftamusic\CD 2\13 - Ki van ez találva.wav
     Pre-gap length  0:00:02.00
     Peak level 98.8 %
     Extraction speed 5.2 X
     Track quality 100.0 %
     Test CRC 0AC63E97
     Copy CRC 0AC63E97
     Track not present in AccurateRip database
     Copy OK
Track 14
     Filename E:\Nafta Releases\Kowalsky meg a Vega - Kilenc (2 CD 2017)[FLAC] - Naftamusic\CD 2\14 - Forradalom Rt..wav
     Pre-gap length  0:00:02.00
     Peak level 98.8 %
     Extraction speed 5.3 X
     Track quality 100.0 %
     Test CRC 473FCB10
     Copy CRC 473FCB10
     Track not present in AccurateRip database
     Copy OK
Track 15
     Filename E:\Nafta Releases\Kowalsky meg a Vega - Kilenc (2 CD 2017)[FLAC] - Naftamusic\CD 2\15 - Mindenki úgy csinál.wav
     Pre-gap length  0:00:02.00
     Peak level 98.8 %
     Extraction speed 3.6 X
     Track quality 99.9 %
     Test CRC A1673742
     Copy CRC A1673742
     Track not present in AccurateRip database
     Copy OK
Track 16
     Filename E:\Nafta Releases\Kowalsky meg a Vega - Kilenc (2 CD 2017)[FLAC] - Naftamusic\CD 2\16 - Bölcsődtől a sírodig.wav
     Pre-gap length  0:00:02.00
     Peak level 100.0 %
     Extraction speed 5.6 X
     Track quality 100.0 %
     Test CRC AA9A6CE7
     Copy CRC AA9A6CE7
     Track not present in AccurateRip database
     Copy OK
Track 17
     Filename E:\Nafta Releases\Kowalsky meg a Vega - Kilenc (2 CD 2017)[FLAC] - Naftamusic\CD 2\17 - Fekete lepke.wav
     Pre-gap length  0:00:02.00
     Peak level 98.8 %
     Extraction speed 5.7 X
     Track quality 100.0 %
     Test CRC 5DB721F9
     Copy CRC 5DB721F9
     Track not present in AccurateRip database
     Copy OK
None of the tracks are present in the AccurateRip database
No errors occurred
End of status report
==== Log checksum 7080954A00C905F3292DA21C54BDE09B6A223939F40E805B3105BC19CCDE2F69 ====
Код:
REM GENRE Pop-Rock
REM DATE 2017
REM DISCID E6109611
REM COMMENT "ExactAudioCopy v1.3"
PERFORMER "Kowalsky meg a Vega"
TITLE "Kilenc"
REM COMPOSER ""
FILE "01 - Ennyi csak.wav" WAVE
  TRACK 01 AUDIO
    TITLE "Ennyi csak"
    PERFORMER "Kowalsky meg a Vega"
    REM COMPOSER ""
    INDEX 01 00:00:00
  TRACK 02 AUDIO
    TITLE "Még nem éden"
    PERFORMER "Kowalsky meg a Vega"
    REM COMPOSER ""
    INDEX 00 04:08:38
FILE "02 - Még nem éden.wav" WAVE
    INDEX 01 00:00:00
  TRACK 03 AUDIO
    TITLE "Ez a mi mesénk"
    PERFORMER "Kowalsky meg a Vega"
    REM COMPOSER ""
    INDEX 00 04:04:49
FILE "03 - Ez a mi mesénk.wav" WAVE
    INDEX 01 00:00:00
  TRACK 04 AUDIO
    TITLE "Otthon, édes otthon"
    PERFORMER "Kowalsky meg a Vega"
    REM COMPOSER ""
    INDEX 00 04:31:49
FILE "04 - Otthon, édes otthon.wav" WAVE
    INDEX 01 00:00:00
  TRACK 05 AUDIO
    TITLE "Nyisd ki a tudatod"
    PERFORMER "Kowalsky meg a Vega"
    REM COMPOSER ""
    INDEX 00 05:27:05
FILE "05 - Nyisd ki a tudatod.wav" WAVE
    INDEX 01 00:00:00
  TRACK 06 AUDIO
    TITLE "Varázsszavak"
    PERFORMER "Kowalsky meg a Vega"
    REM COMPOSER ""
    INDEX 00 03:57:37
FILE "06 - Varázsszavak.wav" WAVE
    INDEX 01 00:00:00
  TRACK 07 AUDIO
    TITLE "Így szép, így jó"
    PERFORMER "Kowalsky meg a Vega"
    REM COMPOSER ""
    INDEX 00 04:12:12
FILE "07 - Így szép, így jó.wav" WAVE
    INDEX 01 00:00:00
  TRACK 08 AUDIO
    TITLE "Hullajózan"
    PERFORMER "Kowalsky meg a Vega"
    REM COMPOSER ""
    INDEX 00 04:28:17
FILE "08 - Hullajózan.wav" WAVE
    INDEX 01 00:00:00
  TRACK 09 AUDIO
    TITLE "Digitális nemzedés"
    PERFORMER "Kowalsky meg a Vega"
    REM COMPOSER ""
    INDEX 00 03:53:64
FILE "09 - Digitális nemzedés.wav" WAVE
    INDEX 01 00:00:00
  TRACK 10 AUDIO
    TITLE "Új templom épül"
    PERFORMER "Kowalsky meg a Vega"
    REM COMPOSER ""
    INDEX 00 03:27:03
FILE "10 - Új templom épül.wav" WAVE
    INDEX 01 00:00:00
  TRACK 11 AUDIO
    TITLE "Nem igaz!"
    PERFORMER "Kowalsky meg a Vega"
    REM COMPOSER ""
    INDEX 00 04:58:53
FILE "11 - Nem igaz!.wav" WAVE
    INDEX 01 00:00:00
  TRACK 12 AUDIO
    TITLE "Minden rendben"
    PERFORMER "Kowalsky meg a Vega"
    REM COMPOSER ""
    INDEX 00 03:29:45
FILE "12 - Minden rendben.wav" WAVE
    INDEX 01 00:00:00
  TRACK 13 AUDIO
    TITLE "Ki van ez találva"
    PERFORMER "Kowalsky meg a Vega"
    REM COMPOSER ""
    INDEX 00 04:08:25
FILE "13 - Ki van ez találva.wav" WAVE
    INDEX 01 00:00:00
  TRACK 14 AUDIO
    TITLE "Forradalom Rt."
    PERFORMER "Kowalsky meg a Vega"
    REM COMPOSER ""
    INDEX 00 04:34:59
FILE "14 - Forradalom Rt..wav" WAVE
    INDEX 01 00:00:00
  TRACK 15 AUDIO
    TITLE "Mindenki úgy csinál"
    PERFORMER "Kowalsky meg a Vega"
    REM COMPOSER ""
    INDEX 00 04:02:16
FILE "15 - Mindenki úgy csinál.wav" WAVE
    INDEX 01 00:00:00
  TRACK 16 AUDIO
    TITLE "Bölcsődtől a sírodig"
    PERFORMER "Kowalsky meg a Vega"
    REM COMPOSER ""
    INDEX 00 02:40:49
FILE "16 - Bölcsődtől a sírodig.wav" WAVE
    INDEX 01 00:00:00
  TRACK 17 AUDIO
    TITLE "Fekete lepke"
    PERFORMER "Kowalsky meg a Vega"
    REM COMPOSER ""
    INDEX 00 03:59:10
FILE "17 - Fekete lepke.wav" WAVE
    INDEX 01 00:00:00
Код:
[url=https://fastpic.ru/view/108/2018/1224/801c613678292c78cf71086214db797f.png.html][img]https://i108.fastpic.ru/thumb/2018/1224/7f/801c613678292c78cf71086214db797f.jpeg[/img][/url]
Код:
foobar2000 1.2.2 / Dynamic Range Meter 1.1.1
log date: 2017-10-02 22:21:28
--------------------------------------------------------------------------------
Analyzed: Kowalsky meg a Vega / Kilenc
--------------------------------------------------------------------------------
DR         Peak         RMS     Duration Track
--------------------------------------------------------------------------------
DR8       -0.10 dB   -10.09 dB      4:11 01-Ennyi csak
DR7        0.00 dB    -8.04 dB      4:07 02-Még nem éden
DR6       -0.10 dB    -8.06 dB      4:34 03-Ez a mi mesénk
DR7       -0.10 dB    -8.09 dB      5:29 04-Otthon, édes otthon
DR7       -0.10 dB    -7.88 dB      3:59 05-Nyisd ki a tudatod
DR6       -0.10 dB    -7.25 dB      4:14 06-Varázsszavak
DR7       -0.10 dB    -8.51 dB      4:30 07-Így szép, így jó
DR6        0.00 dB    -7.97 dB      3:56 08-Hullajózan
DR6       -0.10 dB    -7.93 dB      3:29 09-Digitális nemzedés
DR6       -0.10 dB    -7.52 dB      5:01 10-Új templom épül
DR6       -0.10 dB    -7.72 dB      3:32 11-Nem igaz!
DR6       -0.10 dB    -7.91 dB      4:10 12-Minden rendben
DR7       -0.10 dB    -8.38 dB      4:37 13-Ki van ez találva
DR7       -0.10 dB    -8.15 dB      4:04 14-Forradalom Rt.
DR7       -0.10 dB    -8.66 dB      2:43 15-Mindenki úgy csinál
DR7        0.00 dB    -8.17 dB      4:01 16-Bölcsődtől a sírodig
DR8       -0.10 dB    -8.63 dB      4:10 17-Fekete lepke
--------------------------------------------------------------------------------
Number of tracks:  17
Official DR value: DR7
Samplerate:        44100 Hz
Channels:          2
Bits per sample:   16
Bitrate:           1152 kbps
Codec:             FLAC
================================================================================
Доп. информация: http://kowa.hu/

"Kowalsky" Balázs Gyula - ének
Szórád "Jimmy" Csaba - basszusgitár
Vajda "Sóder" Péter - dobok
Vidák Róbert "More" - akusztikus gitár
Tobak Dániel "Dani" - gitár
В октябре 2017 года вышел их двойной альбом "Nine", в который вошли 10 совершенно новых и 24 ранее выпущенных песни.

In October 2017, their double album "Nine" was released, featuring 10 brand new and 24 previously released songs.

2017 októberében jelent meg a „Kilenc” című dupla albumuk, amelyen 10 vadonatúj és további 24 korábban megjelent válogatás dal hallható.
Правила, инструкции, FAQ!!!
Торрент  Добавлен [26 мар 2019, 20:03] Скачать торрент Магнет ссылка
Скачать торрент
[ Размер 14.86 КБ / Просмотров 3 ]

Статус
Проверен 
 
Размер  1.1 ГБ
Приватный: Нет (DHT включён)
.torrent скачан  0
 


     Отправить личное сообщение
   
Страница 1 из 1
Показать сообщения за:  Поле сортировки  
Начать новую тему Ответить на тему


Сейчас этот форум просматривают: нет зарегистрированных пользователей и гости: 0


Вы не можете начинать темы
Вы не можете отвечать на сообщения
Вы не можете редактировать свои сообщения
Вы не можете удалять свои сообщения
Вы не можете добавлять вложения

Перейти:  
cron