Начать новую тему Ответить на тему
Статистика раздачи
Размер: 348.46 МБ | Добавлен: 26 мар 2019, 20:01 | Скачали: 0
Сидеров: 0  [0 байт/сек]    Личеров: 0  [0 байт/сек]
Пред. тема | След. тема 

Автор
Сообщение

СообщениеДобавлено: 26 мар 2019, 20:01 

Ответить с цитатой 

Forradalom RT.
(2006)

Жанр: Pop/Rock
Носитель: CD
Страна-производитель диска (релиза): Hungary
Год издания: 2006
Издатель (лейбл): SA
Номер по каталогу: 086-2
Страна исполнителя (группы): Hungary
Аудиокодек: FLAC (*.flac)
Тип рипа: image+.cue
Битрейт аудио: lossless
Продолжительность: 0:55:46
Источник (релизер): собственный рип
Наличие сканов в содержимом раздачи: нет

01. Misereremei
02. Ennyi csak
03. Nem minden szarka farka
04. Így szép, így jó
05. Kezeket fel!
06. Monológ
07. Szerencsejátékosok
08. …mint hal a vízben…
09. Forradalom Rt.
10. Johnny Cash Klub
11. Csak más!
12. „Mamma Bella”
13. A stoppos
14. Al Capone
15. Elvis él
16. Pár szó, néhány hang
17. Jó éjt!
18. Ajándék (Bónusz track)
Код:
Exact Audio Copy V1.3 from 2. September 2016
EAC extraction logfile from 19. December 2018, 19:08
Kowalsky meg a Vega / Forradalom Rt.
Used drive  : HL-DT-STDVDRAM GH22LS50   Adapter: 1  ID: 0
Read mode               : Secure
Utilize accurate stream : Yes
Defeat audio cache      : Yes
Make use of C2 pointers : No
Read offset correction                      : 667
Overread into Lead-In and Lead-Out          : No
Fill up missing offset samples with silence : Yes
Delete leading and trailing silent blocks   : No
Null samples used in CRC calculations       : Yes
Used interface                              : Native Win32 interface for Win NT & 2000
Used output format              : User Defined Encoder
Selected bitrate                : 1024 kBit/s
Quality                         : High
Add ID3 tag                     : Yes
Command line compressor         : C:\Program Files (x86)\Exact Audio Copy\FLAC\FLAC.EXE
Additional command line options : -6 -V -T "ARTIST=%artist%" -T "TITLE=%title%" -T "ALBUM=%albumtitle%" -T "DATE=%year%" -T "TRACKNUMBER=%tracknr%" -T "GENRE=%genre%" -T "COMMENT=%comment%" -T "BAND=%albuminterpret%" -T "ALBUMARTIST=%albuminterpret%" -T "COMPOSER=%composer%" %haslyrics%--tag-from-file=LYRICS="%lyricsfile%"%haslyrics% -T "DISCNUMBER=%cdnumber%" -T "TOTALDISCS=%totalcds%" -T "TOTALTRACKS=%numtracks%" %hascover%--picture="%coverfile%"%hascover% %source% -o %dest%
TOC of the extracted CD
     Track |   Start  |  Length  | Start sector | End sector
    ---------------------------------------------------------
        1  |  0:00.00 |  1:09.73 |         0    |     5247
        2  |  1:09.73 |  4:05.65 |      5248    |    23687
        3  |  5:15.63 |  3:54.67 |     23688    |    41304
        4  |  9:10.55 |  4:30.07 |     41305    |    61561
        5  | 13:40.62 |  3:43.39 |     61562    |    78325
        6  | 17:24.26 |  1:03.33 |     78326    |    83083
        7  | 18:27.59 |  3:58.23 |     83084    |   100956
        8  | 22:26.07 |  3:36.25 |    100957    |   117181
        9  | 26:02.32 |  4:04.06 |    117182    |   135487
       10  | 30:06.38 |  1:35.41 |    135488    |   142653
       11  | 31:42.04 |  3:19.64 |    142654    |   157642
       12  | 35:01.68 |  4:19.49 |    157643    |   177116
       13  | 39:21.42 |  4:09.02 |    177117    |   195793
       14  | 43:30.44 |  0:14.06 |    195794    |   196849
       15  | 43:44.50 |  3:14.20 |    196850    |   211419
       16  | 46:58.70 |  3:42.63 |    211420    |   228132
       17  | 50:41.58 |  1:31.40 |    228133    |   234997
       18  | 52:13.23 |  3:33.05 |    234998    |   250977
Range status and errors
Selected range
     Filename F:\Kowalsky meg a Vega - 2006 - Forrdadalom RT\Kowalsky meg a Vega - Forradalom Rt..wav
     Peak level 47.3 %
     Extraction speed 7.0 X
     Range quality 100.0 %
     Test CRC 19BF22CB
     Copy CRC 19BF22CB
     Copy OK
No errors occurred
End of status report
---- CUETools DB Plugin V2.1.6
[CTDB TOCID: AK15kFN1i3YuYUryO.cYwveVi18-] disk not present in database
Submit result: AK15kFN1i3YuYUryO.cYwveVi18- has been uploaded
==== Log checksum A3DA013FF30FC0FBF12C4C03C3AB14AA705EE7498D416DC446181D9BF6553801 ====
Код:
REM GENRE Pop/Rock
REM DATE 2006
REM DISCID D30D1212
REM COMMENT "ExactAudioCopy v1.3"
PERFORMER "Kowalsky meg a Vega"
TITLE "Forradalom Rt."
REM COMPOSER ""
FILE "Kowalsky meg a Vega - Forradalom Rt..flac" WAVE
  TRACK 01 AUDIO
    TITLE "Misereremei"
    PERFORMER "Kowalsky meg a Vega"
    REM COMPOSER ""
    INDEX 01 00:00:00
  TRACK 02 AUDIO
    TITLE "Ennyi csak"
    PERFORMER "Kowalsky meg a Vega"
    REM COMPOSER ""
    INDEX 00 01:07:73
    INDEX 01 01:09:73
  TRACK 03 AUDIO
    TITLE "Nem minden szarka farka"
    PERFORMER "Kowalsky meg a Vega"
    REM COMPOSER ""
    INDEX 00 05:13:63
    INDEX 01 05:15:63
  TRACK 04 AUDIO
    TITLE "Így szép, így jó"
    PERFORMER "Kowalsky meg a Vega"
    REM COMPOSER ""
    INDEX 00 09:08:55
    INDEX 01 09:10:55
  TRACK 05 AUDIO
    TITLE "Kezeket fel!"
    PERFORMER "Kowalsky meg a Vega"
    REM COMPOSER ""
    INDEX 00 13:38:62
    INDEX 01 13:40:62
  TRACK 06 AUDIO
    TITLE "Monológ"
    PERFORMER "Kowalsky meg a Vega"
    REM COMPOSER ""
    INDEX 00 17:22:26
    INDEX 01 17:24:26
  TRACK 07 AUDIO
    TITLE "Szerencsejátékosok"
    PERFORMER "Kowalsky meg a Vega"
    REM COMPOSER ""
    INDEX 00 18:25:59
    INDEX 01 18:27:59
  TRACK 08 AUDIO
    TITLE "…mint hal a vízben…"
    PERFORMER "Kowalsky meg a Vega"
    REM COMPOSER ""
    INDEX 00 22:24:07
    INDEX 01 22:26:07
  TRACK 09 AUDIO
    TITLE "Forradalom Rt."
    PERFORMER "Kowalsky meg a Vega"
    REM COMPOSER ""
    INDEX 00 26:00:32
    INDEX 01 26:02:32
  TRACK 10 AUDIO
    TITLE "Johnny Cash Club"
    PERFORMER "Kowalsky meg a Vega"
    REM COMPOSER ""
    INDEX 00 30:04:38
    INDEX 01 30:06:38
  TRACK 11 AUDIO
    TITLE "Csak más!"
    PERFORMER "Kowalsky meg a Vega"
    REM COMPOSER ""
    INDEX 00 31:40:04
    INDEX 01 31:42:04
  TRACK 12 AUDIO
    TITLE "'Mamma Bella'"
    PERFORMER "Kowalsky meg a Vega"
    REM COMPOSER ""
    INDEX 00 34:59:68
    INDEX 01 35:01:68
  TRACK 13 AUDIO
    TITLE "A stoppos"
    PERFORMER "Kowalsky meg a Vega"
    REM COMPOSER ""
    INDEX 00 39:19:42
    INDEX 01 39:21:42
  TRACK 14 AUDIO
    TITLE "Al Capone"
    PERFORMER "Kowalsky meg a Vega"
    REM COMPOSER ""
    INDEX 00 43:28:44
    INDEX 01 43:30:44
  TRACK 15 AUDIO
    TITLE "Elvis él!"
    PERFORMER "Kowalsky meg a Vega"
    REM COMPOSER ""
    INDEX 00 43:42:50
    INDEX 01 43:44:50
  TRACK 16 AUDIO
    TITLE "Pár szó, néhány hang"
    PERFORMER "Kowalsky meg a Vega"
    REM COMPOSER ""
    INDEX 00 46:56:70
    INDEX 01 46:58:70
  TRACK 17 AUDIO
    TITLE "Jó éjt!"
    PERFORMER "Kowalsky meg a Vega"
    REM COMPOSER ""
    INDEX 00 50:39:58
    INDEX 01 50:41:58
  TRACK 18 AUDIO
    TITLE "Ajándék (Bonus Track)"
    PERFORMER "Kowalsky meg a Vega"
    REM COMPOSER ""
    INDEX 00 52:11:23
    INDEX 01 52:13:23
Код:
-----------------------
DON'T MODIFY THIS FILE
-----------------------
PERFORMER: auCDtect Task Manager, ver. 1.6.0 RC1 build 1.6.0.1
Copyright (c) 2008-2010 y-soft. All rights reserved
[url=http://y-soft.org]http://y-soft.org[/url]
ANALYZER: auCDtect: CD records authenticity detector, version 0.8.2
Copyright (c) 2004 Oleg Berngardt. All rights reserved.
Copyright (c) 2004 Alexander Djourik. All rights reserved.
FILE: Kowalsky meg a Vega - Forradalom Rt..flac
  Size: 365342744 Hash: 1400B8D4C9609B5095FD4B47F4B9AA84 Accuracy: -m0
  Conclusion: CDDA 100%
  Signature: 0B2D8066738F249C4504981C01BF2F1F0B1512E7
Доп. информация: http://kowa.hu/

"Kowalsky" Balázs Gyula - ének
Szórád "Jimmy" Csaba - basszusgitár
Vajda "Sóder" Péter - dobok
Vidák Róbert "More" - akusztikus gitár
Tobak Dániel "Dani" - gitár
Kowalsky Meg - третий студийный альбом Vega, «Revolution Rt».
Kowalsky Meg С момента своего запуска в 1999 году Vega создала огромную фан-базу благодаря успеху своих концертов, но также завоевала признание своей профессии, просто подумав об их наградах Phonogram 2004 и 2006 годов и их номинации на Золотую стрелу 2004 года. Почти все крупные фестивали являются постоянными игроками, и в качестве предшественника они уже разогревали землю перед танккапом или были приглашены Джейми Винчестером в тот или иной момент. Одна из их песен "Balul Goes Off" - это Argo c. также появился в фильме.
Их «Revolution RT». Возможно, это один из самых зрелых альбомов группы, рок, но броские звуки, откровенные и искренние тексты. В альбоме также присутствует ряд известных авторов, в том числе «Козьма Орси» Аль Капоне «Певцы хлопкового клуба», «Песни революции», «Ганкста Золи и Картель».

Kowalsky Meg is Vega's third studio album, “Revolution Rt.”.
Kowalsky Meg Since its launch in 1999, Vega has set up a massive fan base thanks to the success of their concerts, but has also won recognition for the profession, just thinking of their 2004 and 2006 Phonogram awards and their 2004 Golden Arrow nomination. Almost all of the major festivals are permanent players, and as a precursor they have already warmed up the ground before the Tankcap or have been invited by Jamie Winchester at one time or another. One of their songs, "Balul Goes Off", is Argo c. also appeared in film.
Their “Revolution RT.” Perhaps is one of the band's most mature albums, rocky but catchy sounds, outspoken and sincere texts. The album also features a number of well-known contributors, including Al Capone's Kozma Orsi by Cotton Club Singers, Songs of Revolution, and Ganxsta Zolee and Kartel.

A Kowalsky Meg A Vega harmadik stúdióalbuma, a ’Forradalom Rt.’ címre hallgató.
Kowalsky Meg A Vega 1999-es indulása óta egy masszív rajongótábort alakított ki magának koncertjeik sikerének köszönhetően, de a szakma elismerését is kivívta, elég csak a 2004-es és 2006-os Fonogram-díj és a 2004-es Arany nyíl szakmai nominációjukra gondolni. Szinte valamennyi nagyobb fesztivál állandó szereplőjének számítanak, előzenekarként pedig már melegítették be a terepet a Tankcsapda előtt vagy vendégszerepeltek Jamie Winchesterék meghívására is egy-egy alkalommal. Egy daluk, a ’Balul sül el’ pedig Árpa Attila által rendezett Argo c. filmben is feltűnt.
A ’Forradalom RT.’ című anyaguk talán a banda egyik legkiforrottabb albuma, rockos, de fülbemászó hangzásvilág, szókimondó és őszinte szövegek jellemzik a dalokat. A lemezen számos neves közreműködő is feltűnik, az Al Capone-ban a Cotton Club Singers-es Kozma Orsi, a ’Forradalom Rt.’ és az ’Ennyi Csak’ című dalokban pedig Ganxsta Zolee és a Kartel is szerepel.
Правила, инструкции, FAQ!!!
Торрент  Добавлен [26 мар 2019, 20:01] Скачать торрент Магнет ссылка
Скачать торрент
[ Размер 14.3 КБ / Просмотров 1 ]

Статус
Проверен 
 
Размер  348.46 МБ
Приватный: Нет (DHT включён)
.torrent скачан  0
 


     Отправить личное сообщение
   
Страница 1 из 1
Показать сообщения за:  Поле сортировки  
Начать новую тему Ответить на тему


Сейчас этот форум просматривают: нет зарегистрированных пользователей и гости: 0


Вы не можете начинать темы
Вы не можете отвечать на сообщения
Вы не можете редактировать свои сообщения
Вы не можете удалять свои сообщения
Вы не можете добавлять вложения

Перейти:  
cron