Начать новую тему Ответить на тему
Статистика раздачи
Размер: 211.19 МБ | Добавлен: 26 мар 2019, 20:52 | Скачали: 0
Сидеров: 0  [0 байт/сек]    Личеров: 0  [0 байт/сек]
Пред. тема | След. тема 

Автор
Сообщение

СообщениеДобавлено: 26 мар 2019, 20:52 

Ответить с цитатой 

Kovacs Kati / Kozel a Naphoz(1975)
Жанр: Pop-Rock
Год издания диска: 2007
Аудиокодек: FLAC (*.flac)
Тип рипа: image+.cue
Битрейт аудио: lossless
Продолжительность: 33:02
Источник (релизер): my disc
Наличие сканов в содержимом раздачи: да
Треклист:
01. Tiz Ev Az Uton [0:03:24.02]
02. Nekem Biztos Lesz Egy Fiam [0:02:19.53]
03. Kek Farmer [0:03:05.15]
04. Kozel A Naphoz [0:03:30.62]
05. Apak Es Anyak [0:02:26.48]
06. Tanits Meg Elni [0:04:01.17]
07. Ismersz Jol [0:03:04.30]
08. Segits Tul Az Ejszakan [0:05:43.65]
09. El Ne Hagyd Magad [0:03:32.28]
10. Ha A Dobos Megengedne [0:01:54.45]
Код:
Exact Audio Copy V0.99 prebeta 4 from 23. January 2008
Отчёт EAC об извлечении, выполненном 25. октября 2011, 6:08
Kovacs Kati / Kozel A Naphoz
Дисковод: ASUS    DRW-1814BL   Adapter: 1  ID: 0
Режим чтения                 : Достоверность
Использование точного потока : Да
Отключение кэша аудио        : Да
Использование указателей C2  : Нет
Коррекция смещения при чтении                     : 6
Способность читать области Lead-in и Lead-out     : Нет
Заполнение пропущенных сэмплов тишиной            : Да
Удаление блоков с тишиной в начале и конце        : Нет
При вычислениях CRC использовались нулевые сэмплы : Да
Интерфейс                                         : Установленный внешний ASPI-интерфейс
Выходной формат          : Пользовательский кодировщик
Выбранный битрейт        : 1024 kBit/s
Качество                 : Высокий
Добавление ID3-тэга      : Нет
Утилита сжатия           : C:\Program Files\Exact Audio Copy\FLAC\FLAC.EXE
Дополнительные параметры : -6 -V -T "ARTIST=%a" -T "TITLE=%t" -T "ALBUM=%g" -T "DATE=%y" -T "TRACKNUMBER=%n" -T "GENRE=%m" -T "COMMENT=%e" %s -o %d
TOC извлечённого CD
     Трек |   Старт  | Длительность | Начальный сектор | Конечный сектор
    ---------------------------------------------------------------------
       1  |  0:00.00 |    3:24.02   |           0      |      15301
       2  |  3:24.02 |    2:19.53   |       15302      |      25779
       3  |  5:43.55 |    3:05.15   |       25780      |      39669
       4  |  8:48.70 |    3:30.62   |       39670      |      55481
       5  | 12:19.57 |    2:26.48   |       55482      |      66479
       6  | 14:46.30 |    4:01.17   |       66480      |      84571
       7  | 18:47.47 |    3:04.30   |       84572      |      98401
       8  | 21:52.02 |    5:43.65   |       98402      |     124191
       9  | 27:35.67 |    3:32.28   |      124192      |     140119
      10  | 31:08.20 |    1:54.45   |      140120      |     148714
Характеристики диапазона извлечения и сообщения об ошибках
Выбранный диапазон
     Имя файла D:\ТОР+\Lossless\kati'1975\Kovacs Kati - Kozel A Naphoz.wav
     Пиковый уровень 96.6 %
     Качество диапазона 100.0 %
     CRC теста 74E45E92
     CRC копии 74E45E92
     Копирование... OK
Ошибок не произошло
Конец отчёта
Венгерская певица и актриса.
Родилась 5 октября 1944 года в Верпелет, Венгрия.
Настоящее имя - Каталин.
Первую известность получила в 1962 году, когда выиграла семенное телешоу талантов Венгрии "Ki mit tud?". В 1966 году победила на ТВ фестивале песни и танца (1966) и конкурсе песни в Дрездене, ГДР (1972).
В 1975 году выиграла конкрс песни в Кастелбаре, Ирландия. Выступала в составе рок- группы "Locomoti". Зарекомендовала себя как уникальная универсальная певица - пела поп, джаз, рок-н-ролл, рок-оперу, поп-рок, хард-рок, ритм энд блюз, фанк, диско, оперетту, рэп.Кати Ковач - одна из немногих венгерских исполнительниц получила мировую известность, её меццо-сопрано с неповторимым чуть хрипловатым тембром полюбилось далеко за пределами Венгрии.Широко известна и как композитор, автор песен. Альбомы Кати Ковач продаются многомиллионными тиражами - выпущено 110 венгерских и 18 иностранных альбомов, 27 альбомов на CD. В репертуаре Ковач более 500 песен, в том числе 50 собственного сочинения. Выступала на театральной сцене как драматическая атриса.
С 1966 года в кино - "Праздники / Ünnepnapok".
призы и награды:

Приз "Голос года", 1965
"Певица года", 1974, 1976
Премия "SZOT", 1980
Приз "Ференс Лист / Liszt Ferenc", 1986, Венгрия
Золотой микрофон", 1971
Лауреат Государственной премии Венгрии,
Орден "За заслуги перед Венгерской Республикой", 1994
Правила, инструкции, FAQ!!!
Торрент  Добавлен [26 мар 2019, 20:52] Скачать торрент Магнет ссылка
Скачать торрент
[ Размер 17.3 КБ / Просмотров 1 ]

Статус
Проверен 
 
Размер  211.19 МБ
Приватный: Нет (DHT включён)
.torrent скачан  0
 


     Отправить личное сообщение
   
Страница 1 из 1
Показать сообщения за:  Поле сортировки  
Начать новую тему Ответить на тему


Сейчас этот форум просматривают: нет зарегистрированных пользователей и гости: 0


Вы не можете начинать темы
Вы не можете отвечать на сообщения
Вы не можете редактировать свои сообщения
Вы не можете удалять свои сообщения
Вы не можете добавлять вложения

Перейти:  
cron