Начать новую тему Ответить на тему
Статистика раздачи
Размер: 3.33 ГБ | Добавлен: 26 мар 2019, 19:15 | Скачали: 0
Сидеров: 0  [0 байт/сек]    Личеров: 0  [0 байт/сек]
Пред. тема | След. тема 

Автор
Сообщение

СообщениеДобавлено: 26 мар 2019, 19:15 

Ответить с цитатой 

Klaus Lage / 8 Albums
Жанр: Pop-Rock
Страна-производитель диска: Germany
Год издания: 1985-2011
Издатель (лейбл): Odeon (EMI)
Страна: Germany
Аудиокодек: FLAC (*.flac)
Тип рипа: image+.cue
Битрейт аудио: lossless
Источник (релизер): мой рип
Наличие сканов в содержимом раздачи: нет
Треклист:
1. Einzelgänger
2. Kinder
3. Jeden Tag
4. Superstars
5. Du hast mir so geholfen
6. Der Moment
7. Wer ich bin
8. Vielleicht
9. Traumschiff
10. Das hat mit Liebe nichts zu tun
11. Manchmal kommt es anders
12. Gutes Ende
Код:
Exact Audio Copy V1.0 beta 3 from 29. August 2011
EAC extraction logfile from 9. June 2012, 12:55
Klaus Lage / Der Moment
Used drive  : PIONEER DVD RW  DVR-109   Adapter: 0  ID: 1
Read mode               : Secure
Utilize accurate stream : Yes
Defeat audio cache      : Yes
Make use of C2 pointers : No
Read offset correction                      : 48
Overread into Lead-In and Lead-Out          : No
Fill up missing offset samples with silence : Yes
Delete leading and trailing silent blocks   : No
Null samples used in CRC calculations       : Yes
Used interface                              : Native Win32 interface for Win NT & 2000
Used output format : Internal WAV Routines
Sample format      : 44.100 Hz; 16 Bit; Stereo
TOC of the extracted CD
     Track |   Start  |  Length  | Start sector | End sector
    ---------------------------------------------------------
        1  |  0:00.00 |  3:50.16 |         0    |    17265
        2  |  3:50.16 |  3:36.37 |     17266    |    33502
        3  |  7:26.53 |  3:52.29 |     33503    |    50931
        4  | 11:19.07 |  3:36.55 |     50932    |    67186
        5  | 14:55.62 |  4:25.02 |     67187    |    87063
        6  | 19:20.64 |  4:04.11 |     87064    |   105374
        7  | 23:25.00 |  5:24.02 |    105375    |   129676
        8  | 28:49.02 |  4:11.35 |    129677    |   148536
        9  | 33:00.37 |  4:56.59 |    148537    |   170795
       10  | 37:57.21 |  3:59.03 |    170796    |   188723
       11  | 41:56.24 |  4:41.36 |    188724    |   209834
       12  | 46:37.60 |  4:07.31 |    209835    |   228390
Range status and errors
Selected range
     Filename C:\Heinz Rudolf Kunze\Klaus Lage - Der Moment.wav
     Peak level 99.8 %
     Extraction speed 6.8 X
     Range quality 100.0 %
     Test CRC E8103F3D
     Copy CRC E8103F3D
     Copy OK
No errors occurred
AccurateRip summary
Track  1  accurately ripped (confidence 1)  [137C55F0]  (AR v2)
Track  2  accurately ripped (confidence 1)  [86C94F07]  (AR v2)
Track  3  accurately ripped (confidence 1)  [24D3E394]  (AR v2)
Track  4  accurately ripped (confidence 1)  [5EFB7B19]  (AR v2)
Track  5  accurately ripped (confidence 1)  [014D283E]  (AR v2)
Track  6  accurately ripped (confidence 1)  [1E5C7AE4]  (AR v2)
Track  7  accurately ripped (confidence 1)  [28B2CC91]  (AR v2)
Track  8  accurately ripped (confidence 1)  [EEEE4ECC]  (AR v2)
Track  9  accurately ripped (confidence 1)  [726E6A3B]  (AR v2)
Track 10  accurately ripped (confidence 1)  [7ADD6629]  (AR v2)
Track 11  accurately ripped (confidence 1)  [BC51EB7C]  (AR v2)
Track 12  accurately ripped (confidence 1)  [53DF6BD1]  (AR v2)
All tracks accurately ripped
End of status report
---- CUETools DB Plugin V2.1.3
[CTDB TOCID: e8w6VVVYc2LEf2isJ8M7V0At7_k-] found, Submit result: e8w6VVVYc2LEf2isJ8M7V0At7_k- has been confirmed
[91e7adca] (1/1) Accurately ripped
==== Log checksum 5E230F5680E4003A4B6D971585FDDC32AFDF6648B2383882A99E494B498BFF0B ====
#777Треклист:
1. 50
2. Küsse süßer als Wein
3. Bitteschön
4. Du weißt
5. Verdammter Kerl
6. Wenn das alles ist
7. Und wir hatten keine Höhle
8. Liebe kann man lernen
9. Ermutigung
10. Zug um Zug
11. Du hast'n Freund in mir
12. Die Frage bleibt
13. You'll Never Walk Alone
Код:
Exact Audio Copy V1.0 beta 3 from 29. August 2011
EAC extraction logfile from 9. June 2012, 13:47
Klaus Lage / Zug Um Zug
Used drive  : PIONEER DVD RW  DVR-109   Adapter: 0  ID: 1
Read mode               : Secure
Utilize accurate stream : Yes
Defeat audio cache      : Yes
Make use of C2 pointers : No
Read offset correction                      : 48
Overread into Lead-In and Lead-Out          : No
Fill up missing offset samples with silence : Yes
Delete leading and trailing silent blocks   : No
Null samples used in CRC calculations       : Yes
Used interface                              : Native Win32 interface for Win NT & 2000
Used output format : Internal WAV Routines
Sample format      : 44.100 Hz; 16 Bit; Stereo
TOC of the extracted CD
     Track |   Start  |  Length  | Start sector | End sector
    ---------------------------------------------------------
        1  |  0:00.00 |  4:05.64 |         0    |    18438
        2  |  4:05.64 |  4:43.57 |     18439    |    39720
        3  |  8:49.46 |  3:46.64 |     39721    |    56734
        4  | 12:36.35 |  3:54.30 |     56735    |    74314
        5  | 16:30.65 |  3:05.13 |     74315    |    88202
        6  | 19:36.03 |  4:01.22 |     88203    |   106299
        7  | 23:37.25 |  3:17.47 |    106300    |   121121
        8  | 26:54.72 |  3:29.74 |    121122    |   136870
        9  | 30:24.71 |  3:11.05 |    136871    |   151200
       10  | 33:36.01 |  3:55.45 |    151201    |   168870
       11  | 37:31.46 |  3:28.21 |    168871    |   184491
       12  | 40:59.67 |  1:50.73 |    184492    |   192814
       13  | 42:50.65 |  2:27.22 |    192815    |   203861
Range status and errors
Selected range
     Filename C:\Heinz Rudolf Kunze\Klaus Lage - Zug Um Zug.wav
     Peak level 99.8 %
     Extraction speed 1.6 X
     Range quality 100.0 %
     Test CRC C9B39E0B
     Copy CRC C9B39E0B
     Copy OK
No errors occurred
AccurateRip summary
Track  1  accurately ripped (confidence 3)  [F1554DD1]  (AR v1)
Track  2  accurately ripped (confidence 3)  [663F0D00]  (AR v1)
Track  3  accurately ripped (confidence 3)  [AAEDA94B]  (AR v1)
Track  4  accurately ripped (confidence 3)  [EDB42673]  (AR v1)
Track  5  accurately ripped (confidence 3)  [4D28F4AF]  (AR v1)
Track  6  accurately ripped (confidence 3)  [71785601]  (AR v1)
Track  7  accurately ripped (confidence 3)  [BB77E74C]  (AR v1)
Track  8  accurately ripped (confidence 3)  [4A77318E]  (AR v1)
Track  9  accurately ripped (confidence 3)  [A51D9E6D]  (AR v1)
Track 10  accurately ripped (confidence 3)  [0E9F1C18]  (AR v1)
Track 11  accurately ripped (confidence 3)  [AD870D0F]  (AR v1)
Track 12  accurately ripped (confidence 3)  [DA33286F]  (AR v1)
Track 13  accurately ripped (confidence 3)  [A6A7AE90]  (AR v1)
All tracks accurately ripped
End of status report
---- CUETools DB Plugin V2.1.3
[CTDB TOCID: oBkue_aAz3zB8E7bhqCuvuwCEXU-] database access error: The operation has timed out
==== Log checksum 087E419F0E169AB8508418858C46C1715F11BB349D033E4B6537F366129B0896 ====
#777Треклист:
Klaus Lage - "Mensch bleiben" (2000)
Tracks: 12
Total time: 52:08
Year: 2000
Disc-ID: data / b80c3e0c
1. Wie ein Stein 4:07
2. Bin schon weg hier 4:08
3. Der König 4:14
4. Für immer 3:26
5. Kopf hoch 4:21
6. Diese Frau 4:18
7. Einmal im Leben 4:55
8. Gestern 4:19
9. Rätsel 4:19
10. Heiße Luft 4:07
11. Wann 4:03
12. Mensch bleiben 5:51
Код:
Exact Audio Copy V1.0 beta 3 from 29. August 2011
EAC extraction logfile from 12. November 2012, 13:56
Klaus Lage / Mensch bleiben
Used drive  : PLEXTOR DVDR   PX-712A   Adapter: 1  ID: 0
Read mode               : Secure
Utilize accurate stream : Yes
Defeat audio cache      : Yes
Make use of C2 pointers : No
Read offset correction                      : 30
Overread into Lead-In and Lead-Out          : No
Fill up missing offset samples with silence : Yes
Delete leading and trailing silent blocks   : No
Null samples used in CRC calculations       : Yes
Used interface                              : Native Win32 interface for Win NT & 2000
Used output format : Internal WAV Routines
Sample format      : 44.100 Hz; 16 Bit; Stereo
TOC of the extracted CD
     Track |   Start  |  Length  | Start sector | End sector
    ---------------------------------------------------------
        1  |  0:00.00 |  4:07.72 |         0    |    18596
        2  |  4:07.72 |  4:08.60 |     18597    |    37256
        3  |  8:16.57 |  4:14.35 |     37257    |    56341
        4  | 12:31.17 |  3:26.00 |     56342    |    71791
        5  | 15:57.17 |  4:21.63 |     71792    |    91429
        6  | 20:19.05 |  4:18.35 |     91430    |   110814
        7  | 24:37.40 |  4:55.55 |    110815    |   132994
        8  | 29:33.20 |  4:19.25 |    132995    |   152444
        9  | 33:52.45 |  4:19.57 |    152445    |   171926
       10  | 38:12.27 |  4:07.63 |    171927    |   190514
       11  | 42:20.15 |  4:03.27 |    190515    |   208766
       12  | 46:23.42 |  5:50.70 |    208767    |   235086
Range status and errors
Selected range
     Filename H:\Razdachi\Klaus Lage\2000 Mensch bleiben Vm\Klaus Lage - Mensch bleiben.wav
     Peak level 100.0 %
     Extraction speed 12.6 X
     Range quality 100.0 %
     Test CRC 9A6EEB02
     Copy CRC 9A6EEB02
     Copy OK
No errors occurred
AccurateRip summary
Track  1  accurately ripped (confidence 3)  [9F19B38B]  (AR v1)
Track  2  accurately ripped (confidence 3)  [C0D0F98A]  (AR v1)
Track  3  accurately ripped (confidence 3)  [88099159]  (AR v1)
Track  4  accurately ripped (confidence 3)  [0BC258C6]  (AR v1)
Track  5  accurately ripped (confidence 3)  [E12996A8]  (AR v1)
Track  6  accurately ripped (confidence 3)  [96B607A8]  (AR v1)
Track  7  accurately ripped (confidence 3)  [9743E926]  (AR v1)
Track  8  accurately ripped (confidence 3)  [6E322766]  (AR v1)
Track  9  accurately ripped (confidence 3)  [407E3A9F]  (AR v1)
Track 10  accurately ripped (confidence 3)  [63B2C7D4]  (AR v1)
Track 11  accurately ripped (confidence 3)  [4F707630]  (AR v1)
Track 12  cannot be verified as accurate (confidence 2)  [F0905A62], AccurateRip returned [2D635580]  (AR v2)
11 track(s) accurately ripped
 1 track(s) could not be verified as accurate
Some tracks could not be verified as accurate
End of status report
==== Log checksum 73841D2C4C90EB6861C1661429451A60160EACE6C8E8EF2220243ED12A8FA2B4 ====
Код:
-----------------------
DON'T MODIFY THIS FILE
-----------------------
PERFORMER: auCDtect Task Manager, ver. 1.5.1RC6 build 1.5.1.7
Copyright (c) 2008-2010 y-soft. All rights reserved
[url=http://y-soft.org]http://y-soft.org[/url]
ANALYZER: auCDtect: CD records authenticity detector, version 0.8.2
Copyright (c) 2004 Oleg Berngardt. All rights reserved.
Copyright (c) 2004 Alexander Djourik. All rights reserved.
FILE: Klaus Lage - Mensch bleiben.flac
  Size: 388492690 Hash: 8F297800CE231771B833A193000DA459 Accuracy: -m0
  Conclusion: CDDA 100%
  Signature: 10EBEA9889FBFE2200DB0A1E90BAC26901A90536
[CUETools log; Date: 12.11.2012 14:41:47; Version: 2.1.4]
[CTDB TOCID: yN5F8yl.H2SEteExV8nLy9lHWLA-] disk not present in database.
[AccurateRip ID: 00168d51-00d3a2f6-b80c3e0c] found.
Track   [  CRC   |   V2   ] Status
 01     [9f19b38b|f0fb6c92] (3+0/3) Accurately ripped
 02     [c0d0f98a|49dc3c19] (3+0/3) Accurately ripped
 03     [88099159|514e18ad] (3+0/3) Accurately ripped
 04     [0bc258c6|2969a949] (3+0/3) Accurately ripped
 05     [e12996a8|c4ddc02b] (3+0/3) Accurately ripped
 06     [96b607a8|d03cbb13] (3+0/3) Accurately ripped
 07     [9743e926|297e9581] (3+0/3) Accurately ripped
 08     [6e322766|16c821e0] (3+0/3) Accurately ripped
 09     [407e3a9f|228c64a3] (3+0/3) Accurately ripped
 10     [63b2c7d4|2ba39e17] (3+0/3) Accurately ripped
 11     [4f707630|0e9db0f8] (3+0/3) Accurately ripped
 12     [84eda1a3|f0905a62] (0+0/2) No match
Track Peak [ CRC32  ] [W/O NULL] [  LOG   ]
 --  100,0 [9A6EEB02] [E08575B2]   CRC32
 01   98,2 [830D9A12] [19D76A2A]
 02   99,6 [308D817A] [3A3D4864]
 03   98,2 [08A88351] [E840CDB2]
 04   97,0 [9808B6FD] [5C06CF17]
 05  100,0 [6499C34E] [BCB9444E]
 06   98,7 [1C5D620A] [45890581]
 07   99,1 [1E6DDCB7] [C55A428E]
 08   98,0 [59A91CEF] [55944930]
 09   95,6 [43C3F10A] [8A17E75C]
 10   96,6 [D43AC7EE] [E727D9CC]
 11   99,9 [4CAD11FD] [1AFEBAA7]
 12   98,0 [C9A5BB67] [FEE09793]
#777Треклист:
1. Bankgeheimnis
2. Weil ich sie liebe
3. Der Sänger
4. Katz und Maus
5. Schweigen
6. Halt aus
7. Frankfurt
8. Weil Du anders bist (feat. Irene Grandi)
9. Bist Duuu das?
10. Beamte
11. Ich lass Dich nie mehr geh'n
12. C'est la vie
13. Reprise - Halt aus
Код:
Exact Audio Copy V1.0 beta 3 from 29. August 2011
EAC extraction logfile from 11. June 2012, 21:21
Klaus Lage / Katz & Maus
Used drive  : PIONEER DVD RW  DVR-109   Adapter: 0  ID: 1
Read mode               : Secure
Utilize accurate stream : Yes
Defeat audio cache      : Yes
Make use of C2 pointers : No
Read offset correction                      : 48
Overread into Lead-In and Lead-Out          : No
Fill up missing offset samples with silence : Yes
Delete leading and trailing silent blocks   : No
Null samples used in CRC calculations       : Yes
Used interface                              : Native Win32 interface for Win NT & 2000
Used output format : Internal WAV Routines
Sample format      : 44.100 Hz; 16 Bit; Stereo
TOC of the extracted CD
     Track |   Start  |  Length  | Start sector | End sector
    ---------------------------------------------------------
        1  |  0:00.00 |  3:44.60 |         0    |    16859
        2  |  3:44.60 |  3:39.10 |     16860    |    33294
        3  |  7:23.70 |  6:22.15 |     33295    |    61959
        4  | 13:46.10 |  4:36.67 |     61960    |    82726
        5  | 18:23.02 |  3:59.48 |     82727    |   100699
        6  | 22:22.50 |  4:21.30 |    100700    |   120304
        7  | 26:44.05 |  3:33.05 |    120305    |   136284
        8  | 30:17.10 |  4:40.20 |    136285    |   157304
        9  | 34:57.30 |  3:16.20 |    157305    |   172024
       10  | 38:13.50 |  3:37.12 |    172025    |   188311
       11  | 41:50.62 |  5:03.55 |    188312    |   211091
       12  | 46:54.42 |  4:39.08 |    211092    |   232024
       13  | 51:33.50 |  1:49.67 |    232025    |   240266
Range status and errors
Selected range
     Filename C:\Neuer Ordner (2)\Klaus Lage - Katz & Maus.wav
     Peak level 100.0 %
     Extraction speed 6.9 X
     Range quality 100.0 %
     Test CRC 29635E4B
     Copy CRC 29635E4B
     Copy OK
No errors occurred
AccurateRip summary
Track  1  accurately ripped (confidence 9)  [6A3776D1]  (AR v1)
Track  2  accurately ripped (confidence 10)  [CA87FCBE]  (AR v1)
Track  3  accurately ripped (confidence 9)  [F826EAB9]  (AR v1)
Track  4  accurately ripped (confidence 10)  [A91D1CF6]  (AR v1)
Track  5  accurately ripped (confidence 10)  [E4FDBC43]  (AR v1)
Track  6  accurately ripped (confidence 10)  [557718BC]  (AR v1)
Track  7  accurately ripped (confidence 10)  [BE54F252]  (AR v1)
Track  8  accurately ripped (confidence 10)  [DC2D6933]  (AR v1)
Track  9  accurately ripped (confidence 10)  [32318C0B]  (AR v1)
Track 10  accurately ripped (confidence 10)  [F23EE375]  (AR v1)
Track 11  accurately ripped (confidence 10)  [BDE065C5]  (AR v1)
Track 12  accurately ripped (confidence 11)  [25FD5943]  (AR v1)
Track 13  accurately ripped (confidence 9)  [51A2E9FF]  (AR v1)
All tracks accurately ripped
End of status report
---- CUETools DB Plugin V2.1.3
[CTDB TOCID: Gw4wX5gGxil9aLJoS8NohgHsfHE-] found, Submit result: <html>
<head>
<title></title>
<meta http-equiv="Content-Type" content="text/html; charset=iso-8859-1">
<style type="text/css">
<!--
body {
        margin-left: 0px;
        margin-top: 10px;
        margin-right: 0px;
        margin-bottom: 0px;
        background-color: #DDDDDD;
        font-family: Arial, Helvetica, sans-serif;
        font-size: 11px;
        font-style: normal;
        font-weight: normal;
}
#maincontent {
width: 780px;
border: 1px solid #777777;
}
#theheader {
        background-color: #A9C6D9;
        display: block;
        height: 40px;
        padding:10px;
        text-align: left;
}
#thebody {
        background-color: #FFFFFF;
        display: block;
        width: 100%;
        height: 100%;
        text-align: left;
        padding: 10px;
        font-size: 12px;
}
#thefooter {
        background-color: #EEEEEE;
        display: block;
        width: 100%;
        height: 25px;
        position: static;
        text-align: left;
}
#headline_box {
        background-color: #666666;
        display: static;
        width: 780px;
        height: 4px;
        position: relative;
        text-align: left;
        color: #FFFFFF;
        font-family: Arial, Helvetica, sans-serif;
        font-size: 16px;
        font-weight: bold;
        padding: 0px;
}
#headline {
        background-color: #666666;
        width:50%;
        height: 30px;
        text-align: left;
        color: #FFFFFF;
        font-family: Arial, Helvetica, sans-serif;
        font-size: 16px;
        font-weight: bold;
        padding: 6px;
        vertical-align: bottom;
}
#spc1 {
        width: 1px;
        height: 30px;
        position: static;
}
.errormsg {
font-weight: bold;
color: #CC0000;
}
p, ul, li {
        font-family: Arial, Helvetica, sans-serif;
        font-size: 11px;
        font-weight: normal;
        color: #000000;
        margin:6px;
}
.box {
background-color:#FFFFFF;
        border: 1px solid #999999;
        padding: 12px;
}
.h1 {
color:#FFFFFF;
font-family:Arial, Helvetica, sans-serif;
font-size: 24px;
font-weight:bold;
}
a, a:link, a:visited, a:active {
color:#000000;
}
-->
</style></head>
<body><center>
<div id="maincontent"><table width="780" border="0" cellpadding="10" cellspacing="0" bgcolor="#FFFFFF">
  <tr>
    <td bgcolor="#6F6F6F"><p class="h1">Fehler - Aufgerufene Domain nicht gefunden</p></td>
  </tr>
  <tr>
    <td bgcolor="#F0F0F0">
  <p class="box errormsg"><strong>Die gesuchte Seite wurde nicht gefunden! <br>
        Die Domain ist noch nicht vollständig konfiguriert, bitte versuchen Sie es zu einem späteren Zeitpunkt nochmals.</strong> </p>
  </tr>
 </table></div>
</center>
</body>
</html>
[a1fd94ff] (1/1) No match
==== Log checksum C3EB1FE390C6BEB9FCD62190A31D658D3084D4B271E495B084814E2AB3CF1C65 ====
#777Треклист:
Klaus Lage - "Rauhe Bilder" (1989)
Tracks: 11
Total time: 51:29
Year: 1989
Disc-ID: misc / 900c160b
1. Dein Gang 5:17
2. Sooo lacht nur Sie 5:20
3. Zwei Wolken 4:16
4. Irma la blue 4:25
5. Schnell oder nie mehr 4:31
6. Die Liebe bleibt 3:25
7. Schauer auf die Haut 4:53
8. Zurück zu Dir 3:12
9. Pioniere 3:53
10. Talkshow 5:01
11. Ohne Dich verlier´ ich 7:16
Код:
Exact Audio Copy V1.0 beta 3 from 29. August 2011
EAC extraction logfile from 12. November 2012, 21:06
Klaus Lage / Rauhe Bilder
Used drive  : PLEXTOR DVDR   PX-712A   Adapter: 1  ID: 0
Read mode               : Secure
Utilize accurate stream : Yes
Defeat audio cache      : Yes
Make use of C2 pointers : No
Read offset correction                      : 30
Overread into Lead-In and Lead-Out          : No
Fill up missing offset samples with silence : Yes
Delete leading and trailing silent blocks   : No
Null samples used in CRC calculations       : Yes
Used interface                              : Native Win32 interface for Win NT & 2000
Used output format : Internal WAV Routines
Sample format      : 44.100 Hz; 16 Bit; Stereo
TOC of the extracted CD
     Track |   Start  |  Length  | Start sector | End sector
    ---------------------------------------------------------
        1  |  0:00.00 |  5:17.62 |         0    |    23836
        2  |  5:17.62 |  5:20.25 |     23837    |    47861
        3  | 10:38.12 |  4:16.23 |     47862    |    67084
        4  | 14:54.35 |  4:25.65 |     67085    |    87024
        5  | 19:20.25 |  4:31.00 |     87025    |   107349
        6  | 23:51.25 |  3:25.50 |    107350    |   122774
        7  | 27:17.00 |  4:53.05 |    122775    |   144754
        8  | 32:10.05 |  3:12.65 |    144755    |   159219
        9  | 35:22.70 |  3:53.47 |    159220    |   176741
       10  | 39:16.42 |  5:01.43 |    176742    |   199359
       11  | 44:18.10 |  7:16.62 |    199360    |   232121
Range status and errors
Selected range
     Filename H:\Razdachi\Klaus Lage\Klaus Lage flac\1989 Rauhe Bilder\Neuer Ordner\Klaus Lage - Rauhe Bilder.wav
     Peak level 100.0 %
     Extraction speed 3.7 X
     Range quality 99.9 %
     Test CRC AB53AD89
     Copy CRC AB53AD89
     Copy OK
No errors occurred
AccurateRip summary
Track  1  accurately ripped (confidence 4)  [5BDB947C]  (AR v2)
Track  2  accurately ripped (confidence 4)  [867FE8BB]  (AR v2)
Track  3  accurately ripped (confidence 4)  [A1465836]  (AR v2)
Track  4  accurately ripped (confidence 4)  [4068DA80]  (AR v2)
Track  5  accurately ripped (confidence 4)  [0E45291F]  (AR v2)
Track  6  accurately ripped (confidence 4)  [DAD2E6BB]  (AR v2)
Track  7  accurately ripped (confidence 4)  [16EAA0D6]  (AR v2)
Track  8  accurately ripped (confidence 4)  [93D4C9E7]  (AR v2)
Track  9  accurately ripped (confidence 4)  [E318CC5F]  (AR v2)
Track 10  accurately ripped (confidence 4)  [16FC52F0]  (AR v2)
Track 11  accurately ripped (confidence 4)  [B0F81548]  (AR v2)
All tracks accurately ripped
End of status report
==== Log checksum E996F20BC6B10FF532F5DB2E92AA3455D6FA272F4E1CC16DCBB3EC0F52247E11 ====
Код:
-----------------------
DON'T MODIFY THIS FILE
-----------------------
PERFORMER: auCDtect Task Manager, ver. 1.5.1RC6 build 1.5.1.7
Copyright (c) 2008-2010 y-soft. All rights reserved
[url=http://y-soft.org]http://y-soft.org[/url]
ANALYZER: auCDtect: CD records authenticity detector, version 0.8.2
Copyright (c) 2004 Oleg Berngardt. All rights reserved.
Copyright (c) 2004 Alexander Djourik. All rights reserved.
FILE: Klaus Lage - Rauhe Bilder.flac
  Size: 342671376 Hash: 6237A3BDCFA37C0E9CE58DC56766DD59 Accuracy: -m0
  Conclusion: CDDA 100%
  Signature: CCD94ACE9563A3BE93A662A15FA758EDDBEE7781
[CUETools log; Date: 12.11.2012 21:12:09; Version: 2.1.4]
[CTDB TOCID: M26X1XX0h_.yfXArmRifQ.ENEFw-] found.
Track | CTDB Status
  1   | (2/2) Accurately ripped
  2   | (2/2) Accurately ripped
  3   | (2/2) Accurately ripped
  4   | (2/2) Accurately ripped
  5   | (2/2) Accurately ripped
  6   | (2/2) Accurately ripped
  7   | (2/2) Accurately ripped
  8   | (2/2) Accurately ripped
  9   | (2/2) Accurately ripped
 10   | (2/2) Accurately ripped
 11   | (2/2) Accurately ripped
[AccurateRip ID: 0014e045-00b3104b-900c160b] found.
Track   [  CRC   |   V2   ] Status
 01     [a11d2bd1|5bdb947c] (09+04/13) Accurately ripped
 02     [534069b5|867fe8bb] (09+04/13) Accurately ripped
 03     [68480dd4|a1465836] (08+04/12) Accurately ripped
 04     [d4930459|4068da80] (08+04/12) Accurately ripped
 05     [5c6d699a|0e45291f] (08+04/12) Accurately ripped
 06     [c601674a|dad2e6bb] (09+04/13) Accurately ripped
 07     [ee1d9068|16eaa0d6] (08+04/12) Accurately ripped
 08     [1f19d2aa|93d4c9e7] (08+04/12) Accurately ripped
 09     [8d08247a|e318cc5f] (09+04/13) Accurately ripped
 10     [ecaa252c|16fc52f0] (09+04/13) Accurately ripped
 11     [b27fb9d5|b0f81548] (08+04/12) Accurately ripped
Track Peak [ CRC32  ] [W/O NULL] [  LOG   ]
 --  100,0 [AB53AD89] [F3A68B14]   CRC32
 01  100,0 [DE410708] [6A7BEA19]
 02  100,0 [7150AE81] [F868B303]
 03   84,5 [A44E4544] [EB69B63D]
 04  100,0 [CA35C329] [2277CC82]
 05   91,9 [3823201B] [83958CA7]
 06   96,9 [C8E07AED] [FAE808AE]
 07   88,5 [D660E884] [20C12938]
 08  100,0 [3224984A] [87DBDB43]
 09   91,7 [627CF17E] [8BC944CE]
 10  100,0 [72FA86EB] [BBFB7E41]
 11  100,0 [D6B27E14] [E6FEA8A7]
#777Треклист:
Klaus Lage - "Heisse Spuren" (1985)
Tracks: 11
Total time: 47:43
Year: 1985
Disc-ID: rock / 7c0b320b
1. Starke Schläge 3:29
2. Out 4:20
3. Stille Wasser 4:51
4. Vermisst 4:26
5. Faust auf Faust (Schimanski) 5:11
6. Taxi 2:48
7. Istanbul 3:05
8. Universum 5:07
9. Zuviel allein 4:27
10. Eifersucht 4:10
11. Weihnachtszeit 5:49
Код:
Exact Audio Copy V1.0 beta 3 from 29. August 2011
EAC extraction logfile from 29. January 2013, 18:33
Klaus Lage / Heisse Spuren
Used drive  : PLEXTOR DVDR   PX-712A   Adapter: 2  ID: 0
Read mode               : Secure
Utilize accurate stream : Yes
Defeat audio cache      : Yes
Make use of C2 pointers : No
Read offset correction                      : 30
Overread into Lead-In and Lead-Out          : No
Fill up missing offset samples with silence : Yes
Delete leading and trailing silent blocks   : No
Null samples used in CRC calculations       : Yes
Used interface                              : Native Win32 interface for Win NT & 2000
Used output format : Internal WAV Routines
Sample format      : 44.100 Hz; 16 Bit; Stereo
TOC of the extracted CD
     Track |   Start  |  Length  | Start sector | End sector
    ---------------------------------------------------------
        1  |  0:00.33 |  3:29.62 |        33    |    15769
        2  |  3:30.20 |  4:20.00 |     15770    |    35269
        3  |  7:50.20 |  4:51.40 |     35270    |    57134
        4  | 12:41.60 |  4:26.43 |     57135    |    77127
        5  | 17:08.28 |  5:11.05 |     77128    |   100457
        6  | 22:19.33 |  2:48.25 |    100458    |   113082
        7  | 25:07.58 |  3:05.07 |    113083    |   126964
        8  | 28:12.65 |  5:07.13 |    126965    |   150002
        9  | 33:20.03 |  4:27.35 |    150003    |   170062
       10  | 37:47.38 |  4:10.00 |    170063    |   188812
       11  | 41:57.38 |  5:48.40 |    188813    |   214952
Range status and errors
Selected range
     Filename H:\Razdachi\Klaus Lage\Klaus Lage - Heisse Spuren.wav
     Peak level 84.3 %
     Extraction speed 12.2 X
     Range quality 100.0 %
     Test CRC B5C2F24F
     Copy CRC B5C2F24F
     Copy OK
No errors occurred
AccurateRip summary
Track  1  accurately ripped (confidence 3)  [7CE3D5BE]  (AR v2)
Track  2  accurately ripped (confidence 3)  [9D291154]  (AR v2)
Track  3  accurately ripped (confidence 3)  [E846A043]  (AR v2)
Track  4  accurately ripped (confidence 3)  [5E9FCF7E]  (AR v2)
Track  5  accurately ripped (confidence 3)  [DAABAA4C]  (AR v2)
Track  6  accurately ripped (confidence 3)  [8B48B485]  (AR v2)
Track  7  accurately ripped (confidence 3)  [EA53CB71]  (AR v2)
Track  8  accurately ripped (confidence 3)  [34FB37C0]  (AR v2)
Track  9  accurately ripped (confidence 3)  [7C1A8A21]  (AR v2)
Track 10  accurately ripped (confidence 3)  [5406601D]  (AR v2)
Track 11  accurately ripped (confidence 3)  [00A2C5FA]  (AR v2)
All tracks accurately ripped
End of status report
==== Log checksum 53B176BB97BB71DB5FCE4BCBF8EA7E239E89592CE836324502899F7EA0F51D44 ====
Код:
-----------------------
DON'T MODIFY THIS FILE
-----------------------
PERFORMER: auCDtect Task Manager, ver. 1.5.1RC6 build 1.5.1.7
Copyright (c) 2008-2010 y-soft. All rights reserved
[url=http://y-soft.org]http://y-soft.org[/url]
ANALYZER: auCDtect: CD records authenticity detector, version 0.8.2
Copyright (c) 2004 Oleg Berngardt. All rights reserved.
Copyright (c) 2004 Alexander Djourik. All rights reserved.
FILE: Klaus Lage - Heisse Spuren.flac
  Size: 280817026 Hash: 722A7A296B1A159E9497F83038EA7C68 Accuracy: -m0
  Conclusion: CDDA 100%
  Signature: 03D7DF425F0629591B09A33089381682D55FADC9
[CUETools log; Date: 03.02.2013 11:56:14; Version: 2.1.4]
Pregap length 00:00:33.
[CTDB TOCID: kA5rqPFHwOeT8D7A0akbz1wd71w-] disk not present in database.
[AccurateRip ID: 0013118a-00a5d7a8-7c0b320b] found.
Track   [  CRC   |   V2   ] Status
 01     [ca3a5b5f|7ce3d5be] (12+03/17) Accurately ripped
 02     [c17e201e|9d291154] (12+03/17) Accurately ripped
 03     [e0149365|e846a043] (13+03/18) Accurately ripped
 04     [07fc2502|5e9fcf7e] (12+03/17) Accurately ripped
 05     [af6aa733|daabaa4c] (13+03/18) Accurately ripped
 06     [d5c76e5a|8b48b485] (12+03/17) Accurately ripped
 07     [9de34d27|ea53cb71] (13+03/18) Accurately ripped
 08     [15f97e4d|34fb37c0] (12+03/17) Accurately ripped
 09     [c2720909|7c1a8a21] (12+03/17) Accurately ripped
 10     [f4066e03|5406601d] (13+03/16) Accurately ripped
 11     [4005a2b4|00a2c5fa] (13+03/18) Accurately ripped
Offsetted by -906:
 01     [5b115abb] (02/17) Accurately ripped
 02     [4c145e62] (02/17) Accurately ripped
 03     [75270cf5] (02/18) Accurately ripped
 04     [cf015efe] (02/17) Accurately ripped
 05     [50cddf85] (02/18) Accurately ripped
 06     [fe9226e4] (02/17) Accurately ripped
 07     [d58b60ef] (02/18) Accurately ripped
 08     [8ad67b35] (02/17) Accurately ripped
 09     [c26d7cc7] (02/17) Accurately ripped
 10     [ea2914ed] (00/16) No match (V2 was not tested)
 11     [5c4763cc] (02/18) Accurately ripped
Track Peak [ CRC32  ] [W/O NULL] [  LOG   ]
 --   84,3 [B5C2F24F] [75AEE818]   CRC32
 01   58,6 [65B2AED1] [6A764101]
 02   84,3 [197CDFCC] [51FEA9F0]
 03   68,8 [1EBA3789] [BF03C258]
 04   64,3 [86A6C22F] [DB8078AE]
 05   65,0 [C26670E4] [F5F14C70]
 06   40,1 [B54C48C4] [04C0A689]
 07   56,6 [AEB44B57] [680DBF53]
 08   63,6 [2BFA572D] [EDF472BF]
 09   79,9 [D88EE7EB] [9E71E973]
 10   60,0 [50DD9A4F] [5B43A5ED]
 11   65,7 [10B390BD] [D8C86E24]
#777Треклист:
1. Monopoli
2. 1000 und 1 Nacht
3. Stille Wasser
4. Faust auf Faust
5. Zurück zu Dir
6. Nie wieder Kind
7. Mit meinen Augen
8. Die Liebe bleibt
9. Eifersucht
10. Schweißperlen
11. Wieder zuhaus
12. Steig nicht aus
13. Dein Gang
14. Komm, halt mich fest
15. Regenbogen
16. Was wenn Gott
17. Der alte Wolf
18. Zug um Zug
19. Du hast 'n Freund in mir
20. Lila Kuh
21. Krempel
22. 50
23. Verdammter Kerl
24. Bankgeheimnis
25. Weil Du anders bist
26. Wie ein Stein
27. La Ola
28. C'est la vie
29. Gestern
30. Halt aus
31. Bukowski
32. Fang neu an
33. Deins und meins
34. Du und der Blues
35. Hartes Pflaster
36. Taxi
37. Transit
38. Mercedes Benz
Код:
Exact Audio Copy V1.0 beta 3 from 29. August 2011
EAC extraction logfile from 9. June 2012, 20:55
Klaus Lage / Beste Lage - CD 1
Used drive  : PIONEER DVD RW  DVR-109   Adapter: 0  ID: 1
Read mode               : Secure
Utilize accurate stream : Yes
Defeat audio cache      : Yes
Make use of C2 pointers : No
Read offset correction                      : 48
Overread into Lead-In and Lead-Out          : No
Fill up missing offset samples with silence : Yes
Delete leading and trailing silent blocks   : No
Null samples used in CRC calculations       : Yes
Used interface                              : Native Win32 interface for Win NT & 2000
Used output format : Internal WAV Routines
Sample format      : 44.100 Hz; 16 Bit; Stereo
TOC of the extracted CD
     Track |   Start  |  Length  | Start sector | End sector
    ---------------------------------------------------------
        1  |  0:00.00 |  3:29.32 |         0    |    15706
        2  |  3:29.32 |  3:22.00 |     15707    |    30856
        3  |  6:51.32 |  3:53.37 |     30857    |    48368
        4  | 10:44.69 |  4:03.01 |     48369    |    66594
        5  | 14:47.70 |  3:12.51 |     66595    |    81045
        6  | 18:00.46 |  4:36.66 |     81046    |   101811
        7  | 22:37.37 |  3:51.10 |    101812    |   119146
        8  | 26:28.47 |  3:25.17 |    119147    |   134538
        9  | 29:53.64 |  4:04.65 |    134539    |   152903
       10  | 33:58.54 |  5:23.01 |    152904    |   177129
       11  | 39:21.55 |  4:19.05 |    177130    |   196559
       12  | 43:40.60 |  4:36.52 |    196560    |   217311
       13  | 48:17.37 |  4:02.01 |    217312    |   235462
       14  | 52:19.38 |  3:45.01 |    235463    |   252338
       15  | 56:04.39 |  3:50.30 |    252339    |   269618
       16  | 59:54.69 |  4:30.45 |    269619    |   289913
       17  | 64:25.39 |  3:33.60 |    289914    |   305948
       18  | 67:59.24 |  3:54.46 |    305949    |   323544
       19  | 71:53.70 |  3:21.28 |    323545    |   338647
Range status and errors
Selected range
     Filename C:\Heinz Rudolf Kunze\Klaus Lage - Beste Lage - CD 1.wav
     Peak level 99.8 %
     Extraction speed 2.0 X
     Range quality 99.9 %
     Test CRC DF69308C
     Copy CRC DF69308C
     Copy OK
No errors occurred
AccurateRip summary
Track  1  accurately ripped (confidence 2)  [494B6790]  (AR v2)
Track  2  accurately ripped (confidence 2)  [51A4079D]  (AR v2)
Track  3  accurately ripped (confidence 2)  [CB362246]  (AR v2)
Track  4  accurately ripped (confidence 2)  [586900CD]  (AR v2)
Track  5  accurately ripped (confidence 2)  [D339B97D]  (AR v2)
Track  6  accurately ripped (confidence 2)  [537168BF]  (AR v2)
Track  7  accurately ripped (confidence 2)  [3C6EDA07]  (AR v2)
Track  8  accurately ripped (confidence 2)  [403ACD12]  (AR v2)
Track  9  accurately ripped (confidence 2)  [CD278BBB]  (AR v2)
Track 10  accurately ripped (confidence 2)  [CA7C7391]  (AR v2)
Track 11  accurately ripped (confidence 2)  [A5F3B95B]  (AR v2)
Track 12  accurately ripped (confidence 2)  [B4779159]  (AR v2)
Track 13  accurately ripped (confidence 2)  [A5929073]  (AR v2)
Track 14  accurately ripped (confidence 2)  [6A49FBDE]  (AR v2)
Track 15  accurately ripped (confidence 2)  [E7B111AA]  (AR v2)
Track 16  accurately ripped (confidence 2)  [1E46FE54]  (AR v2)
Track 17  accurately ripped (confidence 2)  [460C6C47]  (AR v2)
Track 18  accurately ripped (confidence 2)  [1CCCBFD4]  (AR v2)
Track 19  accurately ripped (confidence 2)  [A538CC6F]  (AR v2)
All tracks accurately ripped
End of status report
---- CUETools DB Plugin V2.1.3
[CTDB TOCID: RgD5kFuacxqyffwn_TZoVilqPTI-] disk not present in database, Submit result: RgD5kFuacxqyffwn_TZoVilqPTI- has been uploaded
==== Log checksum F97FD5EA557C5C204EF1DE8ACBB82A7417FE5F3857E4A164DF1C955F558B995F ====
Код:
Exact Audio Copy V1.0 beta 3 from 29. August 2011
EAC extraction logfile from 9. June 2012, 21:26
Klaus Lage / Beste Lage - CD 2
Used drive  : PIONEER DVD RW  DVR-109   Adapter: 0  ID: 1
Read mode               : Secure
Utilize accurate stream : Yes
Defeat audio cache      : Yes
Make use of C2 pointers : No
Read offset correction                      : 48
Overread into Lead-In and Lead-Out          : No
Fill up missing offset samples with silence : Yes
Delete leading and trailing silent blocks   : No
Null samples used in CRC calculations       : Yes
Used interface                              : Native Win32 interface for Win NT & 2000
Used output format : Internal WAV Routines
Sample format      : 44.100 Hz; 16 Bit; Stereo
TOC of the extracted CD
     Track |   Start  |  Length  | Start sector | End sector
    ---------------------------------------------------------
        1  |  0:00.00 |  4:53.34 |         0    |    22008
        2  |  4:53.34 |  3:48.57 |     22009    |    39165
        3  |  8:42.16 |  4:05.45 |     39166    |    57585
        4  | 12:47.61 |  3:04.68 |     57586    |    71453
        5  | 15:52.54 |  3:44.45 |     71454    |    88298
        6  | 19:37.24 |  4:40.07 |     88299    |   109305
        7  | 24:17.31 |  4:09.01 |    109306    |   127981
        8  | 28:26.32 |  4:04.60 |    127982    |   146341
        9  | 32:31.17 |  4:19.62 |    146342    |   165828
       10  | 36:51.04 |  4:19.28 |    165829    |   185281
       11  | 41:10.32 |  5:14.45 |    185282    |   208876
       12  | 46:25.02 |  4:12.14 |    208877    |   227790
       13  | 50:37.16 |  5:26.09 |    227791    |   252249
       14  | 56:03.25 |  3:31.00 |    252250    |   268074
       15  | 59:34.25 |  5:19.00 |    268075    |   291999
       16  | 64:53.25 |  4:13.38 |    292000    |   311012
       17  | 69:06.63 |  2:46.39 |    311013    |   323501
       18  | 71:53.27 |  3:38.18 |    323502    |   339869
       19  | 75:31.45 |  3:11.22 |    339870    |   354216
Range status and errors
Selected range
     Filename C:\Heinz Rudolf Kunze\Klaus Lage - Beste Lage - CD 2.wav
     Peak level 99.8 %
     Extraction speed 7.3 X
     Range quality 100.0 %
     Test CRC 196669C2
     Copy CRC 196669C2
     Copy OK
No errors occurred
AccurateRip summary
Track  1  accurately ripped (confidence 2)  [034AADD7]  (AR v2)
Track  2  accurately ripped (confidence 2)  [B4053EDA]  (AR v2)
Track  3  accurately ripped (confidence 2)  [F0264709]  (AR v2)
Track  4  accurately ripped (confidence 2)  [AC8E25AF]  (AR v2)
Track  5  accurately ripped (confidence 2)  [7CBCDE42]  (AR v2)
Track  6  accurately ripped (confidence 2)  [E46270CA]  (AR v2)
Track  7  accurately ripped (confidence 2)  [F6B8D563]  (AR v2)
Track  8  accurately ripped (confidence 2)  [F61DA68A]  (AR v2)
Track  9  accurately ripped (confidence 2)  [BE42F7D7]  (AR v2)
Track 10  accurately ripped (confidence 2)  [3869DFEE]  (AR v2)
Track 11  accurately ripped (confidence 2)  [FC67981C]  (AR v2)
Track 12  accurately ripped (confidence 2)  [23DAD0C1]  (AR v2)
Track 13  accurately ripped (confidence 2)  [2A4F2ABE]  (AR v2)
Track 14  accurately ripped (confidence 2)  [0D87A08C]  (AR v2)
Track 15  accurately ripped (confidence 2)  [1EC8D560]  (AR v2)
Track 16  accurately ripped (confidence 2)  [9602E23A]  (AR v2)
Track 17  accurately ripped (confidence 2)  [BF784320]  (AR v2)
Track 18  accurately ripped (confidence 2)  [41071C2C]  (AR v2)
Track 19  accurately ripped (confidence 2)  [26F4175D]  (AR v2)
All tracks accurately ripped
End of status report
---- CUETools DB Plugin V2.1.3
[CTDB TOCID: V48J2CHnPdgW.ApTCat6x_gbNxY-] disk not present in database, Submit result: database access error: The operation has timed out
==== Log checksum D9F94BB8B49387EBBF544FC75D12EB1837241B2A6BD529F032D7610CE608F993 ====
Код:
REM GENRE Deutsch
REM DATE 2008
REM DISCID 1A11A313
REM COMMENT "ExactAudioCopy v1.0b3"
CATALOG 5099923458222
PERFORMER "Klaus Lage"
TITLE "Beste Lage - CD 1"
FILE "Klaus Lage - Beste Lage - CD 1.flac" WAVE
  TRACK 01 AUDIO
    TITLE "Monopoli"
    PERFORMER "Klaus Lage"
    ISRC DEA340800662
    FLAGS DCP
    INDEX 01 00:00:00
  TRACK 02 AUDIO
    TITLE "1000 und 1 Nacht"
    PERFORMER "Klaus Lage"
    ISRC DEA340800663
    FLAGS DCP
    INDEX 00 03:27:58
    INDEX 01 03:29:32
  TRACK 03 AUDIO
    TITLE "Stille Wasser"
    PERFORMER "Klaus Lage"
    ISRC DEA340800664
    FLAGS DCP
    INDEX 00 06:49:59
    INDEX 01 06:51:32
  TRACK 04 AUDIO
    TITLE "Faust auf Faust"
    PERFORMER "Klaus Lage"
    ISRC DEA340800665
    FLAGS DCP
    INDEX 00 10:43:21
    INDEX 01 10:44:69
  TRACK 05 AUDIO
    TITLE "Zurück zu Dir"
    PERFORMER "Klaus Lage"
    ISRC DEA340800666
    FLAGS DCP
    INDEX 00 14:46:21
    INDEX 01 14:47:70
  TRACK 06 AUDIO
    TITLE "Nie wieder kind"
    PERFORMER "Klaus Lage"
    ISRC DEA340800667
    FLAGS DCP
    INDEX 00 17:58:72
    INDEX 01 18:00:46
  TRACK 07 AUDIO
    TITLE "Mit meinen Augen"
    PERFORMER "Klaus Lage"
    ISRC DEA340800668
    FLAGS DCP
    INDEX 00 22:35:64
    INDEX 01 22:37:37
  TRACK 08 AUDIO
    TITLE "Die Liebe bleibt"
    PERFORMER "Klaus Lage"
    ISRC DEA340800669
    FLAGS DCP
    INDEX 00 26:26:73
    INDEX 01 26:28:47
  TRACK 09 AUDIO
    TITLE "Eifersucht"
    PERFORMER "Klaus Lage"
    ISRC DEA340800670
    FLAGS DCP
    INDEX 00 29:52:16
    INDEX 01 29:53:64
  TRACK 10 AUDIO
    TITLE "Schweißperlen"
    PERFORMER "Klaus Lage"
    ISRC DEA340800671
    FLAGS DCP
    INDEX 00 33:57:05
    INDEX 01 33:58:54
  TRACK 11 AUDIO
    TITLE "Wieder zuhaus"
    PERFORMER "Klaus Lage"
    ISRC DEA340800672
    FLAGS DCP
    INDEX 00 39:20:07
    INDEX 01 39:21:55
  TRACK 12 AUDIO
    TITLE "Steig nicht aus"
    PERFORMER "Klaus Lage"
    ISRC DEA340800673
    FLAGS DCP
    INDEX 00 43:39:12
    INDEX 01 43:40:60
  TRACK 13 AUDIO
    TITLE "Dein Gang"
    PERFORMER "Klaus Lage"
    ISRC DEA340800674
    FLAGS DCP
    INDEX 00 48:15:63
    INDEX 01 48:17:37
  TRACK 14 AUDIO
    TITLE "Komm, halt mich fest"
    PERFORMER "Klaus Lage"
    ISRC DEA340800675
    FLAGS DCP
    INDEX 00 52:17:64
    INDEX 01 52:19:38
  TRACK 15 AUDIO
    TITLE "Regenbogen"
    PERFORMER "Klaus Lage"
    ISRC DES530800001
    FLAGS DCP
    INDEX 00 56:02:65
    INDEX 01 56:04:39
  TRACK 16 AUDIO
    TITLE "Was wenn Gott"
    PERFORMER "Klaus Lage"
    ISRC DES530800002
    FLAGS DCP
    INDEX 00 59:53:20
    INDEX 01 59:54:69
  TRACK 17 AUDIO
    TITLE "Der alte Wolf"
    PERFORMER "Klaus Lage"
    ISRC DES530800003
    FLAGS DCP
    INDEX 00 64:23:65
    INDEX 01 64:25:39
  TRACK 18 AUDIO
    TITLE "Zug um Zug"
    PERFORMER "Klaus Lage"
    ISRC DES530600125
    FLAGS DCP
    INDEX 00 67:57:51
    INDEX 01 67:59:24
  TRACK 19 AUDIO
    TITLE "Du hast'n Freund in mir"
    PERFORMER "Klaus Lage"
    ISRC DES530600126
    FLAGS DCP
    INDEX 00 71:52:21
    INDEX 01 71:53:70
Код:
REM GENRE Folk/Rock
REM DATE 2008
REM DISCID 37127213
REM COMMENT "ExactAudioCopy v1.0b3"
CATALOG 5099923458321
PERFORMER "Klaus Lage"
TITLE "Beste Lage - CD 2"
FILE "Klaus Lage - Beste Lage - CD 2.flac" WAVE
  TRACK 01 AUDIO
    TITLE "Lila Kih"
    PERFORMER "Klaus Lage"
    ISRC DEA340800676
    FLAGS DCP
    INDEX 01 00:00:00
  TRACK 02 AUDIO
    TITLE "Krempel"
    PERFORMER "Klaus Lage"
    ISRC DEA340800677
    FLAGS DCP
    INDEX 00 04:51:59
    INDEX 01 04:53:34
  TRACK 03 AUDIO
    TITLE "50"
    PERFORMER "Klaus Lage"
    ISRC DES530600116
    FLAGS DCP
    INDEX 00 08:40:42
    INDEX 01 08:42:16
  TRACK 04 AUDIO
    TITLE "Verdammter Kerl"
    PERFORMER "Klaus Lage"
    ISRC DES530600120
    FLAGS DCP
    INDEX 00 12:46:13
    INDEX 01 12:47:61
  TRACK 05 AUDIO
    TITLE "Bankgeheimnis"
    PERFORMER "Klaus Lage"
    ISRC DEA610800118
    FLAGS DCP
    INDEX 00 15:51:07
    INDEX 01 15:52:54
  TRACK 06 AUDIO
    TITLE "Weil du anders bist (K.L. & Irene Grandi)"
    PERFORMER "Klaus Lage"
    ISRC DEA610800120
    FLAGS DCP
    INDEX 00 19:35:51
    INDEX 01 19:37:24
  TRACK 07 AUDIO
    TITLE "Wie ein Stein"
    PERFORMER "Klaus Lage"
    ISRC DEA610800122
    FLAGS DCP
    INDEX 00 24:15:58
    INDEX 01 24:17:31
  TRACK 08 AUDIO
    TITLE "La ola"
    PERFORMER "Klaus Lage"
    ISRC DEA610800124
    FLAGS DCP
    INDEX 00 28:24:58
    INDEX 01 28:26:32
  TRACK 09 AUDIO
    TITLE "C'est la vie"
    PERFORMER "Klaus Lage"
    ISRC DEA610800121
    FLAGS DCP
    INDEX 00 32:29:43
    INDEX 01 32:31:17
  TRACK 10 AUDIO
    TITLE "Gestern"
    PERFORMER "Klaus Lage"
    ISRC DEA610800123
    FLAGS DCP
    INDEX 00 36:49:30
    INDEX 01 36:51:04
  TRACK 11 AUDIO
    TITLE "Halt' aus (K. L. & Bo Heart - Live)"
    PERFORMER "Klaus Lage"
    ISRC DEA610800119
    FLAGS DCP
    INDEX 00 41:08:58
    INDEX 01 41:10:32
  TRACK 12 AUDIO
    TITLE "Bukowski"
    PERFORMER "Klaus Lage"
    ISRC DEA340800678
    FLAGS DCP
    INDEX 00 46:23:29
    INDEX 01 46:25:02
  TRACK 13 AUDIO
    TITLE "Fang' neu an"
    PERFORMER "Klaus Lage"
    ISRC DEA340800680
    FLAGS DCP
    INDEX 00 50:35:43
    INDEX 01 50:37:16
  TRACK 14 AUDIO
    TITLE "Deins und meins"
    PERFORMER "Klaus Lage"
    ISRC DEA340800682
    FLAGS DCP
    INDEX 00 56:01:52
    INDEX 01 56:03:25
  TRACK 15 AUDIO
    TITLE "Du und der Blues"
    PERFORMER "Klaus Lage"
    ISRC DEA340800683
    FLAGS DCP
    INDEX 00 59:32:53
    INDEX 01 59:34:25
  TRACK 16 AUDIO
    TITLE "Hartes Pflaster"
    PERFORMER "Klaus Lage"
    ISRC DEA340800684
    FLAGS DCP
    INDEX 00 64:51:52
    INDEX 01 64:53:25
  TRACK 17 AUDIO
    TITLE "Taxi"
    PERFORMER "Klaus Lage"
    ISRC DEA340800685
    FLAGS DCP
    INDEX 00 69:05:14
    INDEX 01 69:06:63
  TRACK 18 AUDIO
    TITLE "Transit (Live)"
    PERFORMER "Klaus Lage"
    ISRC DEA610800117
    FLAGS DCP
    INDEX 00 71:51:55
    INDEX 01 71:53:27
  TRACK 19 AUDIO
    TITLE "Mercedes Benz (Live)"
    PERFORMER "Klaus Lage"
    ISRC DEA610800116
    FLAGS DCP
    INDEX 00 75:29:72
    INDEX 01 75:31:45
#777Треклист:
1. Komm halt mich fest
2. Mit meinen Augen
3. 1000 und eine Nacht
4. Wieder zu Haus
5. Monopoli
6. Eifersucht
7. Faust auf Faust
8. Stille Wasser
9. Nie wieder Kind
10. Wenn Du Wärme brauchst
11. Steig nicht aus
12. Die Liebe bleibt
13. Dein Gang
14. So lacht nur sie
15. Zurück zu Dir
16. Hand in Hand
Код:
Exact Audio Copy V1.0 beta 3 from 29. August 2011
EAC extraction logfile from 28. June 2012, 20:18
Klaus Lage / Premium-Gold-Collection
Used drive  : PIONEER DVD RW  DVR-109   Adapter: 0  ID: 1
Read mode               : Secure
Utilize accurate stream : Yes
Defeat audio cache      : Yes
Make use of C2 pointers : No
Read offset correction                      : 48
Overread into Lead-In and Lead-Out          : No
Fill up missing offset samples with silence : Yes
Delete leading and trailing silent blocks   : No
Null samples used in CRC calculations       : Yes
Used interface                              : Native Win32 interface for Win NT & 2000
Used output format : Internal WAV Routines
Sample format      : 44.100 Hz; 16 Bit; Stereo
TOC of the extracted CD
     Track |   Start  |  Length  | Start sector | End sector
    ---------------------------------------------------------
        1  |  0:00.00 |  3:06.37 |         0    |    13986
        2  |  3:06.37 |  3:53.28 |     13987    |    31489
        3  |  6:59.65 |  3:25.05 |     31490    |    46869
        4  | 10:24.70 |  4:21.62 |     46870    |    66506
        5  | 14:46.57 |  3:31.10 |     66507    |    82341
        6  | 18:17.67 |  4:02.48 |     82342    |   100539
        7  | 22:20.40 |  4:04.42 |    100540    |   118881
        8  | 26:25.07 |  4:02.63 |    118882    |   137094
        9  | 30:27.70 |  3:57.67 |    137095    |   154936
       10  | 34:25.62 |  4:47.03 |    154937    |   176464
       11  | 39:12.65 |  4:14.00 |    176465    |   195514
       12  | 43:26.65 |  3:27.20 |    195515    |   211059
       13  | 46:54.10 |  3:53.12 |    211060    |   228546
       14  | 50:47.22 |  3:58.30 |    228547    |   246426
       15  | 54:45.52 |  3:16.13 |    246427    |   261139
       16  | 58:01.65 |  3:59.12 |    261140    |   279076
Range status and errors
Selected range
     Filename F:\Audio\Klaus Lage\Klaus Lage - Premium-Gold-Collection.wav
     Peak level 100.0 %
     Extraction speed 1.8 X
     Range quality 99.9 %
     Test CRC 413107C0
     Copy CRC 413107C0
     Copy OK
No errors occurred
AccurateRip summary
Track  1  accurately ripped (confidence 11)  [02313EF6]  (AR v2)
Track  2  accurately ripped (confidence 11)  [10A707D4]  (AR v2)
Track  3  accurately ripped (confidence 11)  [DB24DDD3]  (AR v2)
Track  4  accurately ripped (confidence 11)  [F0CAA1FF]  (AR v2)
Track  5  accurately ripped (confidence 11)  [90189D3D]  (AR v2)
Track  6  accurately ripped (confidence 11)  [B2CFE330]  (AR v2)
Track  7  accurately ripped (confidence 11)  [BB6A376F]  (AR v2)
Track  8  accurately ripped (confidence 11)  [8F013E9C]  (AR v2)
Track  9  accurately ripped (confidence 11)  [AD6948A4]  (AR v2)
Track 10  accurately ripped (confidence 11)  [153DB23E]  (AR v2)
Track 11  accurately ripped (confidence 10)  [C590AD84]  (AR v2)
Track 12  accurately ripped (confidence 10)  [CFDB2A2D]  (AR v2)
Track 13  accurately ripped (confidence 11)  [58E934CE]  (AR v2)
Track 14  accurately ripped (confidence 11)  [46850475]  (AR v2)
Track 15  accurately ripped (confidence 11)  [27CCE03C]  (AR v2)
Track 16  accurately ripped (confidence 11)  [9B2C283D]  (AR v2)
All tracks accurately ripped
End of status report
---- CUETools DB Plugin V2.1.3
[CTDB TOCID: LqI2ldzh4Xya2E_UteU57HceIeg-] found, Submit result: LqI2ldzh4Xya2E_UteU57HceIeg- has been confirmed
[45acfb78] (13/13) Accurately ripped
==== Log checksum CF4E3890B05A53031D95D6051A4D76699B51AF3F6B14205C24F9614418A555C6 ====
Код:
REM GENRE Pop
REM DATE 1992
REM DISCID FA0E8910
REM COMMENT "ExactAudioCopy v1.0b3"
CATALOG 0000000000000
PERFORMER "Klaus Lage"
TITLE "Premium-Gold-Collection"
FILE "Klaus Lage - Premium-Gold-Collection.flac" WAVE
  TRACK 01 AUDIO
    TITLE "Komm, halt mich fest"
    PERFORMER "Klaus Lage"
    INDEX 01 00:00:00
  TRACK 02 AUDIO
    TITLE "Mit meinen Augen"
    PERFORMER "Klaus Lage"
    INDEX 00 03:03:27
    INDEX 01 03:06:37
  TRACK 03 AUDIO
    TITLE "1000 und 1 Nacht (Zoom!)"
    PERFORMER "Klaus Lage"
    INDEX 00 06:57:35
    INDEX 01 06:59:65
  TRACK 04 AUDIO
    TITLE "Wieder zuhaus"
    PERFORMER "Klaus Lage"
    INDEX 00 10:22:22
    INDEX 01 10:24:70
  TRACK 05 AUDIO
    TITLE "Monopoli"
    PERFORMER "Klaus Lage"
    INDEX 00 14:43:72
    INDEX 01 14:46:57
  TRACK 06 AUDIO
    TITLE "Eifersucht"
    PERFORMER "Klaus Lage"
    INDEX 00 18:15:27
    INDEX 01 18:17:67
  TRACK 07 AUDIO
    TITLE "Faust auf Faust (Schimanski)"
    PERFORMER "Klaus Lage"
    INDEX 00 22:17:62
    INDEX 01 22:20:40
  TRACK 08 AUDIO
    TITLE "Stille Wasser"
    PERFORMER "Klaus Lage"
    INDEX 00 26:22:40
    INDEX 01 26:25:07
  TRACK 09 AUDIO
    TITLE "Nie wieder Kind"
    PERFORMER "Klaus Lage"
    INDEX 00 30:25:18
    INDEX 01 30:27:70
  TRACK 10 AUDIO
    TITLE "Wenn Du Wärme brauchst"
    PERFORMER "Klaus Lage"
    INDEX 00 34:23:02
    INDEX 01 34:25:62
  TRACK 11 AUDIO
    TITLE "Steig nicht aus"
    PERFORMER "Klaus Lage"
    INDEX 00 39:10:17
    INDEX 01 39:12:65
  TRACK 12 AUDIO
    TITLE "Die Liebe bleibt"
    PERFORMER "Klaus Lage"
    INDEX 00 43:23:60
    INDEX 01 43:26:65
  TRACK 13 AUDIO
    TITLE "Dein Gang"
    PERFORMER "Klaus Lage"
    INDEX 00 46:51:27
    INDEX 01 46:54:10
  TRACK 14 AUDIO
    TITLE "Sooo lacht nur sie (die Malerin)"
    PERFORMER "Klaus Lage"
    INDEX 00 50:44:47
    INDEX 01 50:47:22
  TRACK 15 AUDIO
    TITLE "Zurück zu Dir"
    PERFORMER "Klaus Lage"
    INDEX 00 54:42:47
    INDEX 01 54:45:52
  TRACK 16 AUDIO
    TITLE "Hand in Hand"
    PERFORMER "Klaus Lage"
    INDEX 00 57:59:07
    INDEX 01 58:01:65
Дополнительно:
Правила, инструкции, FAQ!!!
Торрент  Добавлен [26 мар 2019, 19:15] Скачать торрент Магнет ссылка
Скачать торрент
[ Размер 22.47 КБ / Просмотров 1 ]

Статус
Проверен 
 
Размер  3.33 ГБ
Приватный: Нет (DHT включён)
.torrent скачан  0
 


     Отправить личное сообщение
   
Страница 1 из 1
Показать сообщения за:  Поле сортировки  
Начать новую тему Ответить на тему


Сейчас этот форум просматривают: нет зарегистрированных пользователей и гости: 1


Вы не можете начинать темы
Вы не можете отвечать на сообщения
Вы не можете редактировать свои сообщения
Вы не можете удалять свои сообщения
Вы не можете добавлять вложения

Перейти:  
cron