Начать новую тему Ответить на тему
Статистика раздачи
Размер: 133.72 МБ | Добавлен: 21 авг 2020, 20:23 | Скачали: 0
Сидеров: 1  [0 байт/сек]    Личеров: 0  [0 байт/сек]
Пред. тема | След. тема 

Автор
Сообщение

СообщениеДобавлено: 21 авг 2020, 20:23 

Ответить с цитатой 

Kindness - Kidness
#777Жанр: Pop Rock
Производитель диска: RU (Unofficial Release)
Год выпуска диска: 1986
Издатель (лейбл): London Records
Номер по каталогу: 820 096-2
Страна: UK
Аудиокодек: FLAC (*.flac)
Тип рипа: tracks+.cue
Битрейт аудио: lossless
Продолжительность: 01:15:19
Источник (релизер): собственный рип
Наличие сканов в содержимом раздачи: да
Трeклист:
01. Light Of Love
02. Lindy Lou
03. Let The Good Times Roll
04. Oh Yea
05. Oh, Julie (Oh, Oh, July)
06. I Love You, Carolina
07. Make It Better
08. Lonely Long Lady
Код:
Exact Audio Copy V1.3 from 2. September 2016
EAC extraction logfile from 24. July 2020, 20:03
Kindness  / Kindness
Used drive  : ASUS    DRW-24D5MT   Adapter: 1  ID: 0
Read mode               : Secure
Utilize accurate stream : Yes
Defeat audio cache      : Yes
Make use of C2 pointers : No
Read offset correction                      : 6
Overread into Lead-In and Lead-Out          : No
Fill up missing offset samples with silence : Yes
Delete leading and trailing silent blocks   : No
Null samples used in CRC calculations       : Yes
Used interface                              : Native Win32 interface for Win NT & 2000
Gap handling                                : Appended to previous track
Used output format              : User Defined Encoder
Selected bitrate                : 1024 kBit/s
Quality                         : High
Add ID3 tag                     : No
Command line compressor         : C:\Program Files (x86)\Exact Audio Copy\Flac\flac.exe
Additional command line options :  -V -8 -T "Genre=%genre%" -T "Artist=%artist%" -T "Title=%title%" -T "Album=%albumtitle%" -T "Date=%year%" -T "Tracknumber=%tracknr%" -T "Comment=%comment%" %source%
TOC of the extracted CD
     Track |   Start  |  Length  | Start sector | End sector
    ---------------------------------------------------------
        1  |  0:00.00 |  2:44.23 |         0    |    12322
        2  |  2:44.23 |  2:17.66 |     12323    |    22663
        3  |  5:02.14 |  2:09.02 |     22664    |    32340
        4  |  7:11.16 |  2:36.72 |     32341    |    44112
        5  |  9:48.13 |  2:20.56 |     44113    |    54668
        6  | 12:08.69 |  2:59.52 |     54669    |    68145
        7  | 15:08.46 |  2:51.59 |     68146    |    81029
        8  | 18:00.30 |  3:32.66 |     81030    |    96995
Track  1
     Filename H:\Sket4er\Kindness – Kindness (1972)  1986\01 Light Of Love.wav
     Pre-gap length  0:00:02.00
     Peak level 100.0 %
     Extraction speed 0.9 X
     Track quality 99.9 %
     Test CRC A3095F17
     Copy CRC A3095F17
     Track not present in AccurateRip database
     Copy OK
Track  2
     Filename H:\Sket4er\Kindness – Kindness (1972)  1986\02 Lindy Lou.wav
     Peak level 100.0 %
     Extraction speed 1.1 X
     Track quality 100.0 %
     Test CRC 899B3B75
     Copy CRC 899B3B75
     Track not present in AccurateRip database
     Copy OK
Track  3
     Filename H:\Sket4er\Kindness – Kindness (1972)  1986\03 Let The God Times Roll.wav
     Peak level 100.0 %
     Extraction speed 1.1 X
     Track quality 100.0 %
     Test CRC F1BFF055
     Copy CRC F1BFF055
     Track not present in AccurateRip database
     Copy OK
Track  4
     Filename H:\Sket4er\Kindness – Kindness (1972)  1986\04 Oh Yea.wav
     Peak level 100.0 %
     Extraction speed 1.2 X
     Track quality 100.0 %
     Test CRC C531AFEB
     Copy CRC C531AFEB
     Track not present in AccurateRip database
     Copy OK
Track  5
     Filename H:\Sket4er\Kindness – Kindness (1972)  1986\05 Oh, Julie (Oh, Oh, July).wav
     Peak level 100.0 %
     Extraction speed 1.0 X
     Track quality 99.9 %
     Test CRC 93F2CD01
     Copy CRC 93F2CD01
     Track not present in AccurateRip database
     Copy OK
Track  6
     Filename H:\Sket4er\Kindness – Kindness (1972)  1986\06 I Love You, Carolina.wav
     Peak level 100.0 %
     Extraction speed 1.4 X
     Track quality 100.0 %
     Test CRC 2DFE490E
     Copy CRC 2DFE490E
     Track not present in AccurateRip database
     Copy OK
Track  7
     Filename H:\Sket4er\Kindness – Kindness (1972)  1986\07 Make It Better.wav
     Peak level 100.0 %
     Extraction speed 1.4 X
     Track quality 100.0 %
     Test CRC 4099A9C3
     Copy CRC 4099A9C3
     Track not present in AccurateRip database
     Copy OK
Track  8
     Filename H:\Sket4er\Kindness – Kindness (1972)  1986\08 Lonely Long Lady.wav
     Peak level 100.0 %
     Extraction speed 1.5 X
     Track quality 100.0 %
     Test CRC 06DEC3B3
     Copy CRC 06DEC3B3
     Track not present in AccurateRip database
     Copy OK
None of the tracks are present in the AccurateRip database
No errors occurred
End of status report
---- CUETools DB Plugin V2.1.6
[CTDB TOCID: dxoxG56eBY.LwKtet5ZEzIJzGxs-] disk not present in database
Submit result: dxoxG56eBY.LwKtet5ZEzIJzGxs- has been uploaded
==== Log checksum F82F8914B61AEE18ED16F0F0AFD229AECBE46BE997302E88647BE23D07E17CE5 ====
Код:
REM GENRE "Pop Rock"
REM DATE 1972
REM DISCID 4D050D08
REM COMMENT "ExactAudioCopy v1.3"
PERFORMER "Kindness "
TITLE "Kindness "
REM COMPOSER ""
FILE "01 Light Of Love.wav" WAVE
  TRACK 01 AUDIO
    TITLE "Light Of Love"
    PERFORMER "Kindness "
    REM COMPOSER ""
    FLAGS DCP
    INDEX 01 00:00:00
FILE "02 Lindy Lou.wav" WAVE
  TRACK 02 AUDIO
    TITLE "Lindy Lou"
    PERFORMER "Kindness "
    REM COMPOSER ""
    FLAGS DCP
    INDEX 01 00:00:00
FILE "03 Let The God Times Roll.wav" WAVE
  TRACK 03 AUDIO
    TITLE "Let The God Times Roll"
    PERFORMER "Kindness "
    REM COMPOSER ""
    FLAGS DCP
    INDEX 01 00:00:00
FILE "04 Oh Yea.wav" WAVE
  TRACK 04 AUDIO
    TITLE "Oh Yea"
    PERFORMER "Kindness "
    REM COMPOSER ""
    FLAGS DCP
    INDEX 01 00:00:00
FILE "05 Oh, Julie (Oh, Oh, July).wav" WAVE
  TRACK 05 AUDIO
    TITLE "Oh, Julie (Oh, Oh, July)"
    PERFORMER "Kindness "
    REM COMPOSER ""
    FLAGS DCP
    INDEX 01 00:00:00
FILE "06 I Love You, Carolina.wav" WAVE
  TRACK 06 AUDIO
    TITLE "I Love You, Carolina"
    PERFORMER "Kindness "
    REM COMPOSER ""
    FLAGS DCP
    INDEX 01 00:00:00
FILE "07 Make It Better.wav" WAVE
  TRACK 07 AUDIO
    TITLE "Make It Better"
    PERFORMER "Kindness "
    REM COMPOSER ""
    FLAGS DCP
    INDEX 01 00:00:00
FILE "08 Lonely Long Lady.wav" WAVE
  TRACK 08 AUDIO
    TITLE "Lonely Long Lady"
    PERFORMER "Kindness "
    REM COMPOSER ""
    FLAGS DCP
    INDEX 01 00:00:00
Код:
-----------------------
DON'T MODIFY THIS FILE
-----------------------
PERFORMER: auCDtect Task Manager, ver. 1.5.1RC4 build 1.5.1.5
Copyright (c) 2008-2010 y-soft. All rights reserved
[url=http://y-soft.org]http://y-soft.org[/url]
ANALYZER: auCDtect: CD records authenticity detector, version 0.8.2
Copyright (c) 2004 Oleg Berngardt. All rights reserved.
Copyright (c) 2004 Alexander Djourik. All rights reserved.
FILE: 08 Lonely Long Lady.flac
  Size: 23803121 Hash: 5083AE9596C3A1CE561B5608EDC8BF50 Accuracy: -m0
  Conclusion: CDDA 100%
  Signature: F7DEED7B85F36800AAFEE32548FC813A6B352ABA
FILE: 07 Make It Better.flac
  Size: 20936603 Hash: 3ABA4FC327302F7F816EADBF3D25F3D2 Accuracy: -m0
  Conclusion: CDDA 100%
  Signature: AE9509584AE7DB679A2FCC0FAACB2939FE8A6F57
FILE: 06 I Love You, Carolina.flac
  Size: 17547907 Hash: BFAFD936708F1DA98717F45F7B23AECD Accuracy: -m0
  Conclusion: CDDA 100%
  Signature: 30DEE42F6D257B31C0EF8C51CB2CE8CA6D8667F8
FILE: 05 Oh, Julie (Oh, Oh, July).flac
  Size: 14128109 Hash: AEC9450F850102E8683827EF89091D8F Accuracy: -m0
  Conclusion: CDDA 100%
  Signature: FAC15FF8AD8CB3FDE332272E305E525D7B503676
FILE: 04 Oh Yea.flac
  Size: 15964899 Hash: 2B96B6238007049C8E16ADE1F1E3E121 Accuracy: -m0
  Conclusion: CDDA 100%
  Signature: 5FB09395B3A5D7D00F19ED09775F05730637C89F
FILE: 03 Let The God Times Roll.flac
  Size: 13975555 Hash: 00A494C23B12E02AD531CF02A76C0140 Accuracy: -m0
  Conclusion: CDDA 99%
  Signature: 8F8112A79334AAD4FA582C4799AE83920AF18F6A
FILE: 02 Lindy Lou.flac
  Size: 15346298 Hash: 6011B1D0ECBE5F9343CB9432021E46AB Accuracy: -m0
  Conclusion: CDDA 100%
  Signature: A0469505105F5EA99FBBA5163F0B10F5E50D5C0C
FILE: 01 Light Of Love.flac
  Size: 17094349 Hash: CE3CDBDF4881DB0D700D73912F31BD24 Accuracy: -m0
  Conclusion: CDDA 100%
  Signature: 83CC0D42065E2E4AB2BD731536857C380A08362A
Код:
[CUETools log; Date: 07.08.2020 20:04:21; Version: 2.1.6]
[CTDB TOCID: dxoxG56eBY.LwKtet5ZEzIJzGxs-] found.
Track | CTDB Status
  1   | (1/1) Accurately ripped
  2   | (1/1) Accurately ripped
  3   | (1/1) Accurately ripped
  4   | (1/1) Accurately ripped
  5   | (1/1) Accurately ripped
  6   | (1/1) Accurately ripped
  7   | (1/1) Accurately ripped
  8   | (1/1) Accurately ripped
[AccurateRip ID: 00064a7a-002a3fa8-4d050d08] disk not present in database.
Track Peak [ CRC32  ] [W/O NULL] [  LOG   ]
 --  100,0 [63C8DF05] [BA700A6F]
 01  100,0 [A3095F17] [BACA6217]   CRC32
 02  100,0 [899B3B75] [AB8A52F2]   CRC32
 03  100,0 [F1BFF055] [BF98A329]   CRC32
 04  100,0 [C531AFEB] [B640DF3D]   CRC32
 05  100,0 [93F2CD01] [72360E85]   CRC32
 06  100,0 [2DFE490E] [FFD457BD]   CRC32
 07  100,0 [4099A9C3] [E7638CC3]   CRC32
 08  100,0 [06DEC3B3] [FB857AF1]   CRC32
Код:
foobar2000 1.3.9 / Замер динамического диапазона (DR) 1.1.1
Дата отчёта:  2020-08-07 20:08:30
--------------------------------------------------------------------------------
Анализ:   Kindness  / Kindness
--------------------------------------------------------------------------------
DR         Пики         RMS           Продолжительность трека
--------------------------------------------------------------------------------
DR10       0.00 дБ   -10.99 дБ      2:44 01-Light Of Love
DR10       0.00 дБ   -10.98 дБ      2:18 02-Lindy Lou
DR10       0.00 дБ   -10.98 дБ      2:09 03-Let The God Times Roll
DR9        0.00 дБ   -11.03 дБ      2:37 04-Oh Yea
DR9        0.00 дБ   -10.98 дБ      2:21 05-Oh, Julie (Oh, Oh, July)
DR9        0.00 дБ   -11.00 дБ      3:00 06-I Love You, Carolina
DR10       0.00 дБ   -11.03 дБ      2:52 07-Make It Better
DR10       0.00 дБ   -10.98 дБ      3:33 08-Lonely Long Lady
--------------------------------------------------------------------------------
Количество треков: 8
Реальные значения DR: DR10
Частота:   44100 Гц
Каналов:   2
Разрядность:   16
Битрейт:   893 кбит/с
Кодек:   FLAC
================================================================================
Доп. информация
Группа, предшественник Smokie. Переименована в Smokey в 1974, в Smokie 17.11.1975.
Правила, инструкции, FAQ!!!
Торрент  Добавлен [21 авг 2020, 20:23] Скачать торрент Магнет ссылка
Скачать торрент
[ Размер 11.75 КБ / Просмотров 5 ]

Статус
Проверен 
 
Размер  133.72 МБ
Приватный: Нет (DHT включён)
.torrent скачан  0
 


     Отправить личное сообщение
   
Страница 1 из 1
Показать сообщения за:  Поле сортировки  
Начать новую тему Ответить на тему


Сейчас этот форум просматривают: нет зарегистрированных пользователей и гости: 0


Вы не можете начинать темы
Вы не можете отвечать на сообщения
Вы не можете редактировать свои сообщения
Вы не можете удалять свои сообщения
Вы не можете добавлять вложения

Перейти:  
cron