Начать новую тему Ответить на тему
Статистика раздачи
Размер: 287.21 МБ | Добавлен: 26 мар 2019, 20:13 | Скачали: 1
Сидеров: 3  [0 байт/сек]    Личеров: 1  [0 байт/сек]
Пред. тема | След. тема 

Автор
Сообщение

СообщениеДобавлено: 26 мар 2019, 20:13 

Ответить с цитатой 

Killer – Sure You Know How to Drive This Thing (produced by The Rasmus)
Жанр: Pop Rock
Год выпуска диска: 2003
Производитель диска: Finland
Аудио кодек: FLAC
Тип рипа: tracks+.cue
Битрейт аудио: lossless
Продолжительность: 40:20
Трэклист:
1. Just Fine (3:46)
2. Sugar (3:20)
3. Airborne (3:44)
4. Naughty Boy (3:09)
5. Liar (3:42)
6. Sound of Music (4:04)
7. Hide & Seek (4:12)
8. Operator (3:26)
9. Watching - Waiting (4:08)
10. Never Again Yesterday (3:21)
11. If This Is All (3:28)
Доп. информация: Killer - финский поп-рок проект, продюссируемый Pauli и Lauri из The Rasmus.
Код:
Exact Audio Copy V0.99 prebeta 5 from 4. May 2009
EAC extraction logfile from 22. July 2009, 1:09
Killer / Sure You Know How to Drive This Thing
Used drive  : Optiarc DVD RW AD-7200S   Adapter: 0  ID: 0
Read mode               : Secure
Utilize accurate stream : Yes
Defeat audio cache      : Yes
Make use of C2 pointers : No
Read offset correction                      : 48
Overread into Lead-In and Lead-Out          : No
Fill up missing offset samples with silence : Yes
Delete leading and trailing silent blocks   : No
Null samples used in CRC calculations       : Yes
Used interface                              : Native Win32 interface for Win NT & 2000
Gap handling                                : Appended to previous track
Used output format              : User Defined Encoder
Selected bitrate                : 320 kBit/s
Quality                         : High
Add ID3 tag                     : No
Command line compressor         : C:\Program Files\Exact Audio Copy\Flac\flac.exe
Additional command line options : -6 -V -T "ARTIST=%a" -T "TITLE=%t" -T "ALBUM=%g" -T "DATE=%y" -T "TRACKNUMBER=%n" -T "GENRE=%m" -T "COMMENT=%e" %s -o %d
TOC of the extracted CD
     Track |   Start  |  Length  | Start sector | End sector
    ---------------------------------------------------------
        1  |  0:00.00 |  3:46.23 |         0    |    16972
        2  |  3:46.23 |  3:20.21 |     16973    |    31993
        3  |  7:06.44 |  3:44.41 |     31994    |    48834
        4  | 10:51.10 |  3:09.10 |     48835    |    63019
        5  | 14:00.20 |  3:42.69 |     63020    |    79738
        6  | 17:43.14 |  4:04.41 |     79739    |    98079
        7  | 21:47.55 |  4:12.27 |     98080    |   117006
        8  | 26:00.07 |  3:26.07 |    117007    |   132463
        9  | 29:26.14 |  4:08.18 |    132464    |   151081
       10  | 33:34.32 |  3:21.52 |    151082    |   166208
       11  | 36:56.09 |  3:28.74 |    166209    |   181882
Track  1
     Filename C:\Recovered Files\Audio\Killer\2003 - Sure You Know How to Drive This Thing\01 - Just Fine.wav
     Pre-gap length  0:00:02.00
     Peak level 97.7 %
     Track quality 100.0 %
     Test CRC 0EF11176
     Copy CRC 0EF11176
     Accurately ripped (confidence 3)  [051202A3]
     Copy OK
Track  2
     Filename C:\Recovered Files\Audio\Killer\2003 - Sure You Know How to Drive This Thing\02 - Sugar.wav
     Peak level 97.7 %
     Track quality 100.0 %
     Test CRC 24AEF1FF
     Copy CRC 24AEF1FF
     Accurately ripped (confidence 3)  [156B148E]
     Copy OK
Track  3
     Filename C:\Recovered Files\Audio\Killer\2003 - Sure You Know How to Drive This Thing\03 - Airborne.wav
     Pre-gap length  0:00:01.84
     Peak level 97.7 %
     Track quality 100.0 %
     Test CRC B6ADB274
     Copy CRC B6ADB274
     Accurately ripped (confidence 3)  [85F00081]
     Copy OK
Track  4
     Filename C:\Recovered Files\Audio\Killer\2003 - Sure You Know How to Drive This Thing\04 - Naughty Boy.wav
     Pre-gap length  0:00:02.10
     Peak level 97.7 %
     Track quality 100.0 %
     Test CRC EF8CA5E1
     Copy CRC EF8CA5E1
     Accurately ripped (confidence 3)  [2DBEA011]
     Copy OK
Track  5
     Filename C:\Recovered Files\Audio\Killer\2003 - Sure You Know How to Drive This Thing\05 - Liar.wav
     Pre-gap length  0:00:02.68
     Peak level 97.7 %
     Track quality 100.0 %
     Test CRC B9496F4A
     Copy CRC B9496F4A
     Accurately ripped (confidence 3)  [8F4A516A]
     Copy OK
Track  6
     Filename C:\Recovered Files\Audio\Killer\2003 - Sure You Know How to Drive This Thing\06 - Sound of Music.wav
     Peak level 97.7 %
     Track quality 100.0 %
     Test CRC 466C0919
     Copy CRC 466C0919
     Accurately ripped (confidence 3)  [332BF7D0]
     Copy OK
Track  7
     Filename C:\Recovered Files\Audio\Killer\2003 - Sure You Know How to Drive This Thing\07 - Hide & Seek.wav
     Pre-gap length  0:00:01.89
     Peak level 97.7 %
     Track quality 99.9 %
     Test CRC 872337EE
     Copy CRC 872337EE
     Accurately ripped (confidence 3)  [7D475189]
     Copy OK
Track  8
     Filename C:\Recovered Files\Audio\Killer\2003 - Sure You Know How to Drive This Thing\08 - Operator.wav
     Peak level 97.7 %
     Track quality 100.0 %
     Test CRC C3573E29
     Copy CRC C3573E29
     Accurately ripped (confidence 3)  [AD79DB2E]
     Copy OK
Track  9
     Filename C:\Recovered Files\Audio\Killer\2003 - Sure You Know How to Drive This Thing\09 - Watching - Waiting.wav
     Pre-gap length  0:00:01.46
     Peak level 97.7 %
     Track quality 100.0 %
     Test CRC D5AC7A7C
     Copy CRC D5AC7A7C
     Accurately ripped (confidence 3)  [743302BA]
     Copy OK
Track 10
     Filename C:\Recovered Files\Audio\Killer\2003 - Sure You Know How to Drive This Thing\10 - Never Again Yesterday.wav
     Pre-gap length  0:00:02.88
     Peak level 97.7 %
     Track quality 100.0 %
     Test CRC 975F8E85
     Copy CRC 975F8E85
     Accurately ripped (confidence 3)  [0648FF73]
     Copy OK
Track 11
     Filename C:\Recovered Files\Audio\Killer\2003 - Sure You Know How to Drive This Thing\11 - If This Is All.wav
     Pre-gap length  0:00:03.49
     Peak level 97.7 %
     Track quality 100.0 %
     Test CRC CE9817B7
     Copy CRC CE9817B7
     Accurately ripped (confidence 3)  [0B8EF158]
     Copy OK
All tracks accurately ripped
No errors occurred
End of status report
Правила, инструкции, FAQ!!!
Торрент  Добавлен [26 мар 2019, 20:13] Скачать торрент Магнет ссылка
Скачать торрент
[ Размер 12.45 КБ / Просмотров 18 ]

Статус
Проверен 
 
Размер  287.21 МБ
Приватный: Нет (DHT включён)
.torrent скачан  1
 


     Отправить личное сообщение
   
Страница 1 из 1
Показать сообщения за:  Поле сортировки  
Начать новую тему Ответить на тему


Сейчас этот форум просматривают: нет зарегистрированных пользователей и гости: 1


Вы не можете начинать темы
Вы не можете отвечать на сообщения
Вы не можете редактировать свои сообщения
Вы не можете удалять свои сообщения
Вы не можете добавлять вложения

Перейти:  
cron