Начать новую тему Ответить на тему
Статистика раздачи
Размер: 305.51 МБ | Добавлен: 26 мар 2019, 20:13 | Скачали: 0
Сидеров: 0  [0 байт/сек]    Личеров: 34  [0 байт/сек]
Пред. тема | След. тема 

Автор
Сообщение

СообщениеДобавлено: 26 мар 2019, 20:13 

Ответить с цитатой 

Killer – Sickeningly Pretty & Unpleasantly Vain (produced by The Rasmus)

Жанр: Pop Rock
Год выпуска диска: 17 Oct 2001
Производитель диска: Finland
Аудио кодек: FLAC
Тип рипа: tracks+.cue
Битрейт аудио: lossless
Продолжительность: 43:32
Трэклист:
1. Last Butterfly (4:27)
2. Hurricane (3:19)
3. All I Want (2:59)
4. Fire (3:40)
5. Freedom (3:18)
6. Never-Never Land (3:43)
7. Lovesong For My Babe (4:59)
8. Adrenaline (3:17)
9. Sorry For You (4:58)
10. Grls (3:16)
11. Stop Me (5:36)
Доп. информация: Killer – финская поп-рок банда. В качестве продюсеров в работе над диском замечены Pauli и Lauri из The Rasmus
Код:
Exact Audio Copy V0.99 prebeta 5 from 4. May 2009
EAC extraction logfile from 21. July 2009, 22:54
Killer / Sickeningly Pretty & Unpleasantly Vain
Used drive  : Optiarc DVD RW AD-7200S   Adapter: 0  ID: 0
Read mode               : Secure
Utilize accurate stream : Yes
Defeat audio cache      : Yes
Make use of C2 pointers : No
Read offset correction                      : 48
Overread into Lead-In and Lead-Out          : No
Fill up missing offset samples with silence : Yes
Delete leading and trailing silent blocks   : No
Null samples used in CRC calculations       : Yes
Used interface                              : Native Win32 interface for Win NT & 2000
Gap handling                                : Appended to previous track
Used output format              : User Defined Encoder
Selected bitrate                : 320 kBit/s
Quality                         : High
Add ID3 tag                     : No
Command line compressor         : C:\Program Files\Exact Audio Copy\Flac\flac.exe
Additional command line options : -6 -V -T "ARTIST=%a" -T "TITLE=%t" -T "ALBUM=%g" -T "DATE=%y" -T "TRACKNUMBER=%n" -T "GENRE=%m" -T "COMMENT=%e" %s -o %d
TOC of the extracted CD
     Track |   Start  |  Length  | Start sector | End sector
    ---------------------------------------------------------
        1  |  0:00.00 |  4:27.07 |         0    |    20031
        2  |  4:27.07 |  3:19.68 |     20032    |    35024
        3  |  7:47.00 |  2:59.49 |     35025    |    48498
        4  | 10:46.49 |  3:40.45 |     48499    |    65043
        5  | 14:27.19 |  3:18.38 |     65044    |    79931
        6  | 17:45.57 |  3:43.40 |     79932    |    96696
        7  | 21:29.22 |  4:59.60 |     96697    |   119181
        8  | 26:29.07 |  3:17.20 |    119182    |   133976
        9  | 29:46.27 |  4:58.38 |    133977    |   156364
       10  | 34:44.65 |  3:16.20 |    156365    |   171084
       11  | 38:01.10 |  5:36.13 |    171085    |   196297
Track  1
     Filename C:\Recovered Files\Audio\Killer\2002 - Sickeningly Pretty & Unpleasantly Vain\01 - Last Butterfly.wav
     Pre-gap length  0:00:02.00
     Peak level 98.8 %
     Track quality 100.0 %
     Test CRC 335DAA11
     Copy CRC 335DAA11
     Cannot be verified as accurate (confidence 5)  [9CC7C9E7], AccurateRip returned [B992EEC1]
     Copy OK
Track  2
     Filename C:\Recovered Files\Audio\Killer\2002 - Sickeningly Pretty & Unpleasantly Vain\02 - Hurricane.wav
     Peak level 98.8 %
     Track quality 99.9 %
     Test CRC 45E810DF
     Copy CRC 45E810DF
     Cannot be verified as accurate (confidence 5)  [D006E571], AccurateRip returned [83331E6F]
     Copy OK
Track  3
     Filename C:\Recovered Files\Audio\Killer\2002 - Sickeningly Pretty & Unpleasantly Vain\03 - All I Want.wav
     Pre-gap length  0:00:02.00
     Peak level 98.8 %
     Track quality 99.9 %
     Test CRC 2C0BF7C6
     Copy CRC 2C0BF7C6
     Cannot be verified as accurate (confidence 5)  [2BB17DA5], AccurateRip returned [EA94DA67]
     Copy OK
Track  4
     Filename C:\Recovered Files\Audio\Killer\2002 - Sickeningly Pretty & Unpleasantly Vain\04 - Fire.wav
     Peak level 98.8 %
     Track quality 100.0 %
     Test CRC 8508E6DF
     Copy CRC 8508E6DF
     Cannot be verified as accurate (confidence 5)  [B0569859], AccurateRip returned [0B1DF6A5]
     Copy OK
Track  5
     Filename C:\Recovered Files\Audio\Killer\2002 - Sickeningly Pretty & Unpleasantly Vain\05 - Freedom.wav
     Peak level 98.8 %
     Track quality 100.0 %
     Test CRC FD05901C
     Copy CRC FD05901C
     Cannot be verified as accurate (confidence 5)  [9AC6E54B], AccurateRip returned [4DEFE571]
     Copy OK
Track  6
     Filename C:\Recovered Files\Audio\Killer\2002 - Sickeningly Pretty & Unpleasantly Vain\06 - Never-Never Land.wav
     Peak level 98.8 %
     Track quality 100.0 %
     Test CRC 6529B8DD
     Copy CRC 6529B8DD
     Cannot be verified as accurate (confidence 5)  [76C70964], AccurateRip returned [0B85DC00]
     Copy OK
Track  7
     Filename C:\Recovered Files\Audio\Killer\2002 - Sickeningly Pretty & Unpleasantly Vain\07 - Lovesong For My Babe.wav
     Peak level 98.8 %
     Track quality 100.0 %
     Test CRC 418F6E91
     Copy CRC 418F6E91
     Cannot be verified as accurate (confidence 5)  [2275758C], AccurateRip returned [85037A78]
     Copy OK
Track  8
     Filename C:\Recovered Files\Audio\Killer\2002 - Sickeningly Pretty & Unpleasantly Vain\08 - Adrenaline.wav
     Peak level 98.8 %
     Track quality 100.0 %
     Test CRC A3AD55C8
     Copy CRC A3AD55C8
     Cannot be verified as accurate (confidence 5)  [D43D942E], AccurateRip returned [666597C2]
     Copy OK
Track  9
     Filename C:\Recovered Files\Audio\Killer\2002 - Sickeningly Pretty & Unpleasantly Vain\09 - Sorry For You.wav
     Peak level 98.8 %
     Track quality 99.9 %
     Test CRC 7BE78587
     Copy CRC 7BE78587
     Cannot be verified as accurate (confidence 5)  [8979D719], AccurateRip returned [7BB4E209]
     Copy OK
Track 10
     Filename C:\Recovered Files\Audio\Killer\2002 - Sickeningly Pretty & Unpleasantly Vain\10 - Grls.wav
     Peak level 98.8 %
     Track quality 100.0 %
     Test CRC BCEC27BF
     Copy CRC BCEC27BF
     Cannot be verified as accurate (confidence 3)  [42ADE92B], AccurateRip returned [A2D32059]
     Copy OK
Track 11
     Filename C:\Recovered Files\Audio\Killer\2002 - Sickeningly Pretty & Unpleasantly Vain\11 - Stop Me.wav
     Peak level 98.8 %
     Track quality 100.0 %
     Test CRC 9AE47053
     Copy CRC 9AE47053
     Cannot be verified as accurate (confidence 3)  [8B638988], AccurateRip returned [CD7517C8]
     Copy OK
No tracks could be verified as accurate
You may have a different pressing from the one(s) in the database
No errors occurred
End of status report
Правила, инструкции, FAQ!!!
Торрент  Добавлен [26 мар 2019, 20:13] Скачать торрент Магнет ссылка
Скачать торрент
[ Размер 13.16 КБ / Просмотров 14 ]

Статус
Проверен 
 
Размер  305.51 МБ
Приватный: Нет (DHT включён)
.torrent скачан  0
 


     Отправить личное сообщение
   
Страница 1 из 1
Показать сообщения за:  Поле сортировки  
Начать новую тему Ответить на тему


Сейчас этот форум просматривают: нет зарегистрированных пользователей и гости: 0


Вы не можете начинать темы
Вы не можете отвечать на сообщения
Вы не можете редактировать свои сообщения
Вы не можете удалять свои сообщения
Вы не можете добавлять вложения

Перейти:  
cron