Начать новую тему Ответить на тему
Статистика раздачи
Размер: 896.51 МБ | Добавлен: 26 мар 2019, 20:27 | Скачали: 0
Сидеров: 0  [0 байт/сек]    Личеров: 0  [0 байт/сек]
Пред. тема | След. тема 

Автор
Сообщение

СообщениеДобавлено: 26 мар 2019, 20:27 

Ответить с цитатой 

Kiki Lesendriс
Жанр: YU-Pop-Rock
Страна: Сербия
Страна-производитель диска: Сербия
Год издания диска: 2008
Издатель (лейбл): Power Music
Номер по каталогу: SOKOJ CD 001
Аудио кодек: FLAC (*.flac)
Тип рипа: image+.cue
Битрейт аудио: lossless
Источник (релизер): Drgar
Наличие сканов в раздаче: да
Mesec na vratima
Продолжительность: 55:00
Треклист:
01. Oltar (4:31)
02. Uvek te davo nade lakse nego ja (4:04)
03. Te noci smo se potukli zbog nje (4:45)
04. Bog vidi sve (4:15)
05. Nemirne noci (feat. Tony Cetinski) (5:00)
06. Kako si lepa (feat. Bajaga) (3:57)
07. Daleko bilo (4:30)
08. Nemam prava na to (4:15)
09. Mesec na vratima (4:10)
10. Strawberry wine (feat. Van Gogh) (bonus) (3:16)
11. Lies (bonus) (3:48)
12. Beautiful lady (bonus) (3:56)
13. Only the brave (bonus) (4:34)
Код:
Exact Audio Copy V0.99 prebeta 4 from 23. January 2008
EAC extraction logfile from 26. July 2008, 19:41
Kiki Lesendric / Mesec na vratima
Used drive  : Optiarc DVD RW AD-7170S   Adapter: 1  ID: 0
Read mode               : Secure
Utilize accurate stream : Yes
Defeat audio cache      : Yes
Make use of C2 pointers : No
Read offset correction                      : 48
Overread into Lead-In and Lead-Out          : No
Fill up missing offset samples with silence : Yes
Delete leading and trailing silent blocks   : No
Null samples used in CRC calculations       : Yes
Used interface                              : Installed external ASPI interface
Used output format : Internal WAV Routines
Sample format      : 44.100 Hz; 16 Bit; Stereo
TOC of the extracted CD
     Track |   Start  |  Length  | Start sector | End sector
    ---------------------------------------------------------
        1  |  0:00.00 |  4:30.71 |         0    |    20320
        2  |  4:30.71 |  4:03.60 |     20321    |    38605
        3  |  8:34.56 |  4:44.68 |     38606    |    59973
        4  | 13:19.49 |  4:15.27 |     59974    |    79125
        5  | 17:35.01 |  5:00.11 |     79126    |   101636
        6  | 22:35.12 |  3:56.44 |    101637    |   119380
        7  | 26:31.56 |  4:30.31 |    119381    |   139661
        8  | 31:02.12 |  4:14.52 |    139662    |   158763
        9  | 35:16.64 |  4:09.69 |    158764    |   177507
       10  | 39:26.58 |  3:16.28 |    177508    |   192235
       11  | 42:43.11 |  3:47.49 |    192236    |   209309
       12  | 46:30.60 |  3:55.63 |    209310    |   226997
       13  | 50:26.48 |  4:33.45 |    226998    |   247517
Range status and errors
Selected range
     Filename I:\Рипы EAC\Kiki Lesendric - Mesec na vratima.wav
     Peak level 100.0 %
     Range quality 99.9 %
     Copy CRC 5ED6C672
     Copy OK
No errors occurred
AccurateRip summary
Track  1  not present in database
Track  2  not present in database
Track  3  not present in database
Track  4  not present in database
Track  5  not present in database
Track  6  not present in database
Track  7  not present in database
Track  8  not present in database
Track  9  not present in database
Track 10  not present in database
Track 11  not present in database
Track 12  not present in database
Track 13  not present in database
None of the tracks are present in the AccurateRip database
End of status report

Mesec na vratima (drugo izdanje)
#777Продолжительность: 59:37
Треклист:
01. Oltar (4:33)
02. Uvek te davo nade lakse nego ja (4:06)
03. Te noci smo se potukli zbog nje (4:47)
04. Bog vidi sve (4:17)
05. Nemirne noci (feat.Tony Cetinski & Harlem Gospel Choir) (5:18)
06. Kako si lepa (feat.Bajaga) (3:59)
07. Daleko bilo (4:32)
08. Nemam prava na to (4:17)
09. Mesec na vratima (4:12)
10. bonus - Kada sanjamo (feat.Tijana Dapcevic) (4:31)
11. bonus - Kao ptica na mom dlanu (4:33)
12. bonus - Neverna si (exit 2008 live) (3:26)
13. Strawberry wine (feat.Van Gogh) (3:18)
14. Lies (3:48)
Код:
Exact Audio Copy V0.99 prebeta 5 from 4. May 2009
EAC extraction logfile from 26. January 2010, 20:00
Kiki Lesendric / Mesec na vratima
Used drive  : PLEXTOR DVDR   PX-820A   Adapter: 1  ID: 0
Read mode               : Secure
Utilize accurate stream : Yes
Defeat audio cache      : Yes
Make use of C2 pointers : No
Read offset correction                      : 48
Overread into Lead-In and Lead-Out          : No
Fill up missing offset samples with silence : Yes
Delete leading and trailing silent blocks   : No
Null samples used in CRC calculations       : Yes
Used interface                              : Native Win32 interface for Win NT & 2000
Used output format : Internal WAV Routines
Sample format      : 44.100 Hz; 16 Bit; Stereo
TOC of the extracted CD
     Track |   Start  |  Length  | Start sector | End sector
    ---------------------------------------------------------
        1  |  0:00.00 |  4:32.71 |         0    |    20470
        2  |  4:32.71 |  4:05.60 |     20471    |    38905
        3  |  8:38.56 |  4:46.68 |     38906    |    60423
        4  | 13:25.49 |  4:17.27 |     60424    |    79725
        5  | 17:43.01 |  5:18.09 |     79726    |   103584
        6  | 23:01.10 |  3:58.44 |    103585    |   121478
        7  | 26:59.54 |  4:32.31 |    121479    |   141909
        8  | 31:32.10 |  4:16.52 |    141910    |   161161
        9  | 35:48.62 |  4:11.69 |    161162    |   180055
       10  | 40:00.56 |  4:30.51 |    180056    |   200356
       11  | 44:31.32 |  4:33.30 |    200357    |   220861
       12  | 49:04.62 |  3:25.57 |    220862    |   236293
       13  | 52:30.44 |  3:18.28 |    236294    |   251171
       14  | 55:48.72 |  3:47.49 |    251172    |   268245
Range status and errors
Selected range
     Filename D:\EAC rips\Kiki Lesendric - Mesec na vratima.wav
     Peak level 100.0 %
     Range quality 100.0 %
     Test CRC 87C485B8
     Copy CRC 87C485B8
     Copy OK
No errors occurred
AccurateRip summary
Track  1  not present in database
Track  2  not present in database
Track  3  not present in database
Track  4  not present in database
Track  5  not present in database
Track  6  not present in database
Track  7  not present in database
Track  8  not present in database
Track  9  not present in database
Track 10  not present in database
Track 11  not present in database
Track 12  not present in database
Track 13  not present in database
Track 14  not present in database
None of the tracks are present in the AccurateRip database
End of status report

Информация в Wikipedia: http://en.wikipedia.org/wiki/Kiki_Lesendrić;
Оф.сайт: http://www.kikilesendric.rs/

Правила, инструкции, FAQ!!!
Торрент  Добавлен [26 мар 2019, 20:27] Скачать торрент Магнет ссылка
Скачать торрент
[ Размер 20.4 КБ / Просмотров 1 ]

Статус
Проверен 
 
Размер  896.51 МБ
Приватный: Нет (DHT включён)
.torrent скачан  0
 


     Отправить личное сообщение
   
Страница 1 из 1
Показать сообщения за:  Поле сортировки  
Начать новую тему Ответить на тему


Сейчас этот форум просматривают: нет зарегистрированных пользователей и гости: 0


Вы не можете начинать темы
Вы не можете отвечать на сообщения
Вы не можете редактировать свои сообщения
Вы не можете удалять свои сообщения
Вы не можете добавлять вложения

Перейти:  
cron