Начать новую тему Ответить на тему
Статистика раздачи
Размер: 289.96 МБ | Добавлен: 26 мар 2019, 20:17 | Скачали: 0
Сидеров: 1  [0 байт/сек]    Личеров: 0  [0 байт/сек]
Пред. тема | След. тема 

Автор
Сообщение

СообщениеДобавлено: 26 мар 2019, 20:17 

Ответить с цитатой 

Kian Egan - Home
Жанр: Pop-Rock
Носитель: CD
Страна-производитель диска: UK
Год издания: 2014
Издатель (лейбл): Rhino
Номер по каталогу: 825646322671
Страна: Ireland
Аудиокодек: FLAC (*.flac)
Тип рипа: tracks+.cue
Битрейт аудио: lossless
Продолжительность: 39:20
Источник (релизер): waffles.fm
Наличие сканов в содержимом раздачи: да
Треклист:
01. Home (3:45)
02. What Hurts The Most (3:30)
03. The Reason (3:49)
04. Not A Day Goes By (4:03)
05. I Run To You (Duet With Jodi Albert) (3:47)
06. I'll Be (4:00)
07. I'm Ready (4:25)
08. Waiting For Superman (4:17)
09. Here Without You (3:56)
10. Wanted (3:49)
Код:
Exact Audio Copy V1.0 beta 3 from 29. August 2011
EAC extraction logfile from 12. May 2014, 15:57
Kian Egan / Home 2014
Used drive  : HL-DT-STDVDRAM GSA-T50L   Adapter: 1  ID: 0
Read mode               : Secure
Utilize accurate stream : Yes
Defeat audio cache      : Yes
Make use of C2 pointers : No
Read offset correction                      : 667
Overread into Lead-In and Lead-Out          : No
Fill up missing offset samples with silence : Yes
Delete leading and trailing silent blocks   : No
Null samples used in CRC calculations       : Yes
Used interface                              : Native Win32 interface for Win NT & 2000
Gap handling                                : Appended to previous track
Used output format              : User Defined Encoder
Selected bitrate                : 1024 kBit/s
Quality                         : High
Add ID3 tag                     : No
Command line compressor         : C:\Program Files\FLAC\flac.exe
Additional command line options : -8 -V -T "ARTIST=%artist%" -T "TITLE=%title%" -T "ALBUM=%albumtitle%" -T "DATE=%year%" -T "TRACKNUMBER=%tracknr%" -T "GENRE=%genre%" -T "PERFORMER=%albuminterpret%" -T "COMPOSER=%composer%" %haslyrics%--tag-from-file=LYRICS="%lyricsfile%"%haslyrics% -T "ALBUMARTIST=%albumartist%" -T "DISCNUMBER=%cdnumber%" -T "TOTALDISCS=%totalcds%" -T "TOTALTRACKS=%numtracks%" -T "COMMENT=%comment%" %source% -o %dest%
TOC of the extracted CD
     Track |   Start  |  Length  | Start sector | End sector
    ---------------------------------------------------------
        1  |  0:00.00 |  3:45.32 |         0    |    16906
        2  |  3:45.32 |  3:29.45 |     16907    |    32626
        3  |  7:15.02 |  3:49.06 |     32627    |    49807
        4  | 11:04.08 |  4:03.33 |     49808    |    68065
        5  | 15:07.41 |  3:46.51 |     68066    |    85066
        6  | 18:54.17 |  4:00.06 |     85067    |   103072
        7  | 22:54.23 |  4:24.42 |    103073    |   122914
        8  | 27:18.65 |  4:17.02 |    122915    |   142191
        9  | 31:35.67 |  3:55.52 |    142192    |   159868
       10  | 35:31.44 |  3:48.63 |    159869    |   177031
Track  1
     Filename C:\FLAC\01 Home.wav
     Pre-gap length  0:00:02.00
     Peak level 88.9 %
     Extraction speed 2.1 X
     Track quality 99.9 %
     Test CRC BB0BCBE1
     Copy CRC BB0BCBE1
     Accurately ripped (confidence 1)  [BF3B4ED6]  (AR v2)
     Copy OK
Track  2
     Filename C:\FLAC\02 What Hurts The Most.wav
     Pre-gap length  0:00:01.98
     Peak level 99.6 %
     Extraction speed 2.6 X
     Track quality 100.0 %
     Test CRC 7CFEE420
     Copy CRC 7CFEE420
     Accurately ripped (confidence 1)  [05574647]  (AR v2)
     Copy OK
Track  3
     Filename C:\FLAC\03 The Reason.wav
     Pre-gap length  0:00:01.20
     Peak level 99.8 %
     Extraction speed 2.5 X
     Track quality 99.9 %
     Test CRC 41BBC262
     Copy CRC 41BBC262
     Accurately ripped (confidence 1)  [10B29FF4]  (AR v2)
     Copy OK
Track  4
     Filename C:\FLAC\04 Not A Day Goes By.wav
     Pre-gap length  0:00:00.65
     Peak level 99.6 %
     Extraction speed 3.1 X
     Track quality 100.0 %
     Test CRC AD4D352F
     Copy CRC AD4D352F
     Accurately ripped (confidence 1)  [B8835C0E]  (AR v2)
     Copy OK
Track  5
     Filename C:\FLAC\05 I Run To You (Duet With Jodi Albert).wav
     Pre-gap length  0:00:01.42
     Peak level 99.7 %
     Extraction speed 3.2 X
     Track quality 100.0 %
     Test CRC D856B680
     Copy CRC D856B680
     Accurately ripped (confidence 1)  [F48174F9]  (AR v2)
     Copy OK
Track  6
     Filename C:\FLAC\06 I'll Be.wav
     Pre-gap length  0:00:01.65
     Peak level 100.0 %
     Extraction speed 3.5 X
     Track quality 100.0 %
     Test CRC FA3D9370
     Copy CRC FA3D9370
     Accurately ripped (confidence 1)  [F29C5589]  (AR v2)
     Copy OK
Track  7
     Filename C:\FLAC\07 I'm Ready.wav
     Pre-gap length  0:00:01.82
     Peak level 99.6 %
     Extraction speed 3.7 X
     Track quality 100.0 %
     Test CRC BCBE1DDA
     Copy CRC BCBE1DDA
     Accurately ripped (confidence 1)  [2CFA7531]  (AR v2)
     Copy OK
Track  8
     Filename C:\FLAC\08 Waiting For Superman.wav
     Pre-gap length  0:00:01.05
     Peak level 100.0 %
     Extraction speed 3.9 X
     Track quality 100.0 %
     Test CRC 69627B80
     Copy CRC 69627B80
     Accurately ripped (confidence 1)  [05EF8C48]  (AR v2)
     Copy OK
Track  9
     Filename C:\FLAC\09 Here Without You.wav
     Pre-gap length  0:00:00.89
     Peak level 100.0 %
     Extraction speed 3.5 X
     Track quality 99.9 %
     Test CRC 9AEB803E
     Copy CRC 9AEB803E
     Accurately ripped (confidence 1)  [D294A83E]  (AR v2)
     Copy OK
Track 10
     Filename C:\FLAC\10 Wanted.wav
     Pre-gap length  0:00:01.32
     Peak level 99.6 %
     Extraction speed 4.2 X
     Track quality 100.0 %
     Test CRC C5457566
     Copy CRC C5457566
     Accurately ripped (confidence 1)  [4B9C4BB8]  (AR v2)
     Copy OK
All tracks accurately ripped
No errors occurred
End of status report
==== Log checksum 6D0D040F50660D14621CEEBBA8699282DE53AED106DAE2BE84BF3935A350336A ====
Код:
REM GENRE Pop
REM DATE 2014
REM DISCID 8809380A
REM COMMENT "ExactAudioCopy v1.0b3"
CATALOG 0825646322671
PERFORMER "Kian Egan"
TITLE "Home 2014"
FILE "01 Home.wav" WAVE
  TRACK 01 AUDIO
    TITLE "Home"
    PERFORMER "Kian Egan"
    ISRC GBCRL1400004
    INDEX 01 00:00:00
  TRACK 02 AUDIO
    TITLE "What Hurts The Most"
    PERFORMER "Kian Egan"
    ISRC GBCRL1400005
    INDEX 00 03:43:33
FILE "02 What Hurts The Most.wav" WAVE
    INDEX 01 00:00:00
  TRACK 03 AUDIO
    TITLE "The Reason"
    PERFORMER "Kian Egan"
    ISRC GBCRL1400006
    INDEX 00 03:28:30
FILE "03 The Reason.wav" WAVE
    INDEX 01 00:00:00
  TRACK 04 AUDIO
    TITLE "Not A Day Goes By"
    PERFORMER "Kian Egan"
    ISRC GBCRL1400007
    INDEX 00 03:48:32
FILE "04 Not A Day Goes By.wav" WAVE
    INDEX 01 00:00:00
  TRACK 05 AUDIO
    TITLE "I Run To You (Duet With Jodi Albert)"
    PERFORMER "Kian Egan"
    ISRC GBCRL1400008
    INDEX 00 04:02:01
FILE "05 I Run To You (Duet With Jodi Albert).wav" WAVE
    INDEX 01 00:00:00
  TRACK 06 AUDIO
    TITLE "I'll Be"
    PERFORMER "Kian Egan"
    ISRC GBCRL1400009
    INDEX 00 03:45:02
FILE "06 I'll Be.wav" WAVE
    INDEX 01 00:00:00
  TRACK 07 AUDIO
    TITLE "I'm Ready"
    PERFORMER "Kian Egan"
    ISRC GBCRL1400010
    INDEX 00 03:58:19
FILE "07 I'm Ready.wav" WAVE
    INDEX 01 00:00:00
  TRACK 08 AUDIO
    TITLE "Waiting For Superman"
    PERFORMER "Kian Egan"
    ISRC GBCRL1400011
    INDEX 00 04:23:38
FILE "08 Waiting For Superman.wav" WAVE
    INDEX 01 00:00:00
  TRACK 09 AUDIO
    TITLE "Here Without You"
    PERFORMER "Kian Egan"
    ISRC GBCRL1400012
    INDEX 00 04:16:10
FILE "09 Here Without You.wav" WAVE
    INDEX 01 00:00:00
  TRACK 10 AUDIO
    TITLE "Wanted"
    PERFORMER "Kian Egan"
    ISRC GBCRL1400013
    INDEX 00 03:54:28
FILE "10 Wanted.wav" WAVE
    INDEX 01 00:00:00
Код:
-----------------------
DON'T MODIFY THIS FILE
-----------------------
PERFORMER: auCDtect Task Manager, ver. 1.6.0 RC1 build 1.6.0.1
Copyright (c) 2008-2010 y-soft. All rights reserved
[url=http://y-soft.org]http://y-soft.org[/url]
ANALYZER: auCDtect: CD records authenticity detector, version 0.8.2
Copyright (c) 2004 Oleg Berngardt. All rights reserved.
Copyright (c) 2004 Alexander Djourik. All rights reserved.
FILE: 10 Wanted.flac
  Size: 27085654 Hash: 163DFE3484672724815F177F58A5347B Accuracy: -m0
  Conclusion: CDDA 100%
  Signature: F25C1B7C2F908899B5C3C3F50BE8F34C6145B5D0
FILE: 09 Here Without You.flac
  Size: 29740846 Hash: 8A8A4379969C6898670EA2A8E5F1A7A3 Accuracy: -m0
  Conclusion: CDDA 100%
  Signature: A39279671574370D51E7CBAD34BF3494ABA6D4C2
FILE: 08 Waiting For Superman.flac
  Size: 33198604 Hash: A79F83BAB15B97780836855CA2892E12 Accuracy: -m0
  Conclusion: CDDA 100%
  Signature: EFF666AC80A449BF4679ED16441CC9B4F1F62AA9
FILE: 07 I'm Ready.flac
  Size: 30529915 Hash: 944CEBE91DAE643DBA67BBFFABB6ACD9 Accuracy: -m0
  Conclusion: CDDA 100%
  Signature: 73A457A46442AD6C4A0F33A4284748CE74DFF0F9
FILE: 06 I'll Be.flac
  Size: 31159184 Hash: 34D2E9F7F259354E8D8BBEC5354D1850 Accuracy: -m0
  Conclusion: CDDA 100%
  Signature: 622BE4E2F7A677D3E6E844A92F4EA400F15BAD47
FILE: 05 I Run To You (Duet With Jodi Albert).flac
  Size: 28171476 Hash: 60EC2256F203FD75CE4AB3BC46F6051D Accuracy: -m0
  Conclusion: CDDA 100%
  Signature: 42E287BE7A90632A3717C90B4D3B22DD73B2C372
FILE: 04 Not A Day Goes By.flac
  Size: 28628051 Hash: FDF19B63AEC20B864B627AD739490BA2 Accuracy: -m0
  Conclusion: CDDA 100%
  Signature: 024BCA1FDB1B37C60A4E753D243BAAF0876CD78A
FILE: 03 The Reason.flac
  Size: 32691489 Hash: 6B63595149C553074D165FF0FC2EE3D7 Accuracy: -m0
  Conclusion: CDDA 100%
  Signature: CECDF156D317252204128F2691A849EB717C721E
FILE: 02 What Hurts The Most.flac
  Size: 26763808 Hash: B63C7AAD503F8DF4D135616BA5D20AEC Accuracy: -m0
  Conclusion: CDDA 100%
  Signature: 44BBC050E45E18437AE60388E3D881A954883267
FILE: 01 Home.flac
  Size: 29093966 Hash: 65A62A8CDE02BA10B66F3EB240948826 Accuracy: -m0
  Conclusion: CDDA 100%
  Signature: 82A81D41A62DDA64E209A8D8D51B9C9BCF69E9EF
Kian Egan's debut solo album is almost a work of art in its calculated market-friendly safeness. Nobody was expecting former Westlifer Kian Egan to cover Atrocity Exhibition by Joy Division or Bodies by The Sex Pistols on his debut solo album but even by the high water mark of slop pop set by his former band, Home is almost a work of art in its aversion to quality or imagination. Egan, forever singled out as the least vocally gifted in Westlife (The Rolling Stones of boybands), keeps his voice on a tight lease and doesn't let his choice of covers roam too far from Cowell/Walsh endorsed fluff. It ranges across the prairie of the mind from Daughtry’s more windy-than-windswept Home, to a bunch of songs by crack Nashville song-writing teams, to, and very admirably, a feck-the-begrudgers duet with his wife, Jodi Albert, on Lady Antebellum’s twirling parasols and lemonade epic, I Run To You. Far better would have been a version of Bryan Adams’ best song - Run To You, a real howl of lust with a killer guitar solo. However, the AOR Canuck does get a look in here with I’m Ready, which suits Egan’s urban cowboy shtick just fine. So the Sligo surfer dude doesn't roam too far from his spiritual and musical home. Meanwhile, Brian Rawling's production sounds rushed, weedy, and over-fed on sugary strings, tasteful countrified guitar, and a workmanlike rhythm section. Of course, a Kian Egan solo album only actually exists because of his victory on I’m a Celebrity . . . , something he is happy to acknowledge himself. You can hardly blame him for rumbling what Cowell rumbled ten years ago – the real money in the music industry is in TV shows. Review By Alan Corr – RTE.IE
Правила, инструкции, FAQ!!!
Торрент  Добавлен [26 мар 2019, 20:17] Скачать торрент Магнет ссылка
Скачать торрент
[ Размер 13.07 КБ / Просмотров 0 ]

Статус
Проверен 
 
Размер  289.96 МБ
Приватный: Нет (DHT включён)
.torrent скачан  0
 


     Отправить личное сообщение
   
Страница 1 из 1
Показать сообщения за:  Поле сортировки  
Начать новую тему Ответить на тему


Сейчас этот форум просматривают: нет зарегистрированных пользователей и гости: 0


Вы не можете начинать темы
Вы не можете отвечать на сообщения
Вы не можете редактировать свои сообщения
Вы не можете удалять свои сообщения
Вы не можете добавлять вложения

Перейти:  
cron