Начать новую тему Ответить на тему
Статистика раздачи
Размер: 236.5 МБ | Добавлен: 05 май 2020, 10:43 | Скачали: 0
Сидеров: 1  [0 байт/сек]    Личеров: 0  [0 байт/сек]
Пред. тема | След. тема 

Автор
Сообщение

СообщениеДобавлено: 05 май 2020, 10:43 

Ответить с цитатой 

Kenny Maclean / Don't Look Back
Жанр: Pop-Rock
Носитель: CD
Страна-производитель диска (релиза): Canada
Год издания: 1990
Издатель (лейбл): Justin Entertainment Inc.
Номер по каталогу: JED-0001
Аудиокодек: FLAC (*.flac)
Тип рипа: tracks+.cue
Продолжительность: 0:37:02.
Источник: собственный рип
Наличие сканов в содержимом раздачи: да
Треклист:
01. Don't Look Back [0:03:45.42]
02. Don't You Know It [0:03:27.33]
03. Rescue Me [0:03:52.50]
04. State Of Mind [0:03:41.37]
05. I Can't Resist [0:04:12.70]
06. Because I Love You [0:03:45.00]
07. One Night [0:03:44.10]
08. Breakdown [0:03:16.40]
09. Hot Pink [0:04:25.18]
10. Lullaby [0:02:51.02]
Код:
Exact Audio Copy V1.3 from 2. September 2016
Отчёт EAC об извлечении, выполненном 29. марта 2020, 16:13
Kenny Maclean / Don't Look Back
Дисковод: ASUS    DRW-1814BLT   Adapter: 1  ID: 0
Режим чтения                 : Достоверность
Использование точного потока : Да
Отключение кэша аудио        : Да
Использование указателей C2  : Нет
Коррекция смещения при чтении                     : 6
Способность читать области Lead-in и Lead-out     : Нет
Заполнение пропущенных сэмплов тишиной            : Да
Удаление блоков с тишиной в начале и конце        : Нет
При вычислениях CRC использовались нулевые сэмплы : Да
Интерфейс                                         : Встроенный Win32-интерфейс для Win NT/2000
Обработка зазоров                                 : Добавлено к предыдущему треку
Выходной формат          : Пользовательский кодировщик
Выбранный битрейт        : 128 kBit/s
Качество                 : Высокий
Добавление ID3-тега      : Нет
Утилита сжатия           : C:\Program Files (x86)\Exact Audio Copy\Flac\flac.exe
Дополнительные параметры : -V -8 -T "Genre=%genre%" -T "Artist=%artist%" -T "Title=%title%" -T "Album=%albumtitle%" -T "Date=%year%" -T "Tracknumber=%tracknr%" -T "Comment=EAC1.0b2 FLAC -8" %source%
TOC извлечённого CD
     Трек |   Старт  | Длительность | Начальный сектор | Конечный сектор
    ---------------------------------------------------------------------
       1  |  0:00.00 |    3:45.42   |           0      |      16916
       2  |  3:45.42 |    3:27.33   |       16917      |      32474
       3  |  7:13.00 |    3:52.50   |       32475      |      49924
       4  | 11:05.50 |    3:41.37   |       49925      |      66536
       5  | 14:47.12 |    4:12.70   |       66537      |      85506
       6  | 19:00.07 |    3:45.00   |       85507      |     102381
       7  | 22:45.07 |    3:44.10   |      102382      |     119191
       8  | 26:29.17 |    3:16.40   |      119192      |     133931
       9  | 29:45.57 |    4:25.18   |      133932      |     153824
      10  | 34:11.00 |    2:51.02   |      153825      |     166651
Трек  1
     Имя файла R:\Раздача 86\Kenny MacLean - 1990 - Don't Look Back\01 Don't Look Back.wav
     Длина предзазора  0:00:02.00
     Пиковый уровень 65.7 %
     Скорость извлечения 2.5 X
     Качество трека 100.0 %
     CRC теста FFC9863F
     CRC копии FFC9863F
     Точное извлечение (достоверность 2)  [6B643F45]  (AR v1)
     Копирование... OK
Трек  2
     Имя файла R:\Раздача 86\Kenny MacLean - 1990 - Don't Look Back\02 Don't You Know It.wav
     Длина предзазора  0:00:01.57
     Пиковый уровень 61.1 %
     Скорость извлечения 2.7 X
     Качество трека 100.0 %
     CRC теста 1D1AF434
     CRC копии 1D1AF434
     Точное извлечение (достоверность 2)  [0EEC1D25]  (AR v1)
     Копирование... OK
Трек  3
     Имя файла R:\Раздача 86\Kenny MacLean - 1990 - Don't Look Back\03 Rescue Me.wav
     Длина предзазора  0:00:01.53
     Пиковый уровень 55.8 %
     Скорость извлечения 3.0 X
     Качество трека 100.0 %
     CRC теста F4E59BD8
     CRC копии F4E59BD8
     Точное извлечение (достоверность 2)  [0EB2D6E5]  (AR v1)
     Копирование... OK
Трек  4
     Имя файла R:\Раздача 86\Kenny MacLean - 1990 - Don't Look Back\04 State Of Mind.wav
     Длина предзазора  0:00:04.08
     Пиковый уровень 58.1 %
     Скорость извлечения 3.2 X
     Качество трека 100.0 %
     CRC теста 836CFCE8
     CRC копии 836CFCE8
     Точное извлечение (достоверность 2)  [C7ED71DD]  (AR v1)
     Копирование... OK
Трек  5
     Имя файла R:\Раздача 86\Kenny MacLean - 1990 - Don't Look Back\05 I Can't Resist.wav
     Длина предзазора  0:00:02.60
     Пиковый уровень 52.0 %
     Скорость извлечения 2.1 X
     Качество трека 99.9 %
     CRC теста E98EAE54
     CRC копии E98EAE54
     Точное извлечение (достоверность 2)  [F46443F7]  (AR v1)
     Копирование... OK
Трек  6
     Имя файла R:\Раздача 86\Kenny MacLean - 1990 - Don't Look Back\06 Because I Love You.wav
     Длина предзазора  0:00:02.52
     Пиковый уровень 58.3 %
     Скорость извлечения 3.6 X
     Качество трека 100.0 %
     CRC теста 2932E1F8
     CRC копии 2932E1F8
     Точное извлечение (достоверность 2)  [72B9BA15]  (AR v1)
     Копирование... OK
Трек  7
     Имя файла R:\Раздача 86\Kenny MacLean - 1990 - Don't Look Back\07 One Night.wav
     Длина предзазора  0:00:01.32
     Пиковый уровень 65.1 %
     Скорость извлечения 3.8 X
     Качество трека 100.0 %
     CRC теста BF01DEC0
     CRC копии BF01DEC0
     Точное извлечение (достоверность 2)  [FA8E7CA0]  (AR v1)
     Копирование... OK
Трек  8
     Имя файла R:\Раздача 86\Kenny MacLean - 1990 - Don't Look Back\08 Breakdown.wav
     Длина предзазора  0:00:03.02
     Пиковый уровень 63.3 %
     Скорость извлечения 2.3 X
     Качество трека 99.9 %
     CRC теста 345740D3
     CRC копии 345740D3
     Точное извлечение (достоверность 2)  [92B89BED]  (AR v1)
     Копирование... OK
Трек  9
     Имя файла R:\Раздача 86\Kenny MacLean - 1990 - Don't Look Back\09 Hot Pink.wav
     Длина предзазора  0:00:02.57
     Пиковый уровень 66.2 %
     Скорость извлечения 2.5 X
     Качество трека 99.9 %
     CRC теста AA969371
     CRC копии AA969371
     Точное извлечение (достоверность 2)  [709CAEF8]  (AR v1)
     Копирование... OK
Трек 10
     Имя файла R:\Раздача 86\Kenny MacLean - 1990 - Don't Look Back\10 Lullaby.wav
     Длина предзазора  0:00:01.70
     Пиковый уровень 44.4 %
     Скорость извлечения 4.0 X
     Качество трека 100.0 %
     CRC теста 1F4AE87B
     CRC копии 1F4AE87B
     Точное извлечение (достоверность 2)  [66B50333]  (AR v1)
     Копирование... OK
Все треки извлечены точно
Ошибок не произошло
Конец отчёта
---- CUETools DB Plugin V2.1.6
[CTDB TOCID: eWlWQmlKi0DYYTwK7UcWe7F8bDs-] found
Submit result: eWlWQmlKi0DYYTwK7UcWe7F8bDs- has been confirmed
Track | CTDB Status
  1   | (7/9) Accurately ripped, or (1/9) differs in 16264 samples @03:45:20-03:45:41, or (1/9) differs in 23514 samples @00:26:04-00:26:24
  2   | (9/9) Accurately ripped
  3   | (9/9) Accurately ripped
  4   | (9/9) Accurately ripped
  5   | (9/9) Accurately ripped
  6   | (9/9) Accurately ripped
  7   | (9/9) Accurately ripped
  8   | (9/9) Accurately ripped
  9   | (9/9) Accurately ripped
 10   | (9/9) Accurately ripped
==== Контрольная сумма отчёта D15F2231E964CC8260A014B243D1B213FEDA5FBF6DB3C67D0FA568FFF43B4B54 ====
Код:
REM GENRE Pop-Rock
REM DATE 1990
REM DISCID 8F08AE0A
REM COMMENT "ExactAudioCopy v1.3"
PERFORMER "Kenny Maclean"
TITLE "Don't Look Back"
REM COMPOSER ""
FILE "01 Don't Look Back.wav" WAVE
  TRACK 01 AUDIO
    TITLE "Don't Look Back"
    PERFORMER "Kenny Maclean"
    REM COMPOSER ""
    INDEX 01 00:00:00
  TRACK 02 AUDIO
    TITLE "Don't You Know It"
    PERFORMER "Kenny Maclean"
    REM COMPOSER ""
    INDEX 00 03:43:60
FILE "02 Don't You Know It.wav" WAVE
    INDEX 01 00:00:00
  TRACK 03 AUDIO
    TITLE "Rescue Me"
    PERFORMER "Kenny Maclean"
    REM COMPOSER ""
    INDEX 00 03:25:55
FILE "03 Rescue Me.wav" WAVE
    INDEX 01 00:00:00
  TRACK 04 AUDIO
    TITLE "State Of Mind"
    PERFORMER "Kenny Maclean"
    REM COMPOSER ""
    INDEX 00 03:48:42
FILE "04 State Of Mind.wav" WAVE
    INDEX 01 00:00:00
  TRACK 05 AUDIO
    TITLE "I Can't Resist"
    PERFORMER "Kenny Maclean"
    REM COMPOSER ""
    INDEX 00 03:38:52
FILE "05 I Can't Resist.wav" WAVE
    INDEX 01 00:00:00
  TRACK 06 AUDIO
    TITLE "Because I Love You"
    PERFORMER "Kenny Maclean"
    REM COMPOSER ""
    INDEX 00 04:10:18
FILE "06 Because I Love You.wav" WAVE
    INDEX 01 00:00:00
  TRACK 07 AUDIO
    TITLE "One Night"
    PERFORMER "Kenny Maclean"
    REM COMPOSER ""
    INDEX 00 03:43:43
FILE "07 One Night.wav" WAVE
    INDEX 01 00:00:00
  TRACK 08 AUDIO
    TITLE "Breakdown"
    PERFORMER "Kenny Maclean"
    REM COMPOSER ""
    INDEX 00 03:41:08
FILE "08 Breakdown.wav" WAVE
    INDEX 01 00:00:00
  TRACK 09 AUDIO
    TITLE "Hot Pink"
    PERFORMER "Kenny Maclean"
    REM COMPOSER ""
    INDEX 00 03:13:58
FILE "09 Hot Pink.wav" WAVE
    INDEX 01 00:00:00
  TRACK 10 AUDIO
    TITLE "Lullaby"
    PERFORMER "Kenny Maclean"
    REM COMPOSER ""
    INDEX 00 04:23:23
FILE "10 Lullaby.wav" WAVE
    INDEX 01 00:00:00
Правила, инструкции, FAQ!!!
Торрент  Добавлен [05 май 2020, 10:43] Скачать торрент Магнет ссылка
Скачать торрент
[ Размер 19.98 КБ / Просмотров 5 ]

Статус
Проверен 
 
Размер  236.5 МБ
Приватный: Нет (DHT включён)
.torrent скачан  0
 


     Отправить личное сообщение
   
Страница 1 из 1
Показать сообщения за:  Поле сортировки  
Начать новую тему Ответить на тему


Сейчас этот форум просматривают: нет зарегистрированных пользователей и гости: 0


Вы не можете начинать темы
Вы не можете отвечать на сообщения
Вы не можете редактировать свои сообщения
Вы не можете удалять свои сообщения
Вы не можете добавлять вложения

Перейти:  
cron