Начать новую тему Ответить на тему
Статистика раздачи
Размер: 300.25 МБ | Добавлен: 26 мар 2019, 18:55 | Скачали: 0
Сидеров: 0  [0 байт/сек]    Личеров: 0  [0 байт/сек]
Пред. тема | След. тема 

Автор
Сообщение

СообщениеДобавлено: 26 мар 2019, 18:55 

Ответить с цитатой 

Kenny Herbert - The Last Song In Abbey Road
Жанр: Pop-Rock
Носитель: CD
Год издания: 2002
Издатель (лейбл): Real Live Music Records
Номер по каталогу: 3343
Страна исполнителя (группы): UK
Аудиокодек: FLAC (*.flac)
Тип рипа: image+.cue
Битрейт аудио: lossless
Продолжительность: 44:58
Rip by Erik
Наличие сканов в содержимом раздачи: да
Треклист:
01. Amazin Eyes (2:59)
02. Free Love (3:53)
03. Tellin Me Lies (2:43)
04. Childhood Days (4:15)
05. Why Don't You Listen (5:09)
06. Money Tree (5:00)
07. Live The Life (4:24)
08. I Don't Know Why (5:37)
09. Say The Word (3:05)
10. Siver Star (3:47)
11. Live The Life (acoustic) (4:05)
Альбом "Last Song in Abbey Road" записывался на легендарной Abbey Road Studio 2 - лучшей из студий, на которых когда-либо работал Kenny Herbert, и эти дни он запомнил на всю свою жизнь.
Как впоследствии вспоминал Кенни, деловая атмосфера и естественная акустика в этой студии намного превосходили то, что он встречал в других звукозаписывающих компаниях. Всё, что сделали Fab Four для осуществления студийных записей в специально оборудованных помещениях Abbey Road, было уникальным, непревзойдённым экспериментом.
В записи многих треков для альбома Кенни Герберта приняли участие такие мастера, как David Paton, сыгравший на бас-гитаре (он и прежде работал на Abbey Road, ещё в 70-х годах), и Alan Parsons, один из лучших инженеров студии.
На альбоме "Last Song in Abbey Road" Кенни даже спел "January", написанную Аланом Парсонсом. После окончания записи своего альбома Кенни Герберт отправился работать с Маккой (Полом Маккартни) над "Mull of Kintyre", а затем на 8 лет - с Элтоном Джоном. В своих воспоминаниях о процессе подготовки "Last Song in Abbey Road" он утверждает, что старался не подражать Тhe Beatles (что, впрочем, невозможно), но тем не менее находился под обаянием великих мелодий 60-х. Для восьмого трека "Last Song in Abbey Road", который называется "I don't know why", он нанял музыкантов одного из лучших лондонских струнных оркестров.
Интересны следующие строки из воспоминаний Кенни: "На сайте клуба "Cavern" можно видеть фотографию статуи Тhe Beatles и надпись, гласящую: "четыре парня, потрясшие мир, John, Paul, George и Ringo". The Beatles имели, и оно всегда будет непревзойдённым, величайшее музыкальное влияние на меня и других парней в течение всей нашей жизни. После окончания работы в Studio 2, Abbey Road мы посетили Ливерпуль, где дали "живой" концерт в одном из служебных помещений бара "White Star", что расположен на знаменитой извилистой дороге, называемой Mathew Street. "White Star" - это старинное, очень гостеприимное заведение, где Тhe Beatles сочиняли свои песни и где даже сегодня можно ощутить особую атмосферу, дух того Ливерпуля, то, каким он был в те времена. Мы можем только надеяться, что такие места, как это, останутся неизменными настолько долго, насколько это возможно. Живой музыки Мерси, что когда-то громко неслась из клуба "Cavern" больше нет, но одно можно сказать наверняка... эти песни и мелодии будут слушать и будут наслаждаться ими вечно".
В наши дни Кенни Робертс продолжает выступать с живыми концертами, в том числе его неизменно можно видеть на "World Beatle Convention", организуемом BBC Merseyside в Ливерпуле. Это мероприятие ежегодно проходит в последнюю неделю августа с участием групп со всего мира. Кенни его не пропускает.Источник
[/spoiler]
 
Код:
Exact Audio Copy V1.0 beta 4 from 7. December 2014
Отчёт EAC об извлечении, выполненном 24. марта 2015, 19:38
Kenny Herbert / The Last Song in Abbey Road
Дисковод: ASUS    DRW-24F1ST   a   Adapter: 1  ID: 0
Режим чтения                 : Достоверность
Использование точного потока : Да
Отключение кэша аудио        : Да
Использование указателей C2  : Нет
Коррекция смещения при чтении                     : 6
Способность читать области Lead-in и Lead-out     : Нет
Заполнение пропущенных сэмплов тишиной            : Да
Удаление блоков с тишиной в начале и конце        : Нет
При вычислениях CRC использовались нулевые сэмплы : Да
Интерфейс                                         : Встроенный Win32-интерфейс для Win NT/2000
Выходной формат          : Пользовательский кодировщик
Выбранный битрейт        : 128 kBit/s
Качество                 : Высокий
Добавление ID3-тега      : Нет
Утилита сжатия           : C:\Program Files\Exact Audio Copy\Flac\flac.exe
Дополнительные параметры :  -V -8 -T "Date=%year%" -T "Genre=%genre%" %source%
TOC извлечённого CD
     Трек |   Старт  | Длительность | Начальный сектор | Конечный сектор
    ---------------------------------------------------------------------
       1  |  0:00.00 |    2:58.69   |           0      |      13418
       2  |  2:58.69 |    3:52.57   |       13419      |      30875
       3  |  6:51.51 |    2:42.61   |       30876      |      43086
       4  |  9:34.37 |    4:15.31   |       43087      |      62242
       5  | 13:49.68 |    5:08.47   |       62243      |      85389
       6  | 18:58.40 |    5:00.36   |       85390      |     107925
       7  | 23:59.01 |    4:24.21   |      107926      |     127746
       8  | 28:23.22 |    5:37.30   |      127747      |     153051
       9  | 34:00.52 |    3:05.34   |      153052      |     166960
      10  | 37:06.11 |    3:46.41   |      166961      |     183951
      11  | 40:52.52 |    4:05.05   |      183952      |     202331
Характеристики диапазона извлечения и сообщения об ошибках
Выбранный диапазон
     Имя файла C:\Users\Erik\Desktop\herb\Kenny Herbert - The Last Song in Abbey Road.wav
     Пиковый уровень 100.0 %
     Скорость извлечения 6.4 X
     Качество диапазона 100.0 %
     CRC теста 47385354
     CRC копии 47385354
     Копирование... OK
Ошибок не произошло
AccurateRip: сводка
Трек  1  отсутствует в базе данных
Трек  2  отсутствует в базе данных
Трек  3  отсутствует в базе данных
Трек  4  отсутствует в базе данных
Трек  5  отсутствует в базе данных
Трек  6  отсутствует в базе данных
Трек  7  отсутствует в базе данных
Трек  8  отсутствует в базе данных
Трек  9  отсутствует в базе данных
Трек 10  отсутствует в базе данных
Трек 11  отсутствует в базе данных
Ни одного трека нет в базе AccurateRip
Конец отчёта
---- CUETools DB Plugin V2.1.4
[CTDB TOCID: Bm.TVOmJ1XKByjm23uyRHfQwelA-] found
Submit result: Bm.TVOmJ1XKByjm23uyRHfQwelA- has been confirmed
Track | CTDB Status
  1   | (3/3) Accurately ripped
  2   | (3/3) Accurately ripped
  3   | (3/3) Accurately ripped
  4   | (3/3) Accurately ripped
  5   | (3/3) Accurately ripped
  6   | (3/3) Accurately ripped
  7   | (3/3) Accurately ripped
  8   | (3/3) Accurately ripped
  9   | (3/3) Accurately ripped
 10   | (3/3) Accurately ripped
 11   | (3/3) Accurately ripped
Код:
REM GENRE Pop
REM DATE 2002
REM DISCID 730A890B
REM COMMENT "ExactAudioCopy v1.0b4"
PERFORMER "Kenny Herbert"
TITLE "The Last Song In Abbey Road"
FILE "Kenny Herbert - The Last Song In Abbey Road.flac" WAVE
  TRACK 01 AUDIO
    TITLE "Amazin Eyes"
    PERFORMER "Kenny Herbert"
    INDEX 01 00:00:00
  TRACK 02 AUDIO
    TITLE "Free Love"
    PERFORMER "Kenny Herbert"
    INDEX 00 02:57:69
    INDEX 01 02:58:69
  TRACK 03 AUDIO
    TITLE "Tellin Me Lies"
    PERFORMER "Kenny Herbert"
    INDEX 00 06:50:51
    INDEX 01 06:51:51
  TRACK 04 AUDIO
    TITLE "Childhood Days"
    PERFORMER "Kenny Herbert"
    INDEX 00 09:33:37
    INDEX 01 09:34:37
  TRACK 05 AUDIO
    TITLE "Why Don't You Listen"
    PERFORMER "Kenny Herbert"
    INDEX 00 13:48:68
    INDEX 01 13:49:68
  TRACK 06 AUDIO
    TITLE "Money Tree"
    PERFORMER "Kenny Herbert"
    INDEX 00 18:57:40
    INDEX 01 18:58:40
  TRACK 07 AUDIO
    TITLE "Live The Life"
    PERFORMER "Kenny Herbert"
    INDEX 00 23:58:01
    INDEX 01 23:59:01
  TRACK 08 AUDIO
    TITLE "I Don't Know Why"
    PERFORMER "Kenny Herbert"
    INDEX 00 28:22:22
    INDEX 01 28:23:22
  TRACK 09 AUDIO
    TITLE "Say The Word"
    PERFORMER "Kenny Herbert"
    INDEX 00 33:59:52
    INDEX 01 34:00:52
  TRACK 10 AUDIO
    TITLE "Siver Star"
    PERFORMER "Kenny Herbert"
    INDEX 00 37:05:11
    INDEX 01 37:06:11
  TRACK 11 AUDIO
    TITLE "Live The Life (acoustic)"
    PERFORMER "Kenny Herbert"
    INDEX 00 40:51:52
    INDEX 01 40:52:52
Код:
[CUETools log; Date: 07.07.2015 15:01:14; Version: 2.0.9]
[CTDB TOCID: Bm.TVOmJ1XKByjm23uyRHfQwelA-] found.
        [ CTDBID ] Status
        [357f6b0e] (4/4) Accurately ripped
[AccurateRip ID: 0011f599-009e8f42-730a890b] disk not present in database.
Track Peak [ CRC32  ] [W/O NULL] [  LOG   ]
 --  100,0 [47385354] [0F0BB70F]   CRC32
 01   97,9 [55DC44DD] [E85F441F]
 02   97,6 [A4146067] [9AFA5969]
 03   92,5 [A9C6959E] [4C1A7DEF]
 04   93,9 [640C497B] [F7C9E30C]
 05  100,0 [A1E45000] [C6C4C5CA]
 06   95,5 [43008AE9] [B271572F]
 07   92,1 [FC66C361] [B965F8EB]
 08   94,6 [525545E3] [3A28DA1F]
 09   74,3 [EBC00FF6] [18861EDE]
 10   90,4 [4FD1D715] [6929707D]
 11   95,6 [8C67016A] [6BA895CF]
Правила, инструкции, FAQ!!!
Торрент  Добавлен [26 мар 2019, 18:55] Скачать торрент Магнет ссылка
Скачать торрент
[ Размер 13.12 КБ / Просмотров 0 ]

Статус
Проверен 
 
Размер  300.25 МБ
Приватный: Нет (DHT включён)
.torrent скачан  0
 


     Отправить личное сообщение
   
Страница 1 из 1
Показать сообщения за:  Поле сортировки  
Начать новую тему Ответить на тему


Сейчас этот форум просматривают: нет зарегистрированных пользователей и гости: 0


Вы не можете начинать темы
Вы не можете отвечать на сообщения
Вы не можете редактировать свои сообщения
Вы не можете удалять свои сообщения
Вы не можете добавлять вложения

Перейти:  
cron