Начать новую тему Ответить на тему
Статистика раздачи
Размер: 3.91 ГБ | Добавлен: 26 мар 2019, 18:41 | Скачали: 0
Сидеров: 0  [0 байт/сек]    Личеров: 0  [0 байт/сек]
Пред. тема | След. тема 

Автор
Сообщение

СообщениеДобавлено: 26 мар 2019, 18:41 

Ответить с цитатой 

Keimzeit / 11 Albums
Жанр: Pop-rock
Страна-производитель диска: Germany
Год издания: 1990-2012
Издатель (лейбл): Smd Pre (Sony Music)
Страна: Germany
Аудиокодек: FLAC (*.flac)
Тип рипа: image+.cue
Битрейт аудио: lossless
Источник (релизер): мой рип
Наличие сканов в содержимом раздачи: нет
#777Треклист:
Keimzeit - "Kolumbus" (2012)
Tracks: 12
Total time: 38:05
Year: 2012
Disc-ID: folk / 9b08f20c
1. Kolumbus 5:35
2. Nachtzug nach Sofia 3:14
3. Du verstehstt mich nicht 3:23
4. Das gute Beispiel 3:31
5. Schlangenherz 1 1:34
6. Streik 3:13
7. Kein zurück 2:10
8. Kettenhund 4:18
9. Einmalig 2:22
10. Mitten in Fluss 3:39
11. Schlangenherz 2 1:04
12. Aquarium 4:02
Код:
Exact Audio Copy V1.0 beta 3 from 29. August 2011
EAC extraction logfile from 27. November 2012, 17:12
Keimzeit / Kolumbus
Used drive  : PLEXTOR DVDR   PX-712A   Adapter: 1  ID: 0
Read mode               : Secure
Utilize accurate stream : Yes
Defeat audio cache      : Yes
Make use of C2 pointers : No
Read offset correction                      : 30
Overread into Lead-In and Lead-Out          : No
Fill up missing offset samples with silence : Yes
Delete leading and trailing silent blocks   : No
Null samples used in CRC calculations       : Yes
Used interface                              : Native Win32 interface for Win NT & 2000
Used output format : Internal WAV Routines
Sample format      : 44.100 Hz; 16 Bit; Stereo
TOC of the extracted CD
     Track |   Start  |  Length  | Start sector | End sector
    ---------------------------------------------------------
        1  |  0:00.00 |  5:35.61 |         0    |    25185
        2  |  5:35.61 |  3:14.73 |     25186    |    39808
        3  |  8:50.59 |  3:23.09 |     39809    |    55042
        4  | 12:13.68 |  3:31.59 |     55043    |    70926
        5  | 15:45.52 |  1:34.31 |     70927    |    78007
        6  | 17:20.08 |  3:13.18 |     78008    |    92500
        7  | 20:33.26 |  2:10.18 |     92501    |   102268
        8  | 22:43.44 |  4:18.21 |    102269    |   121639
        9  | 27:01.65 |  2:22.23 |    121640    |   132312
       10  | 29:24.13 |  3:39.39 |    132313    |   148776
       11  | 33:03.52 |  1:04.45 |    148777    |   153621
       12  | 34:08.22 |  4:02.15 |    153622    |   171786
Range status and errors
Selected range
     Filename H:\Razdachi\Keimzeit\Keimzeit - Kolumbus.wav
     Peak level 99.9 %
     Extraction speed 11.3 X
     Range quality 99.9 %
     Test CRC AE3DFB90
     Copy CRC AE3DFB90
     Copy OK
No errors occurred
AccurateRip summary
Track  1  not present in database
Track  2  not present in database
Track  3  not present in database
Track  4  not present in database
Track  5  not present in database
Track  6  not present in database
Track  7  not present in database
Track  8  not present in database
Track  9  not present in database
Track 10  not present in database
Track 11  not present in database
Track 12  not present in database
None of the tracks are present in the AccurateRip database
End of status report
==== Log checksum 0F1C47B37E9C53361CC6E5F28ECBB6D9926BD605AF1849281857C90E19485904 ====
Код:
-----------------------
DON'T MODIFY THIS FILE
-----------------------
PERFORMER: auCDtect Task Manager, ver. 1.5.1RC6 build 1.5.1.7
Copyright (c) 2008-2010 y-soft. All rights reserved
[url=http://y-soft.org]http://y-soft.org[/url]
ANALYZER: auCDtect: CD records authenticity detector, version 0.8.2
Copyright (c) 2004 Oleg Berngardt. All rights reserved.
Copyright (c) 2004 Alexander Djourik. All rights reserved.
FILE: Keimzeit - Kolumbus.flac
  Size: 234884356 Hash: 28659EFB2C167707B96FBB016B233D69 Accuracy: -m0
  Conclusion: CDDA 100%
  Signature: B1CA2425FB7DEFAB34F261FF1BF99BF04B66ACE8
[CUETools log; Date: 29.11.2012 16:03:21; Version: 2.1.4]
[CTDB TOCID: x.9Z8b4wlndNnJoqx2QKy2QNYqE-] found.
Track | CTDB Status
  1   | (6/6) Accurately ripped
  2   | (6/6) Accurately ripped
  3   | (6/6) Accurately ripped
  4   | (6/6) Accurately ripped
  5   | (6/6) Accurately ripped
  6   | (6/6) Accurately ripped
  7   | (6/6) Accurately ripped
  8   | (6/6) Accurately ripped
  9   | (6/6) Accurately ripped
 10   | (6/6) Accurately ripped
 11   | (6/6) Accurately ripped
 12   | (6/6) Accurately ripped
[AccurateRip ID: 00122fca-00a4f066-9b08f20c] disk not present in database.
Track Peak [ CRC32  ] [W/O NULL] [  LOG   ]
 --   99,9 [AE3DFB90] [0C0A446C]   CRC32
 01   99,9 [9A1BB75F] [20767511]
 02   99,9 [DB122BE7] [D4C65A8F]
 03   99,9 [52E63299] [B7856931]
 04   99,9 [B41B6822] [EB5B8558]
 05   90,9 [85613601] [4CFCF652]
 06   99,9 [7E3384DF] [8E215E5A]
 07   99,8 [D239DCB6] [3EDA428F]
 08   99,9 [8A0F3026] [8FD51597]
 09   99,9 [2287B763] [21C77419]
 10   99,9 [A420F9D5] [D29C4A0A]
 11   95,1 [A29CE1A8] [EA83506C]
 12   99,9 [F838FDEC] [56CC5BAA]
#777Треклист:
Keimzeit - "Stabile Währung Liebe" (2009)
Tracks: 11
Total time: 37:19
Year: 2009
Disc-ID: newage / 9508c40b
1. Dieses Mal 2:32
2. Seltsamer Vogel 3:02
3. Tokio Skyline 3:53
4. Oh-Oh-Oh 3:08
5. Das Urteil 3:02
6. Valentinstagsblumen 3:47
7. Für Dich 3:00
8. Kind im Schlaf 4:50
9. Was 3:22
10. Wer du wohl bist 3:39
11. Was ich im Wasser sah 3:04
Код:
Exact Audio Copy V1.0 beta 3 from 29. August 2011
EAC extraction logfile from 16. November 2012, 14:09
Keimzeit / Stabile Währung Liebe
Used drive  : PLEXTOR DVDR   PX-712A   Adapter: 1  ID: 0
Read mode               : Secure
Utilize accurate stream : Yes
Defeat audio cache      : Yes
Make use of C2 pointers : No
Read offset correction                      : 30
Overread into Lead-In and Lead-Out          : No
Fill up missing offset samples with silence : Yes
Delete leading and trailing silent blocks   : No
Null samples used in CRC calculations       : Yes
Used interface                              : Native Win32 interface for Win NT & 2000
Used output format : Internal WAV Routines
Sample format      : 44.100 Hz; 16 Bit; Stereo
TOC of the extracted CD
     Track |   Start  |  Length  | Start sector | End sector
    ---------------------------------------------------------
        1  |  0:00.00 |  2:32.30 |         0    |    11429
        2  |  2:32.30 |  3:02.56 |     11430    |    25135
        3  |  5:35.11 |  3:53.52 |     25136    |    42662
        4  |  9:28.63 |  3:08.14 |     42663    |    56776
        5  | 12:37.02 |  3:02.27 |     56777    |    70453
        6  | 15:39.29 |  3:47.44 |     70454    |    87522
        7  | 19:26.73 |  3:00.23 |     87523    |   101045
        8  | 22:27.21 |  4:50.29 |    101046    |   122824
        9  | 27:17.50 |  3:22.67 |    122825    |   138041
       10  | 30:40.42 |  3:39.57 |    138042    |   154523
       11  | 34:20.24 |  3:03.68 |    154524    |   168316
Range status and errors
Selected range
     Filename H:\Razdachi\Keimzeit\Keimzeit - Stabile Waehrung Liebe.wav
     Peak level 99.9 %
     Extraction speed 11.3 X
     Range quality 100.0 %
     Test CRC A110A53D
     Copy CRC A110A53D
     Copy OK
No errors occurred
AccurateRip summary
Track  1  accurately ripped (confidence 6)  [646C031E]  (AR v1)
Track  2  accurately ripped (confidence 6)  [25904ADD]  (AR v1)
Track  3  accurately ripped (confidence 6)  [C3C95DB0]  (AR v1)
Track  4  accurately ripped (confidence 6)  [328CBD00]  (AR v1)
Track  5  accurately ripped (confidence 6)  [1DC2EE3B]  (AR v1)
Track  6  accurately ripped (confidence 6)  [42316355]  (AR v1)
Track  7  accurately ripped (confidence 6)  [D3909513]  (AR v1)
Track  8  accurately ripped (confidence 6)  [B5F80CCB]  (AR v1)
Track  9  accurately ripped (confidence 6)  [2FA17682]  (AR v1)
Track 10  accurately ripped (confidence 6)  [568A5EF7]  (AR v1)
Track 11  accurately ripped (confidence 6)  [3C00E753]  (AR v1)
All tracks accurately ripped
End of status report
==== Log checksum 7B49FF8EB425E0A7B1490374BD64F485646AD84490E22B8B5465BE9ADCB9BCB3 ====
Код:
-----------------------
DON'T MODIFY THIS FILE
-----------------------
PERFORMER: auCDtect Task Manager, ver. 1.5.1RC6 build 1.5.1.7
Copyright (c) 2008-2010 y-soft. All rights reserved
[url=http://y-soft.org]http://y-soft.org[/url]
ANALYZER: auCDtect: CD records authenticity detector, version 0.8.2
Copyright (c) 2004 Oleg Berngardt. All rights reserved.
Copyright (c) 2004 Alexander Djourik. All rights reserved.
FILE: Keimzeit - Stabile Waehrung Liebe.flac
  Size: 253812542 Hash: B73415DE5F14B8550565FBDBD3AF8A2A Accuracy: -m0
  Conclusion: CDDA 99%
  Signature: 384FC3179DCE12C0FA6A3F6D6782A048A593F89F
[CUETools log; Date: 29.11.2012 16:02:00; Version: 2.1.4]
[CTDB TOCID: Z0r5ge03zoY0O9.cquVD01TA4kA-] disk not present in database.
[AccurateRip ID: 000eef31-00834174-9508c40b] found.
Track   [  CRC   |   V2   ] Status
 01     [646c031e|fe330f4d] (6+0/6) Accurately ripped
 02     [25904add|1e6b9750] (6+0/6) Accurately ripped
 03     [c3c95db0|75e789e4] (6+0/6) Accurately ripped
 04     [328cbd00|6ac09dc3] (6+0/6) Accurately ripped
 05     [1dc2ee3b|e911dd56] (6+0/6) Accurately ripped
 06     [42316355|66be6c57] (6+0/6) Accurately ripped
 07     [d3909513|a266a3be] (6+0/6) Accurately ripped
 08     [b5f80ccb|72d335bc] (6+0/6) Accurately ripped
 09     [2fa17682|6f8d321a] (6+0/6) Accurately ripped
 10     [568a5ef7|ce9f721f] (6+0/6) Accurately ripped
 11     [3c00e753|85f359dc] (6+0/6) Accurately ripped
Track Peak [ CRC32  ] [W/O NULL] [  LOG   ]
 --   99,9 [A110A53D] [F8C6FDB5]   CRC32
 01   99,9 [47F4D18F] [6014C2B6]
 02   99,9 [2A1399F7] [C4B730CB]
 03   99,9 [95A4AA80] [C1E2CE21]
 04   99,9 [88682C7E] [6C56DF73]
 05   99,9 [2116492E] [2936FF05]
 06   99,9 [744BDAD3] [6ECCCA2E]
 07   99,9 [576F2DB4] [9A6837F0]
 08   99,9 [728247DE] [E4B63201]
 09   99,9 [20D1C6B3] [994CEC08]
 10   99,9 [41FF1DC8] [97431341]
 11   99,9 [A2A06C5D] [71DCFBF6]
#777Треклист:
Keimzeit - "1000 Leute wie ich" (2002)
Tracks: 12
Total time: 43:11
Year: 2002
Disc-ID: folk / a20a240c
1. Leute 3:25
2. Blond 2:51
3. Karawane 4:39
4. Am Rande 3:15
5. Planetenseite 4:00
6. Für den kommenden Sommer 2:30
7. Superman 3:56
8. 2002 3:34
9. Fliesst mein Blut 4:05
10. Minuten 2:58
11. Suizid-immun 2:50
12. Frischer weisser Schnee 5:08
Код:
Exact Audio Copy V1.0 beta 3 from 29. August 2011
EAC extraction logfile from 30. November 2012, 13:45
Keimzeit / 1000 Leute wie ich
Used drive  : PLEXTOR DVDR   PX-712A   Adapter: 2  ID: 1
Read mode               : Secure
Utilize accurate stream : Yes
Defeat audio cache      : Yes
Make use of C2 pointers : No
Read offset correction                      : 30
Overread into Lead-In and Lead-Out          : No
Fill up missing offset samples with silence : Yes
Delete leading and trailing silent blocks   : No
Null samples used in CRC calculations       : Yes
Used interface                              : Native Win32 interface for Win NT & 2000
Used output format : Internal WAV Routines
Sample format      : 44.100 Hz; 16 Bit; Stereo
TOC of the extracted CD
     Track |   Start  |  Length  | Start sector | End sector
    ---------------------------------------------------------
        1  |  0:00.00 |  3:25.05 |         0    |    15379
        2  |  3:25.05 |  2:51.39 |     15380    |    28243
        3  |  6:16.44 |  4:39.14 |     28244    |    49182
        4  | 10:55.58 |  3:15.65 |     49183    |    63872
        5  | 14:11.48 |  4:00.61 |     63873    |    81933
        6  | 18:12.34 |  2:30.06 |     81934    |    93189
        7  | 20:42.40 |  3:56.08 |     93190    |   110897
        8  | 24:38.48 |  3:34.29 |    110898    |   126976
        9  | 28:13.02 |  4:05.58 |    126977    |   145409
       10  | 32:18.60 |  2:58.53 |    145410    |   158812
       11  | 35:17.38 |  2:50.46 |    158813    |   171608
       12  | 38:08.09 |  5:08.22 |    171609    |   194730
Range status and errors
Selected range
     Filename C:\Lernen\Keimzeit - 1000 Leute wie ich.wav
     Peak level 99.7 %
     Extraction speed 11.7 X
     Range quality 100.0 %
     Test CRC 6A25B3D5
     Copy CRC 6A25B3D5
     Copy OK
No errors occurred
AccurateRip summary
Track  1  accurately ripped (confidence 6)  [887FF267]  (AR v1)
Track  2  accurately ripped (confidence 7)  [81D934C2]  (AR v1)
Track  3  accurately ripped (confidence 7)  [5C305BD5]  (AR v1)
Track  4  accurately ripped (confidence 7)  [D023DEA6]  (AR v1)
Track  5  accurately ripped (confidence 7)  [8B451DD9]  (AR v1)
Track  6  accurately ripped (confidence 7)  [571ECE76]  (AR v1)
Track  7  accurately ripped (confidence 7)  [5CFC6A5E]  (AR v1)
Track  8  accurately ripped (confidence 7)  [A7CEF9F4]  (AR v1)
Track  9  accurately ripped (confidence 7)  [C98E91CB]  (AR v1)
Track 10  accurately ripped (confidence 6)  [BE0E623B]  (AR v1)
Track 11  accurately ripped (confidence 7)  [FD98EB98]  (AR v1)
Track 12  accurately ripped (confidence 7)  [25A174CC]  (AR v1)
All tracks accurately ripped
End of status report
==== Log checksum B7B99194783FCDBE0B1D36F4094514B97B494FAAC12EAEEF21C99900095149F4 ====
Код:
-----------------------
DON'T MODIFY THIS FILE
-----------------------
PERFORMER: auCDtect Task Manager, ver. 1.5.1RC6 build 1.5.1.7
Copyright (c) 2008-2010 y-soft. All rights reserved
[url=http://y-soft.org]http://y-soft.org[/url]
ANALYZER: auCDtect: CD records authenticity detector, version 0.8.2
Copyright (c) 2004 Oleg Berngardt. All rights reserved.
Copyright (c) 2004 Alexander Djourik. All rights reserved.
FILE: Keimzeit - 1000 Leute wie ich.flac
  Size: 293631699 Hash: 649BD61DE50A1D4576A047702F3F8BB8 Accuracy: -m0
  Conclusion: CDDA 100%
  Signature: 82E2FC846B35C494ADE4F6B7ACFC1CD34B028921
[CUETools log; Date: 01.12.2012 20:02:07; Version: 2.1.4]
[CTDB TOCID: 2IJQJNA2OMzBGiCHyk6AZGmnbjA-] found.
Track | CTDB Status
  1   | (3/3) Accurately ripped
  2   | (3/3) Accurately ripped
  3   | (3/3) Accurately ripped
  4   | (3/3) Accurately ripped
  5   | (3/3) Accurately ripped
  6   | (3/3) Accurately ripped
  7   | (3/3) Accurately ripped
  8   | (3/3) Accurately ripped
  9   | (3/3) Accurately ripped
 10   | (3/3) Accurately ripped
 11   | (3/3) Accurately ripped
 12   | (3/3) Accurately ripped
[AccurateRip ID: 0012ecb2-00b0f62b-a20a240c] found.
Track   [  CRC   |   V2   ] Status
 01     [887ff267|fc2acdd9] (6+0/6) Accurately ripped
 02     [81d934c2|c58410dd] (7+0/7) Accurately ripped
 03     [5c305bd5|4f9d40f4] (7+0/7) Accurately ripped
 04     [d023dea6|a3d45f91] (7+0/7) Accurately ripped
 05     [8b451dd9|76d64c06] (7+0/7) Accurately ripped
 06     [571ece76|56b6b9b8] (7+0/7) Accurately ripped
 07     [5cfc6a5e|b6cbd699] (7+0/7) Accurately ripped
 08     [a7cef9f4|85ce2cd4] (7+0/7) Accurately ripped
 09     [c98e91cb|7070e092] (7+0/7) Accurately ripped
 10     [be0e623b|9097c283] (6+0/6) Accurately ripped
 11     [fd98eb98|3f851bf5] (7+0/7) Accurately ripped
 12     [25a174cc|4cab6684] (7+0/7) Accurately ripped
Track Peak [ CRC32  ] [W/O NULL] [  LOG   ]
 --   99,7 [6A25B3D5] [A3E700E8]   CRC32
 01   97,9 [58BAE9D7] [FF4BF8D2]
 02   99,5 [7EA81DA8] [B673C05E]
 03   97,9 [CC73D513] [DABC7A86]
 04   97,9 [D1E955A3] [AFBF3728]
 05   97,9 [A9CAC382] [B99CC981]
 06   87,2 [5F52918B] [F7AABF19]
 07   97,9 [0601AE6E] [E4DF0D81]
 08   99,1 [DC23A7B1] [57CF4255]
 09   99,7 [D1E5C3B2] [BA1C8855]
 10   97,5 [B14D3130] [3D32A17D]
 11   97,9 [B4F0C596] [9AA6D167]
 12   93,9 [C72AD9C7] [3EFCC9F3]
#777Треклист:
Keimzeit - "Im elektromagnetischen Feld" (1998)
Tracks: 12
Total time: 46:06
Year: 1998
Disc-ID: misc / 9b0ad40c
1. Gebt der Avantgarde das Licht 2:10
2. Comic-Helden 4:14
3. Erzähl mir von dir 3:44
4. Getrennte Wege 4:02
5. Salute 3:25
6. Всего хорошего (B.H.) 3:48
7. Verliebt 4:10
8. Halbmenschen 3:45
9. Gestern 5:05
10. Das Projektil 3:54
11. Ich kapituliere 5:50
12. Reprise 1:59
Код:
Exact Audio Copy V1.0 beta 3 from 29. August 2011
EAC extraction logfile from 29. November 2012, 14:29
Keimzeit / Im elektromagnetischen Feld
Used drive  : PLEXTOR DVDR   PX-712A   Adapter: 2  ID: 1
Read mode               : Secure
Utilize accurate stream : Yes
Defeat audio cache      : Yes
Make use of C2 pointers : No
Read offset correction                      : 30
Overread into Lead-In and Lead-Out          : No
Fill up missing offset samples with silence : Yes
Delete leading and trailing silent blocks   : No
Null samples used in CRC calculations       : Yes
Used interface                              : Native Win32 interface for Win NT & 2000
Used output format : Internal WAV Routines
Sample format      : 44.100 Hz; 16 Bit; Stereo
TOC of the extracted CD
     Track |   Start  |  Length  | Start sector | End sector
    ---------------------------------------------------------
        1  |  0:00.00 |  2:10.32 |         0    |     9781
        2  |  2:10.32 |  4:14.70 |      9782    |    28901
        3  |  6:25.27 |  3:44.18 |     28902    |    45719
        4  | 10:09.45 |  4:02.45 |     45720    |    63914
        5  | 14:12.15 |  3:25.32 |     63915    |    79321
        6  | 17:37.47 |  3:48.15 |     79322    |    96436
        7  | 21:25.62 |  4:10.58 |     96437    |   115244
        8  | 25:36.45 |  3:45.70 |    115245    |   132189
        9  | 29:22.40 |  5:05.65 |    132190    |   155129
       10  | 34:28.30 |  3:54.10 |    155130    |   172689
       11  | 38:22.40 |  5:50.47 |    172690    |   198986
       12  | 44:13.12 |  1:59.13 |    198987    |   207924
Range status and errors
Selected range
     Filename C:\Lernen\Keimzeit - Im elektromagnetischen Feld.wav
     Peak level 95.6 %
     Extraction speed 11.8 X
     Range quality 100.0 %
     Test CRC F8EF8750
     Copy CRC F8EF8750
     Copy OK
No errors occurred
AccurateRip summary
Track  1  accurately ripped (confidence 13)  [F0B25C9D]  (AR v1)
Track  2  accurately ripped (confidence 12)  [F865874C]  (AR v1)
Track  3  accurately ripped (confidence 13)  [C8ACA46C]  (AR v1)
Track  4  accurately ripped (confidence 12)  [20006A8B]  (AR v1)
Track  5  accurately ripped (confidence 13)  [0801CB75]  (AR v1)
Track  6  accurately ripped (confidence 13)  [FD39950E]  (AR v1)
Track  7  accurately ripped (confidence 13)  [09B9EB1B]  (AR v1)
Track  8  accurately ripped (confidence 13)  [61B8D254]  (AR v1)
Track  9  accurately ripped (confidence 12)  [CE947ECA]  (AR v1)
Track 10  accurately ripped (confidence 13)  [68F7740A]  (AR v1)
Track 11  accurately ripped (confidence 13)  [4445B59B]  (AR v1)
Track 12  accurately ripped (confidence 12)  [D423C91B]  (AR v1)
All tracks accurately ripped
End of status report
==== Log checksum 4D41FEF887BF66700CDAB8FD4C25C614145B4D82E3943ED3BEB7DC94AFA7B4AD ====
Код:
-----------------------
DON'T MODIFY THIS FILE
-----------------------
PERFORMER: auCDtect Task Manager, ver. 1.5.1RC6 build 1.5.1.7
Copyright (c) 2008-2010 y-soft. All rights reserved
[url=http://y-soft.org]http://y-soft.org[/url]
ANALYZER: auCDtect: CD records authenticity detector, version 0.8.2
Copyright (c) 2004 Oleg Berngardt. All rights reserved.
Copyright (c) 2004 Alexander Djourik. All rights reserved.
FILE: Keimzeit - Im elektromagnetischen Feld.flac
  Size: 302747676 Hash: F60D369E362C91AD3204F277E71A6C4E Accuracy: -m0
  Conclusion: CDDA 100%
  Signature: 86D983794CE09E1EDF66AB08652EAF9CD05EDBE4
[CUETools log; Date: 29.11.2012 15:59:29; Version: 2.1.4]
[CTDB TOCID: vQcf4J6pDO_sR3BP81gvqyQ1bro-] found.
Track | CTDB Status
  1   | (4/4) Accurately ripped
  2   | (4/4) Accurately ripped
  3   | (4/4) Accurately ripped
  4   | (4/4) Accurately ripped
  5   | (4/4) Accurately ripped
  6   | (4/4) Accurately ripped
  7   | (4/4) Accurately ripped
  8   | (4/4) Accurately ripped
  9   | (4/4) Accurately ripped
 10   | (4/4) Accurately ripped
 11   | (4/4) Accurately ripped
 12   | (4/4) Accurately ripped
[AccurateRip ID: 0013ee85-00bd68da-9b0ad40c] found.
Track   [  CRC   |   V2   ] Status
 01     [f0b25c9d|843a55f9] (13+00/13) Accurately ripped
 02     [f865874c|c426ca4c] (12+00/12) Accurately ripped
 03     [c8aca46c|aef6fcc7] (13+00/13) Accurately ripped
 04     [20006a8b|e296bb25] (12+00/12) Accurately ripped
 05     [0801cb75|8d8d791f] (13+00/13) Accurately ripped
 06     [fd39950e|7cf5d4f0] (13+00/13) Accurately ripped
 07     [09b9eb1b|6b74b761] (13+00/13) Accurately ripped
 08     [61b8d254|04e018af] (13+00/13) Accurately ripped
 09     [ce947eca|e5dfce8b] (12+00/12) Accurately ripped
 10     [68f7740a|41ddae62] (13+00/13) Accurately ripped
 11     [4445b59b|57d51285] (13+00/13) Accurately ripped
 12     [d423c91b|7133a6ff] (12+00/12) Accurately ripped
Track Peak [ CRC32  ] [W/O NULL] [  LOG   ]
 --   95,6 [F8EF8750] [BE7AABE5]   CRC32
 01   82,3 [37B3709D] [C921ED60]
 02   93,8 [0ED3271D] [9E67C8A3]
 03   95,6 [63589A47] [A4B7DD61]
 04   94,1 [44E06FB7] [BDF7C50D]
 05   95,6 [D7F2AD2C] [01B706A3]
 06   95,4 [7AD72462] [002B8884]
 07   95,6 [96043623] [57CF10E9]
 08   94,5 [B763190B] [36B91A73]
 09   95,2 [E0DFA4FF] [6EA4A7EA]
 10   95,6 [0503D091] [F5B3BE7E]
 11   94,1 [1E93EA83] [551D42F1]
 12   65,2 [8D6CF974] [C97A3739]
#777Треклист:
Keimzeit - "Primeln & Elefanten" (1995)
Tracks: 16
Total time: 53:08
Year: 1995
Disc-ID: rock / cb0c7d10
1. Mit dem Regen 2:31
2. Gott will 3:17
3. Die Achse 2:49
4. ¾ Mond 4:51
5. Windstill 4:29
6. Näher mein Herz 3:05
7. Primeln und Elefanten 2:56
8. Verlorengegangen 4:23
9. Lisa 3:05
10. Urwaldnashorn 1:24
11. Tochter B. 2:31
12. Bergholz - Bergholz 4:10
13. Donau-Angler 4:03
14. 83 2:56
15. Comedy 3:38
16. Schone nicht meine Nerven 3:00
Код:
Exact Audio Copy V1.0 beta 3 from 29. August 2011
EAC extraction logfile from 20. November 2012, 14:29
Keimzeit / Primeln & Elefanten
Used drive  : PLEXTOR DVDR   PX-712A   Adapter: 1  ID: 0
Read mode               : Secure
Utilize accurate stream : Yes
Defeat audio cache      : Yes
Make use of C2 pointers : No
Read offset correction                      : 30
Overread into Lead-In and Lead-Out          : No
Fill up missing offset samples with silence : Yes
Delete leading and trailing silent blocks   : No
Null samples used in CRC calculations       : Yes
Used interface                              : Native Win32 interface for Win NT & 2000
Used output format : Internal WAV Routines
Sample format      : 44.100 Hz; 16 Bit; Stereo
TOC of the extracted CD
     Track |   Start  |  Length  | Start sector | End sector
    ---------------------------------------------------------
        1  |  0:00.30 |  2:31.27 |        30    |    11381
        2  |  2:31.57 |  3:17.74 |     11382    |    26230
        3  |  5:49.56 |  2:49.25 |     26231    |    38930
        4  |  8:39.06 |  4:51.15 |     38931    |    60770
        5  | 13:30.21 |  4:29.40 |     60771    |    80985
        6  | 17:59.61 |  3:05.16 |     80986    |    94876
        7  | 21:05.02 |  2:56.52 |     94877    |   108128
        8  | 24:01.54 |  4:23.45 |    108129    |   127898
        9  | 28:25.24 |  3:05.56 |    127899    |   141829
       10  | 31:31.05 |  1:24.71 |    141830    |   148200
       11  | 32:56.01 |  2:31.73 |    148201    |   159598
       12  | 35:27.74 |  4:10.71 |    159599    |   178419
       13  | 39:38.70 |  4:03.10 |    178420    |   196654
       14  | 43:42.05 |  2:56.73 |    196655    |   209927
       15  | 46:39.03 |  3:38.43 |    209928    |   226320
       16  | 50:17.46 |  2:59.49 |    226321    |   239794
Range status and errors
Selected range
     Filename H:\Razdachi\Keimzeit\Keimzeit - Primeln & Elefanten.wav
     Peak level 99.6 %
     Extraction speed 12.4 X
     Range quality 100.0 %
     Test CRC 2EC00B9F
     Copy CRC 2EC00B9F
     Copy OK
No errors occurred
AccurateRip summary
Track  1  accurately ripped (confidence 3)  [796EA124]  (AR v1)
Track  2  accurately ripped (confidence 3)  [22571129]  (AR v1)
Track  3  accurately ripped (confidence 3)  [C588F70D]  (AR v1)
Track  4  accurately ripped (confidence 3)  [776F480B]  (AR v1)
Track  5  accurately ripped (confidence 3)  [2C1630E4]  (AR v1)
Track  6  accurately ripped (confidence 3)  [26D056B8]  (AR v1)
Track  7  accurately ripped (confidence 3)  [722EB908]  (AR v1)
Track  8  accurately ripped (confidence 3)  [CD76DDCC]  (AR v1)
Track  9  accurately ripped (confidence 3)  [7448CC7E]  (AR v1)
Track 10  accurately ripped (confidence 3)  [E6CE3DD4]  (AR v1)
Track 11  accurately ripped (confidence 3)  [DF790816]  (AR v1)
Track 12  accurately ripped (confidence 3)  [4AAF5E93]  (AR v1)
Track 13  accurately ripped (confidence 3)  [BC98E214]  (AR v1)
Track 14  accurately ripped (confidence 3)  [D277A2D3]  (AR v1)
Track 15  accurately ripped (confidence 3)  [FAC244BF]  (AR v1)
Track 16  accurately ripped (confidence 3)  [17A636AB]  (AR v1)
All tracks accurately ripped
End of status report
==== Log checksum 7C78AD52482E6A00E9706100D58FF7B33C1FDF398DEC49FF4FE78E9194E7A2BD ====
Код:
-----------------------
DON'T MODIFY THIS FILE
-----------------------
PERFORMER: auCDtect Task Manager, ver. 1.5.1RC6 build 1.5.1.7
Copyright (c) 2008-2010 y-soft. All rights reserved
[url=http://y-soft.org]http://y-soft.org[/url]
ANALYZER: auCDtect: CD records authenticity detector, version 0.8.2
Copyright (c) 2004 Oleg Berngardt. All rights reserved.
Copyright (c) 2004 Alexander Djourik. All rights reserved.
FILE: Keimzeit - Primeln & Elefanten.flac
  Size: 351616791 Hash: 5199DEE4F717F28A474BDB643134FA13 Accuracy: -m0
  Conclusion: CDDA 100%
  Signature: 22DBD0CD9EA8872F43A138E4354CC9033A2216E6
[CUETools log; Date: 29.11.2012 15:56:17; Version: 2.1.4]
Pregap length 00:00:30.
[CTDB TOCID: jCStEFMC0POWU_L1ipnwYQWI4n8-] found.
Track | CTDB Status
  1   | (1/1) Accurately ripped
  2   | (1/1) Accurately ripped
  3   | (1/1) Accurately ripped
  4   | (1/1) Accurately ripped
  5   | (1/1) Accurately ripped
  6   | (1/1) Accurately ripped
  7   | (1/1) Accurately ripped
  8   | (0/1) No match
  9   | (0/1) No match
 10   | (1/1) Accurately ripped
 11   | (1/1) Accurately ripped
 12   | (0/1) No match
 13   | (0/1) No match
 14   | (1/1) Accurately ripped
 15   | (0/1) No match
 16   | (0/1) No match
[AccurateRip ID: 001f47c1-01778560-cb0c7d10] found.
Track   [  CRC   |   V2   ] Status
 01     [796ea124|547607da] (03+00/16) Accurately ripped
 02     [22571129|dadad1af] (03+00/16) Accurately ripped
 03     [c588f70d|2bf77f71] (03+00/16) Accurately ripped
 04     [776f480b|a88c50cc] (03+00/16) Accurately ripped
 05     [2c1630e4|1408cf51] (03+00/16) Accurately ripped
 06     [26d056b8|59b010ed] (03+00/16) Accurately ripped
 07     [722eb908|7636c093] (03+00/16) Accurately ripped
 08     [cd76ddcc|7d480c54] (03+00/16) Accurately ripped
 09     [7448cc7e|5011ad33] (03+00/16) Accurately ripped
 10     [e6ce3dd4|95997403] (03+00/15) Accurately ripped
 11     [df790816|31a7ef57] (03+00/15) Accurately ripped
 12     [4aaf5e93|1d1de82b] (03+00/15) Accurately ripped
 13     [bc98e214|bbda1527] (03+00/15) Accurately ripped
 14     [d277a2d3|82bc101a] (03+00/15) Accurately ripped
 15     [fac244bf|1066fcdb] (03+00/15) Accurately ripped
 16     [17a636ab|3fc9ddf9] (03+00/15) Accurately ripped
Offsetted by 187:
 01     [4ee42cb7] (03/16) Accurately ripped
 02     [5549fbea] (03/16) Accurately ripped
 03     [20a6af87] (03/16) Accurately ripped
 04     [73f9f9f0] (03/16) Accurately ripped
 05     [56d1ef77] (03/16) Accurately ripped
 06     [b6f74be9] (03/16) Accurately ripped
 07     [f2fe18bd] (03/16) Accurately ripped
 08     [48c14972] (03/16) Accurately ripped
 09     [6a55a521] (03/16) Accurately ripped
 10     [2090d3c5] (03/15) Accurately ripped
 11     [071f5465] (03/15) Accurately ripped
 12     [317559c8] (03/15) Accurately ripped
 13     [a8d48512] (03/15) Accurately ripped
 14     [0068bae0] (03/15) Accurately ripped
 15     [d2938979] (03/15) Accurately ripped
 16     [9f69b207] (03/15) Accurately ripped
Offsetted by 856:
 01     [583d673c] (08/16) Accurately ripped
 02     [6e20a7b1] (08/16) Accurately ripped
 03     [d2c5b7dd] (08/16) Accurately ripped
 04     [59ea29b3] (08/16) Accurately ripped
 05     [80d00efc] (08/16) Accurately ripped
 06     [8c2178c0] (08/16) Accurately ripped
 07     [997bf130] (08/16) Accurately ripped
 08     [a3ade4c8] (08/16) Accurately ripped
 09     [2175809a] (08/16) Accurately ripped
 10     [d274c5dc] (07/15) Accurately ripped
 11     [3682b20e] (07/15) Accurately ripped
 12     [10189d61] (07/15) Accurately ripped
 13     [6fec43a2] (07/15) Accurately ripped
 14     [01dbc9bb] (07/15) Accurately ripped
 15     [4e37e342] (07/15) Accurately ripped
 16     [30c545f8] (07/15) Accurately ripped
Track Peak [ CRC32  ] [W/O NULL] [  LOG   ]
 --   99,6 [2EC00B9F] [2A9A4256]   CRC32
 01   99,2 [9C96E038] [84BE78A2]
 02   99,6 [AF4A91C2] [87FF5ABE]
 03   98,9 [EB4E085B] [B88691B7]
 04   99,2 [3F43BFBC] [6061F1FD]
 05   99,3 [C22F42B2] [33AB7AC2]
 06   99,4 [013A52B2] [26A9DE8C]
 07   99,2 [3C860140] [3831DF74]
 08   98,8 [D852E90F] [D7CF6367]
 09   98,0 [54113BE1] [62C91EEA]
 10   98,8 [B78D21FE] [3DA23A94]
 11   98,7 [07B4EF0E] [E7A87E0B]
 12   99,2 [8E01F3FD] [C6BDB6F5]
 13   98,7 [ABAF2D5D] [2CD02C5B]
 14   99,2 [7B7268AB] [AA7F886E]
 15   99,3 [0BE67E6F] [6922271D]
 16   99,2 [5A8D69C5] [07919D9E]
#777Треклист:
Keimzeit - "Bunte Scherben" (1993)
Tracks: 14
Total time: 46:42
Year: 1993
Disc-ID: rock / c60af90e
1. Amerikanische Liebe 2:05
2. Kling Klang 3:46
3. Breit 3:12
4. Schmetterlinge 4:57
5. Bunte Scherben 3:43
6. Trauriges Kind 4:31
7. Sommernächte 3:47
8. La Vie de la Bohéme 3:08
9. See voller Tränen 3:09
10. Kleinod 3:26
11. Oputz 1 1:14
12. Alfred 3:32
13. Kling Klang 3:32
14. Zweiundzwanzig 2:40
Код:
Exact Audio Copy V1.0 beta 3 from 29. August 2011
EAC extraction logfile from 22. November 2012, 20:31
Keimzeit / Bunte Scherben
Used drive  : PLEXTOR DVDR   PX-712A   Adapter: 1  ID: 0
Read mode               : Secure
Utilize accurate stream : Yes
Defeat audio cache      : Yes
Make use of C2 pointers : No
Read offset correction                      : 30
Overread into Lead-In and Lead-Out          : No
Fill up missing offset samples with silence : Yes
Delete leading and trailing silent blocks   : No
Null samples used in CRC calculations       : Yes
Used interface                              : Native Win32 interface for Win NT & 2000
Used output format : Internal WAV Routines
Sample format      : 44.100 Hz; 16 Bit; Stereo
TOC of the extracted CD
     Track |   Start  |  Length  | Start sector | End sector
    ---------------------------------------------------------
        1  |  0:00.00 |  2:05.47 |         0    |     9421
        2  |  2:05.47 |  3:46.33 |      9422    |    26404
        3  |  5:52.05 |  3:12.52 |     26405    |    40856
        4  |  9:04.57 |  4:57.50 |     40857    |    63181
        5  | 14:02.32 |  3:43.53 |     63182    |    79959
        6  | 17:46.10 |  4:31.62 |     79960    |   100346
        7  | 22:17.72 |  3:47.70 |    100347    |   117441
        8  | 26:05.67 |  3:08.68 |    117442    |   131609
        9  | 29:14.60 |  3:09.22 |    131610    |   145806
       10  | 32:24.07 |  3:26.13 |    145807    |   161269
       11  | 35:50.20 |  1:14.17 |    161270    |   166836
       12  | 37:04.37 |  3:32.40 |    166837    |   182776
       13  | 40:37.02 |  3:32.60 |    182777    |   198736
       14  | 44:09.62 |  2:39.33 |    198737    |   210694
Range status and errors
Selected range
     Filename H:\Razdachi\Keimzeit\Keimzeit - Bunte Scherben.wav
     Peak level 99.1 %
     Extraction speed 7.3 X
     Range quality 100.0 %
     Test CRC F4D65F22
     Copy CRC F4D65F22
     Copy OK
No errors occurred
AccurateRip summary
Track  1  accurately ripped (confidence 12)  [2FA7B47C]  (AR v1)
Track  2  accurately ripped (confidence 12)  [2F9B0E9E]  (AR v1)
Track  3  accurately ripped (confidence 12)  [F80301E3]  (AR v1)
Track  4  accurately ripped (confidence 12)  [2173EAC2]  (AR v1)
Track  5  accurately ripped (confidence 12)  [4A516EBF]  (AR v1)
Track  6  accurately ripped (confidence 12)  [E79C1EE2]  (AR v1)
Track  7  accurately ripped (confidence 12)  [33ADFC76]  (AR v1)
Track  8  accurately ripped (confidence 12)  [772B6642]  (AR v1)
Track  9  accurately ripped (confidence 10)  [627C0A59]  (AR v1)
Track 10  accurately ripped (confidence 12)  [68CC65CA]  (AR v1)
Track 11  accurately ripped (confidence 11)  [EADA0956]  (AR v1)
Track 12  accurately ripped (confidence 12)  [5690CF9B]  (AR v1)
Track 13  accurately ripped (confidence 12)  [D029C081]  (AR v1)
Track 14  accurately ripped (confidence 12)  [5593873B]  (AR v1)
All tracks accurately ripped
End of status report
==== Log checksum 62CF4A111D39D576848DD40EC7CBBF11E18DCDD3E008885081279E508759FA30 ====
Код:
-----------------------
DON'T MODIFY THIS FILE
-----------------------
PERFORMER: auCDtect Task Manager, ver. 1.5.1RC6 build 1.5.1.7
Copyright (c) 2008-2010 y-soft. All rights reserved
[url=http://y-soft.org]http://y-soft.org[/url]
ANALYZER: auCDtect: CD records authenticity detector, version 0.8.2
Copyright (c) 2004 Oleg Berngardt. All rights reserved.
Copyright (c) 2004 Alexander Djourik. All rights reserved.
FILE: Keimzeit - Bunte Scherben.flac
  Size: 328777401 Hash: EEF2C2E18C0704DAB00315504CC1D479 Accuracy: -m0
  Conclusion: CDDA 100%
  Signature: 1EE80D8B10E52CB927C00512C0F150504C36D6A7
[CUETools log; Date: 29.11.2012 15:55:20; Version: 2.1.4]
[CTDB TOCID: fmDwp.j92W8x5APBEP.nelj.c8Y-] found.
Track | CTDB Status
  1   | (14/14) Accurately ripped
  2   | (14/14) Accurately ripped
  3   | (14/14) Accurately ripped
  4   | (14/14) Accurately ripped
  5   | (14/14) Accurately ripped
  6   | (14/14) Accurately ripped
  7   | (14/14) Accurately ripped
  8   | (14/14) Accurately ripped
  9   | (14/14) Accurately ripped
 10   | (14/14) Accurately ripped
 11   | (14/14) Accurately ripped
 12   | (14/14) Accurately ripped
 13   | (13/14) Accurately ripped
 14   | (14/14) Accurately ripped
[AccurateRip ID: 0018f414-010a0f7d-c60af90e] found.
Track   [  CRC   |   V2   ] Status
 01     [2fa7b47c|04415206] (12+00/21) Accurately ripped
 02     [2f9b0e9e|e562f664] (12+00/22) Accurately ripped
 03     [f80301e3|38756adc] (12+00/21) Accurately ripped
 04     [2173eac2|c03b4406] (12+00/21) Accurately ripped
 05     [4a516ebf|e6112e77] (12+00/21) Accurately ripped
 06     [e79c1ee2|06b701d5] (12+00/21) Accurately ripped
 07     [33adfc76|efe67dab] (12+00/21) Accurately ripped
 08     [772b6642|c2d69363] (12+00/21) Accurately ripped
 09     [627c0a59|d759cfb7] (10+00/18) Accurately ripped
 10     [68cc65ca|28da54da] (12+00/21) Accurately ripped
 11     [eada0956|332c3f4e] (11+00/19) Accurately ripped
 12     [5690cf9b|0a61642a] (12+00/21) Accurately ripped
 13     [d029c081|b6c1cb77] (12+00/22) Accurately ripped
 14     [5593873b|ec326a48] (12+00/21) Accurately ripped
Offsetted by -859:
 01     [490cf828] (02/21) Accurately ripped
 02     [84b09241] (02/22) Accurately ripped
 03     [1905a89f] (02/21) Accurately ripped
 04     [788bc377] (02/21) Accurately ripped
 05     [1b6a9712] (02/21) Accurately ripped
 06     [2c109a57] (02/21) Accurately ripped
 07     [b0578d58] (02/21) Accurately ripped
 08     [319e7277] (02/21) Accurately ripped
 09     [a81d5ba6] (02/18) Accurately ripped
 10     [b0cad41a] (02/21) Accurately ripped
 11     [98de7b93] (02/19) Accurately ripped
 12     [656a5877] (02/21) Accurately ripped
 13     [f6cf91b6] (02/22) Accurately ripped
 14     [0358e0de] (02/21) Accurately ripped
Offsetted by -669:
 01     [590649c6] (07/21) Accurately ripped
 02     [718b892d] (08/22) Accurately ripped
 03     [07e251d2] (07/21) Accurately ripped
 04     [65f99bba] (07/21) Accurately ripped
 05     [ea7bf924] (07/21) Accurately ripped
 06     [73f211f5] (07/21) Accurately ripped
 07     [3a2b7d64] (07/21) Accurately ripped
 08     [03e4f146] (07/21) Accurately ripped
 09     [ac487ee7] (06/18) Accurately ripped
 10     [6e7b5cb6] (07/21) Accurately ripped
 11     [49e67ddd] (06/19) Accurately ripped
 12     [6fee6cd4] (07/21) Accurately ripped
 13     [08e798ab] (08/22) Accurately ripped
 14     [57778768] (07/21) Accurately ripped
Track Peak [ CRC32  ] [W/O NULL] [  LOG   ]
 --   99,1 [F4D65F22] [B7961455]   CRC32
 01   98,8 [0C441CFA] [361D2957]
 02   98,9 [71905A68] [4A2AC71B]
 03   98,9 [A2A05452] [42086F75]
 04   98,5 [C98C9707] [1F67D462]
 05   99,0 [6D8A0484] [91C6E3A1]
 06   98,2 [DEFB47B9] [46AFCEF0]
 07   98,7 [85432D16] [62AC5372]
 08   98,6 [476C7320] [A9F9DEC6]
 09   99,1 [E1228F54] [6B025714]
 10   98,8 [51CE39B4] [76AE10B8]
 11   72,5 [2C5E28BF] [006C5462]
 12   98,4 [C360CA8F] [D14A3BF8]
 13   99,0 [9D406DE8] [D957CD5E]
 14   98,8 [86ACCB85] [3F148BA9]
#777Треклист:
Keimzeit - "Kapitel elf" (1991)
Tracks: 12
Total time: 46:23
Year: 1991
Disc-ID: misc / 8e0ae60c
1. Kapitel elf 3:14
2. Zu wenig 5:13
3. Singapur 5:25
4. Eisenbahner 2:59
5. Blind 4:24
6. Reiches Land 3:50
7. Farben 3:43
8. Amsterdam 4:27
9. Gold für einen Ring 4:20
10. Ich bin krank 3:04
11. Maggie 3:21
12. Wiedersehn 2:23
Код:
Exact Audio Copy V1.0 beta 3 from 29. August 2011
EAC extraction logfile from 27. November 2012, 17:23
Keimzeit / Kapitel elf
Used drive  : PLEXTOR DVDR   PX-712A   Adapter: 1  ID: 0
Read mode               : Secure
Utilize accurate stream : Yes
Defeat audio cache      : Yes
Make use of C2 pointers : No
Read offset correction                      : 30
Overread into Lead-In and Lead-Out          : No
Fill up missing offset samples with silence : Yes
Delete leading and trailing silent blocks   : No
Null samples used in CRC calculations       : Yes
Used interface                              : Native Win32 interface for Win NT & 2000
Used output format : Internal WAV Routines
Sample format      : 44.100 Hz; 16 Bit; Stereo
TOC of the extracted CD
     Track |   Start  |  Length  | Start sector | End sector
    ---------------------------------------------------------
        1  |  0:00.33 |  3:14.70 |        33    |    14652
        2  |  3:15.28 |  5:13.72 |     14653    |    38199
        3  |  8:29.25 |  5:25.60 |     38200    |    62634
        4  | 13:55.10 |  2:59.38 |     62635    |    76097
        5  | 16:54.48 |  4:24.02 |     76098    |    95899
        6  | 21:18.50 |  3:50.25 |     95900    |   113174
        7  | 25:09.00 |  3:43.70 |    113175    |   129969
        8  | 28:52.70 |  4:27.38 |    129970    |   150032
        9  | 33:20.33 |  4:20.55 |    150033    |   169587
       10  | 37:41.13 |  3:04.67 |    169588    |   183454
       11  | 40:46.05 |  3:21.50 |    183455    |   198579
       12  | 44:07.55 |  2:22.53 |    198580    |   209282
Range status and errors
Selected range
     Filename H:\Razdachi\Keimzeit\Keimzeit - Kapitel elf.wav
     Peak level 97.7 %
     Extraction speed 11.8 X
     Range quality 99.9 %
     Test CRC B96A182A
     Copy CRC B96A182A
     Copy OK
No errors occurred
AccurateRip summary
Track  1  accurately ripped (confidence 2)  [F5D4EE0D]  (AR v1)
Track  2  accurately ripped (confidence 2)  [907C5ED9]  (AR v1)
Track  3  accurately ripped (confidence 2)  [181B9866]  (AR v1)
Track  4  accurately ripped (confidence 2)  [393D0EAB]  (AR v1)
Track  5  accurately ripped (confidence 2)  [BE871F85]  (AR v1)
Track  6  accurately ripped (confidence 2)  [8998E97E]  (AR v1)
Track  7  accurately ripped (confidence 2)  [482ACF6F]  (AR v1)
Track  8  accurately ripped (confidence 2)  [E12435F9]  (AR v1)
Track  9  accurately ripped (confidence 2)  [7325A49E]  (AR v1)
Track 10  accurately ripped (confidence 2)  [75B81239]  (AR v1)
Track 11  accurately ripped (confidence 2)  [75E759D2]  (AR v1)
Track 12  accurately ripped (confidence 2)  [71397A45]  (AR v1)
All tracks accurately ripped
End of status report
==== Log checksum A3703C9A1C912C84C61101E8B0F11C46D6231A9B4D6BA52C6EBFF56B24C59DD6 ====
Код:
-----------------------
DON'T MODIFY THIS FILE
-----------------------
PERFORMER: auCDtect Task Manager, ver. 1.5.1RC6 build 1.5.1.7
Copyright (c) 2008-2010 y-soft. All rights reserved
[url=http://y-soft.org]http://y-soft.org[/url]
ANALYZER: auCDtect: CD records authenticity detector, version 0.8.2
Copyright (c) 2004 Oleg Berngardt. All rights reserved.
Copyright (c) 2004 Alexander Djourik. All rights reserved.
FILE: Keimzeit - Kapitel elf.flac
  Size: 236430243 Hash: 06024EA5F59392B6081465E1ED34AD58 Accuracy: -m0
  Conclusion: CDDA 100%
  Signature: B7EAF60764EAC2903345840C11E1469A7B75E9AF
[CUETools log; Date: 29.11.2012 15:54:16; Version: 2.1.4]
Pregap length 00:00:33.
[CTDB TOCID: p0gLUs4BVDCnNW7BQqKhUOdOTbY-] disk not present in database.
[AccurateRip ID: 0015ff43-00cbb51f-8e0ae60c] found.
Track   [  CRC   |   V2   ] Status
 01     [f5d4ee0d|04aa036a] (02+00/29) Accurately ripped
 02     [907c5ed9|a84639e8] (02+00/30) Accurately ripped
 03     [181b9866|4b1f9171] (02+00/30) Accurately ripped
 04     [393d0eab|b7a33cf3] (02+00/30) Accurately ripped
 05     [be871f85|a5c50808] (02+00/30) Accurately ripped
 06     [8998e97e|b8ac921a] (02+00/30) Accurately ripped
 07     [482acf6f|7a4e1723] (02+00/30) Accurately ripped
 08     [e12435f9|625a960a] (02+00/30) Accurately ripped
 09     [7325a49e|14f42879] (02+00/30) Accurately ripped
 10     [75b81239|0da0541b] (02+00/30) Accurately ripped
 11     [75e759d2|288fda5a] (02+00/29) Accurately ripped
 12     [71397a45|05fb9b83] (02+00/29) Accurately ripped
Offsetted by -204:
 01     [36df58a5] (03/29) Accurately ripped
 02     [96384769] (03/30) Accurately ripped
 03     [610dc502] (03/30) Accurately ripped
 04     [e6235b05] (03/30) Accurately ripped
 05     [57691977] (03/30) Accurately ripped
 06     [e789bece] (03/30) Accurately ripped
 07     [51324563] (03/30) Accurately ripped
 08     [26e877cf] (03/30) Accurately ripped
 09     [1c8ded84] (03/30) Accurately ripped
 10     [5643e6f9] (03/30) Accurately ripped
 11     [90f40cba] (03/29) Accurately ripped
 12     [66ab40a5] (03/29) Accurately ripped
Offsetted by 667:
 01     [68b42097] (21/29) Accurately ripped
 02     [20e005d5] (22/30) Accurately ripped
 03     [3dae7277] (22/30) Accurately ripped
 04     [671444f7] (22/30) Accurately ripped
 05     [0fa9e03e] (22/30) Accurately ripped
 06     [5cb8eeca] (22/30) Accurately ripped
 07     [4f09a1da] (22/30) Accurately ripped
 08     [7908c5de] (22/30) Accurately ripped
 09     [3e30b382] (22/30) Accurately ripped
 10     [61948689] (22/30) Accurately ripped
 11     [2b441ae8] (21/29) Accurately ripped
 12     [d780756d] (21/29) Accurately ripped
Track Peak [ CRC32  ] [W/O NULL] [  LOG   ]
 --   97,7 [B96A182A] [93328D74]   CRC32
 01   91,1 [C8944E25] [F496AD19]
 02   93,3 [D51A5480] [CDB50341]
 03   96,3 [4394D3E1] [66A64E91]
 04   96,6 [F01B99C5] [92727482]
 05   80,4 [23DDD726] [530D417F]
 06   94,3 [E0455FEA] [E4C36BE1]
 07   85,9 [CE46056C] [9161CFB5]
 08   96,6 [6A0AF462] [8731E85A]
 09   87,0 [3273A8B9] [D19ED4C5]
 10   89,3 [32C649DD] [95E974C5]
 11   97,7 [394CBFB8] [4312F406]
 12   90,9 [428FD8D3] [9F6BEEF9]
#777Треклист:
Keimzeit - "Irrenhaus" (1990)
Tracks: 13
Total time: 48:44
Year: 1990
Disc-ID: folk / a50b730d
1. Ratten 3:41
2. Hofnarr 3:24
3. Mama 4:47
4. Irrenhaus 3:13
5. Frühling 4:21
6. Keine Männer 4:00
7. Betrunken 2:02
8. Kintopp 3:09
9. Rosi 3:38
10. Schwein 3:05
11. Der Löwe 4:04
12. Flugzeuge 4:55
13. So 4:25
Код:
Exact Audio Copy V1.0 beta 3 from 29. August 2011
EAC extraction logfile from 22. November 2012, 20:07
Keimzeit / Irrenhaus
Used drive  : PLEXTOR DVDR   PX-712A   Adapter: 1  ID: 0
Read mode               : Secure
Utilize accurate stream : Yes
Defeat audio cache      : Yes
Make use of C2 pointers : No
Read offset correction                      : 30
Overread into Lead-In and Lead-Out          : No
Fill up missing offset samples with silence : Yes
Delete leading and trailing silent blocks   : No
Null samples used in CRC calculations       : Yes
Used interface                              : Native Win32 interface for Win NT & 2000
Used output format : Internal WAV Routines
Sample format      : 44.100 Hz; 16 Bit; Stereo
TOC of the extracted CD
     Track |   Start  |  Length  | Start sector | End sector
    ---------------------------------------------------------
        1  |  0:00.33 |  3:41.07 |        33    |    16614
        2  |  3:41.40 |  3:24.35 |     16615    |    31949
        3  |  7:06.00 |  4:47.73 |     31950    |    53547
        4  | 11:53.73 |  3:13.72 |     53548    |    68094
        5  | 15:07.70 |  4:21.55 |     68095    |    87724
        6  | 19:29.50 |  4:00.15 |     87725    |   105739
        7  | 23:29.65 |  2:02.60 |    105740    |   114949
        8  | 25:32.50 |  3:09.63 |    114950    |   129187
        9  | 28:42.38 |  3:38.62 |    129188    |   145599
       10  | 32:21.25 |  3:05.25 |    145600    |   159499
       11  | 35:26.50 |  4:04.30 |    159500    |   177829
       12  | 39:31.05 |  4:55.00 |    177830    |   199954
       13  | 44:26.05 |  4:25.33 |    199955    |   219862
Range status and errors
Selected range
     Filename H:\Razdachi\Keimzeit\Keimzeit - Irrenhaus.wav
     Peak level 100.0 %
     Extraction speed 7.3 X
     Range quality 100.0 %
     Test CRC FD13B490
     Copy CRC FD13B490
     Copy OK
No errors occurred
AccurateRip summary
Track  1  accurately ripped (confidence 21)  [D8A43A35]  (AR v1)
Track  2  accurately ripped (confidence 20)  [CC08C48B]  (AR v1)
Track  3  accurately ripped (confidence 20)  [65EB54E0]  (AR v1)
Track  4  accurately ripped (confidence 20)  [93AF9462]  (AR v1)
Track  5  accurately ripped (confidence 21)  [C4F053E2]  (AR v1)
Track  6  accurately ripped (confidence 21)  [DD4E344E]  (AR v1)
Track  7  accurately ripped (confidence 21)  [A9BC6C08]  (AR v1)
Track  8  accurately ripped (confidence 20)  [B775B5BC]  (AR v1)
Track  9  accurately ripped (confidence 20)  [8CDE5A8D]  (AR v1)
Track 10  accurately ripped (confidence 19)  [E83CEFEB]  (AR v1)
Track 11  accurately ripped (confidence 20)  [08833C11]  (AR v1)
Track 12  accurately ripped (confidence 19)  [CFF26781]  (AR v1)
Track 13  accurately ripped (confidence 19)  [631B40C9]  (AR v1)
All tracks accurately ripped
End of status report
==== Log checksum BBB011FD20F9A486A7F02A02B2B134A6749503466310366FCD421803C5F6ECFC ====
Код:
-----------------------
DON'T MODIFY THIS FILE
-----------------------
PERFORMER: auCDtect Task Manager, ver. 1.5.1RC6 build 1.5.1.7
Copyright (c) 2008-2010 y-soft. All rights reserved
[url=http://y-soft.org]http://y-soft.org[/url]
ANALYZER: auCDtect: CD records authenticity detector, version 0.8.2
Copyright (c) 2004 Oleg Berngardt. All rights reserved.
Copyright (c) 2004 Alexander Djourik. All rights reserved.
FILE: Keimzeit - Irrenhaus.flac
  Size: 283724598 Hash: D9F7BA40ACC0F309115EC2F3804FD6B9 Accuracy: -m0
  Conclusion: CDDA 100%
  Signature: 92808AE2DAC9DC4D7C43A39B3E6DE1CDD739FFAC
[CUETools log; Date: 29.11.2012 15:52:52; Version: 2.1.4]
Pregap length 00:00:33.
[CTDB TOCID: RD8mw_v_R5Ppw_.CUYlJ9OIMsEc-] disk not present in database.
[AccurateRip ID: 00170cc0-00e5b6df-a50b730d] found.
Track   [  CRC   |   V2   ] Status
 01     [d8a43a35|f56c5933] (21+00/26) Accurately ripped
 02     [cc08c48b|72e25db4] (20+00/25) Accurately ripped
 03     [65eb54e0|be03e8f9] (20+00/25) Accurately ripped
 04     [93af9462|9d6a522f] (20+00/25) Accurately ripped
 05     [c4f053e2|6efefa98] (21+00/26) Accurately ripped
 06     [dd4e344e|84e4e5ed] (21+00/26) Accurately ripped
 07     [a9bc6c08|2b41e321] (21+00/26) Accurately ripped
 08     [b775b5bc|a709aaf0] (20+00/25) Accurately ripped
 09     [8cde5a8d|e399f07a] (20+00/25) Accurately ripped
 10     [e83cefeb|32d3282a] (19+00/24) Accurately ripped
 11     [08833c11|68f56fdf] (20+00/25) Accurately ripped
 12     [cff26781|03d8e318] (19+00/24) Accurately ripped
 13     [631b40c9|4c5adef2] (19+00/24) Accurately ripped
Offsetted by -858:
 01     [fa292c1d] (03/26) Accurately ripped
 02     [0def38f3] (03/25) Accurately ripped
 03     [ba4f2e76] (03/25) Accurately ripped
 04     [5ac42b20] (03/25) Accurately ripped
 05     [a1dbb456] (03/26) Accurately ripped
 06     [ab0b99a4] (03/26) Accurately ripped
 07     [61494730] (03/26) Accurately ripped
 08     [1b131914] (03/25) Accurately ripped
 09     [e13bc2ef] (03/25) Accurately ripped
 10     [d348c703] (03/24) Accurately ripped
 11     [3593f975] (03/25) Accurately ripped
 12     [5b72cb7b] (03/24) Accurately ripped
 13     [e039134b] (03/24) Accurately ripped
Offsetted by -664:
 01     [62c4b295] (02/26) Accurately ripped
 02     [5b8732eb] (02/25) Accurately ripped
 03     [16d15e88] (02/25) Accurately ripped
 04     [b108e96a] (02/25) Accurately ripped
 05     [7d08f212] (02/26) Accurately ripped
 06     [de640ef6] (02/26) Accurately ripped
 07     [e56f3f68] (02/26) Accurately ripped
 08     [6f5de85c] (02/25) Accurately ripped
 09     [8aba0905] (02/25) Accurately ripped
 10     [6441538b] (02/24) Accurately ripped
 11     [3e7be681] (02/25) Accurately ripped
 12     [43a9e799] (02/24) Accurately ripped
 13     [62aa46c1] (02/24) Accurately ripped
Track Peak [ CRC32  ] [W/O NULL] [  LOG   ]
 --  100,0 [FD13B490] [0F7BE69F]   CRC32
 01   96,1 [36303A12] [9B3C9243]
 02   97,7 [1D2B1B68] [60420F36]
 03   92,0 [2CB74656] [7AEC85DF]
 04   97,7 [BF734752] [237A5854]
 05   93,3 [261D06AE] [C9D2C2C0]
 06   97,7 [31862111] [352DB481]
 07   97,7 [50CBED9E] [46ED9633]
 08   97,7 [56A445A4] [5D38A459]
 09  100,0 [E0BCB2E5] [E30BCFB6]
 10  100,0 [0D99F418] [3E02F658]
 11   89,1 [249F9199] [D06F5A21]
 12   95,2 [3B1F806B] [B5E3297D]
 13   97,7 [86A4391B] [E910338C]
#777Треклист:
Keimzeit - "Kling Klang - Das Beste bis jetzt" (2002)
Tracks: 19
Total time: 73:43
Year: 2002
Disc-ID: rock / 25115113
1. Gebt der Avengarde das Licht 2:10
2. Ein schöner Tag 4:27
3. Kintopp 3:10
4. Die Achse 2:51
5. Etwas höher nur der Mond 5:00
6. Windstill 4:30
7. Comic-Helden 4:15
8. Flugzeug ohne Räder 4:52
9. Berlin 4:46
10. Kling Klang 3:47
11. Singapur 5:28
12. Maggie 3:21
13. Non-Konversation 4:06
14. Irrenhaus 3:13
15. Gott will 3:19
16. Erzähl mir von Dir 3:44
17. Bunte Scherben 3:45
18. Das Projektil 3:55
19. Marleen 3:13
Код:
Exact Audio Copy V1.0 beta 3 from 29. August 2011
EAC extraction logfile from 26. November 2012, 13:22
Keimzeit / Das Beste bis jetzt
Used drive  : PLEXTOR DVDR   PX-712A   Adapter: 1  ID: 0
Read mode               : Secure
Utilize accurate stream : Yes
Defeat audio cache      : Yes
Make use of C2 pointers : No
Read offset correction                      : 30
Overread into Lead-In and Lead-Out          : No
Fill up missing offset samples with silence : Yes
Delete leading and trailing silent blocks   : No
Null samples used in CRC calculations       : Yes
Used interface                              : Native Win32 interface for Win NT & 2000
Used output format : Internal WAV Routines
Sample format      : 44.100 Hz; 16 Bit; Stereo
TOC of the extracted CD
     Track |   Start  |  Length  | Start sector | End sector
    ---------------------------------------------------------
        1  |  0:00.00 |  2:10.11 |         0    |     9760
        2  |  2:10.11 |  4:27.10 |      9761    |    29795
        3  |  6:37.21 |  3:09.46 |     29796    |    44016
        4  |  9:46.67 |  2:50.66 |     44017    |    56832
        5  | 12:37.58 |  5:00.00 |     56833    |    79332
        6  | 17:37.58 |  4:30.34 |     79333    |    99616
        7  | 22:08.17 |  4:14.49 |     99617    |   118715
        8  | 26:22.66 |  4:52.18 |    118716    |   140633
        9  | 31:15.09 |  4:46.31 |    140634    |   162114
       10  | 36:01.40 |  3:47.17 |    162115    |   179156
       11  | 39:48.57 |  5:27.60 |    179157    |   203741
       12  | 45:16.42 |  3:21.12 |    203742    |   218828
       13  | 48:37.54 |  4:05.68 |    218829    |   237271
       14  | 52:43.47 |  3:12.47 |    237272    |   251718
       15  | 55:56.19 |  3:18.59 |    251719    |   266627
       16  | 59:15.03 |  3:44.28 |    266628    |   283455
       17  | 62:59.31 |  3:44.53 |    283456    |   300308
       18  | 66:44.09 |  3:54.69 |    300309    |   317927
       19  | 70:39.03 |  3:13.36 |    317928    |   332438
Range status and errors
Selected range
     Filename H:\Razdachi\Keimzeit\2002 Das Beste bis jetzt\Neuer Ordner (4)\Keimzeit - Das Beste bis jetzt.wav
     Peak level 99.9 %
     Extraction speed 13.9 X
     Range quality 99.9 %
     Test CRC EB3DEA06
     Copy CRC EB3DEA06
     Copy OK
No errors occurred
AccurateRip summary
Track  1  cannot be verified as accurate (confidence 4)  [7E922805], AccurateRip returned [0EEDC6BF]  (AR v2)
Track  2  accurately ripped (confidence 5)  [BE96B2C5]  (AR v1)
Track  3  accurately ripped (confidence 5)  [C56E5A12]  (AR v1)
Track  4  accurately ripped (confidence 5)  [84A4265F]  (AR v1)
Track  5  accurately ripped (confidence 5)  [C827549B]  (AR v1)
Track  6  accurately ripped (confidence 5)  [F75928C4]  (AR v1)
Track  7  accurately ripped (confidence 5)  [81402B0F]  (AR v1)
Track  8  accurately ripped (confidence 5)  [0AD75C3D]  (AR v1)
Track  9  accurately ripped (confidence 5)  [323CC974]  (AR v1)
Track 10  accurately ripped (confidence 5)  [80418B97]  (AR v1)
Track 11  accurately ripped (confidence 5)  [1402F417]  (AR v1)
Track 12  accurately ripped (confidence 5)  [297FE129]  (AR v1)
Track 13  accurately ripped (confidence 5)  [E8BDC8B4]  (AR v1)
Track 14  accurately ripped (confidence 5)  [566AEBED]  (AR v1)
Track 15  accurately ripped (confidence 5)  [1DACED8D]  (AR v1)
Track 16  accurately ripped (confidence 4)  [3F95C6F9]  (AR v1)
Track 17  accurately ripped (confidence 4)  [F8D20628]  (AR v1)
Track 18  accurately ripped (confidence 4)  [53944669]  (AR v1)
Track 19  accurately ripped (confidence 4)  [568E0851]  (AR v1)
18 track(s) accurately ripped
 1 track(s) could not be verified as accurate
Some tracks could not be verified as accurate
End of status report
==== Log checksum E7596562CE6164A55E3D30DBEE1FC61382F03B45FCF2DD84E1B325B649FCD1B9 ====
Код:
-----------------------
DON'T MODIFY THIS FILE
-----------------------
PERFORMER: auCDtect Task Manager, ver. 1.5.1RC6 build 1.5.1.7
Copyright (c) 2008-2010 y-soft. All rights reserved
[url=http://y-soft.org]http://y-soft.org[/url]
ANALYZER: auCDtect: CD records authenticity detector, version 0.8.2
Copyright (c) 2004 Oleg Berngardt. All rights reserved.
Copyright (c) 2004 Alexander Djourik. All rights reserved.
FILE: Keimzeit - Das Beste bis jetzt.flac
  Size: 488005085 Hash: 604E615E84FDDE30F8EA257B12F26DD0 Accuracy: -m0
  Conclusion: CDDA 100%
  Signature: 92721F4CAED97901BBADB6EEF9172A9B1EE926EA
[CUETools log; Date: 29.11.2012 16:00:28; Version: 2.1.4]
CDDBId mismatch: 25115113 vs 26115013
[CTDB TOCID: w9nTqgc0Q_7x0wU7G5hIL5zZC_Q-] disk not present in database.
[AccurateRip ID: 0032d8cd-02cef214-26115013] found.
Track   [  CRC   |   V2   ] Status
 01     [ca2c1a9b|7e922805] (0+0/4) No match
 02     [be96b2c5|8737c734] (5+0/5) Accurately ripped
 03     [c56e5a12|6fac2e6d] (5+0/5) Accurately ripped
 04     [84a4265f|dfa58478] (5+0/5) Accurately ripped
 05     [c827549b|0e8769b3] (5+0/5) Accurately ripped
 06     [f75928c4|122f22b5] (5+0/5) Accurately ripped
 07     [81402b0f|89f4e4f7] (5+0/5) Accurately ripped
 08     [0ad75c3d|e482a368] (5+0/5) Accurately ripped
 09     [323cc974|5741e14a] (5+0/5) Accurately ripped
 10     [80418b97|73f54a99] (5+0/5) Accurately ripped
 11     [1402f417|553c6e0f] (5+0/5) Accurately ripped
 12     [297fe129|72bd8ec5] (5+0/5) Accurately ripped
 13     [e8bdc8b4|cbd78ea9] (5+0/5) Accurately ripped
 14     [566aebed|86a6cd7c] (5+0/5) Accurately ripped
 15     [1daced8d|dfc033ff] (5+0/5) Accurately ripped
 16     [3f95c6f9|5145c940] (4+0/4) Accurately ripped
 17     [f8d20628|173c5fb6] (4+0/4) Accurately ripped
 18     [53944669|e3835e76] (4+0/4) Accurately ripped
 19     [568e0851|439b8cc2] (4+0/4) Accurately ripped
Track Peak [ CRC32  ] [W/O NULL] [  LOG   ]
 --   99,9 [EB3DEA06] [8EF75CD7]   CRC32
 01   98,8 [B7CA1587] [2DB428D5]
 02   99,9 [40017C32] [57A182C4]
 03   98,8 [1AC27A91] [876B60A6]
 04   98,9 [1D30AD6F] [B88691B7]
 05   99,9 [F53044AE] [9A57A8A5]
 06   99,3 [9864D04C] [2934E503]
 07   93,8 [C8E0BB54] [7B888AAF]
 08   98,8 [888BAB8F] [83E4DA7C]
 09   99,9 [131A5911] [8868DBEE]
 10   98,9 [75EC0149] [9950A50B]
 11   98,8 [998DC45C] [41183E4C]
 12   98,8 [64CA6553] [31B62069]
 13   99,9 [402A9425] [5F1860ED]
 14   98,8 [27C85789] [FD79ED83]
 15   99,6 [8D99E356] [87FF5ABE]
 16   95,6 [32D5BEBB] [7AB28C2D]
 17   99,0 [586830E0] [0A45E3F0]
 18   95,6 [413B01D7] [B72A519E]
 19   97,5 [D5AD1767] [31E837BD]
#777Треклист:
Keimzeit - "Mensch Meier. Live 2006." (2006)
Tracks: 16
Total time: 62:30
Year: 2006
Disc-ID: folk / ca0eaf10
1. Projektil 4:10
2. Mensch Meier 3:48
3. Paul 3:08
4. Tage ohne Sex 3:56
5. Am Rande 3:22
6. Mailand 4:32
7. Etwas höher nur der Mond 4:40
8. Irrenhaus 3:27
9. Was ich im Wasser sah 3:30
10. Planetenseite 4:31
11. See voller Tränen 4:23
12. Betrunken 2:28
13. Honeymoonblues 3:57
14. Kling Klang 3:36
15. So 5:23
16. (Bonus) 2002 3:39
Код:
Exact Audio Copy V1.0 beta 3 from 29. August 2011
EAC extraction logfile from 29. November 2012, 14:12
Keimzeit / Mensch Meier
Used drive  : PLEXTOR DVDR   PX-712A   Adapter: 2  ID: 1
Read mode               : Secure
Utilize accurate stream : Yes
Defeat audio cache      : Yes
Make use of C2 pointers : No
Read offset correction                      : 30
Overread into Lead-In and Lead-Out          : No
Fill up missing offset samples with silence : Yes
Delete leading and trailing silent blocks   : No
Null samples used in CRC calculations       : Yes
Used interface                              : Native Win32 interface for Win NT & 2000
Used output format : Internal WAV Routines
Sample format      : 44.100 Hz; 16 Bit; Stereo
TOC of the extracted CD
     Track |   Start  |  Length  | Start sector | End sector
    ---------------------------------------------------------
        1  |  0:00.00 |  4:10.71 |         0    |    18820
        2  |  4:10.71 |  3:48.56 |     18821    |    35976
        3  |  7:59.52 |  3:08.32 |     35977    |    50108
        4  | 11:08.09 |  3:56.30 |     50109    |    67838
        5  | 15:04.39 |  3:22.33 |     67839    |    83021
        6  | 18:26.72 |  4:32.67 |     83022    |   103488
        7  | 22:59.64 |  4:40.38 |    103489    |   124526
        8  | 27:40.27 |  3:27.26 |    124527    |   140077
        9  | 31:07.53 |  3:30.71 |    140078    |   155898
       10  | 34:38.49 |  4:31.02 |    155899    |   176225
       11  | 39:09.51 |  4:23.69 |    176226    |   196019
       12  | 43:33.45 |  2:28.72 |    196020    |   207191
       13  | 46:02.42 |  3:57.50 |    207192    |   225016
       14  | 50:00.17 |  3:36.71 |    225017    |   241287
       15  | 53:37.13 |  5:23.39 |    241288    |   265551
       16  | 59:00.52 |  3:38.65 |    265552    |   281966
Range status and errors
Selected range
     Filename C:\Lernen\Keimzeit - Mensch Meier.wav
     Peak level 100.0 %
     Extraction speed 12.3 X
     Range quality 99.9 %
     Test CRC 286E6795
     Copy CRC 286E6795
     Copy OK
No errors occurred
AccurateRip summary
Track  1  accurately ripped (confidence 4)  [5C1F9625]  (AR v1)
Track  2  accurately ripped (confidence 4)  [25ED9EF5]  (AR v1)
Track  3  accurately ripped (confidence 4)  [078D8D79]  (AR v1)
Track  4  accurately ripped (confidence 4)  [F490DC49]  (AR v1)
Track  5  accurately ripped (confidence 4)  [A30789BB]  (AR v1)
Track  6  accurately ripped (confidence 4)  [491EBF0C]  (AR v1)
Track  7  accurately ripped (confidence 4)  [73384A5C]  (AR v1)
Track  8  accurately ripped (confidence 4)  [99EB33DB]  (AR v1)
Track  9  accurately ripped (confidence 4)  [5F375060]  (AR v1)
Track 10  accurately ripped (confidence 4)  [09D563AD]  (AR v1)
Track 11  accurately ripped (confidence 4)  [C1DE670D]  (AR v1)
Track 12  accurately ripped (confidence 4)  [B2BA4EF3]  (AR v1)
Track 13  accurately ripped (confidence 4)  [2AB7CE10]  (AR v1)
Track 14  accurately ripped (confidence 4)  [B406F280]  (AR v1)
Track 15  accurately ripped (confidence 4)  [F9C77E28]  (AR v1)
Track 16  accurately ripped (confidence 4)  [41C0C6B7]  (AR v1)
All tracks accurately ripped
End of status report
==== Log checksum B86FEA672A81584EA78932EFC0632B50DF21C30A19F7651BEA44EC814DFFED6D ====
Код:
-----------------------
DON'T MODIFY THIS FILE
-----------------------
PERFORMER: auCDtect Task Manager, ver. 1.5.1RC6 build 1.5.1.7
Copyright (c) 2008-2010 y-soft. All rights reserved
[url=http://y-soft.org]http://y-soft.org[/url]
ANALYZER: auCDtect: CD records authenticity detector, version 0.8.2
Copyright (c) 2004 Oleg Berngardt. All rights reserved.
Copyright (c) 2004 Alexander Djourik. All rights reserved.
FILE: Keimzeit - Mensch Meier.flac
  Size: 421024240 Hash: 3D5C65E54B344E0BC8B51B3BB8A684F0 Accuracy: -m0
  Conclusion: CDDA 100%
  Signature: 1F4ED38B61EAF8A22D6743BDE95164CF16529A8C
[CUETools log; Date: 29.11.2012 16:01:28; Version: 2.1.4]
[CTDB TOCID: _2IvV4TVcnEDCXaQKq3hmhKTzMY-] found.
Track | CTDB Status
  1   | (1/1) Accurately ripped
  2   | (1/1) Accurately ripped
  3   | (1/1) Accurately ripped
  4   | (1/1) Accurately ripped
  5   | (1/1) Accurately ripped
  6   | (1/1) Accurately ripped
  7   | (1/1) Accurately ripped
  8   | (1/1) Accurately ripped
  9   | (1/1) Accurately ripped
 10   | (1/1) Accurately ripped
 11   | (1/1) Accurately ripped
 12   | (1/1) Accurately ripped
 13   | (1/1) Accurately ripped
 14   | (1/1) Accurately ripped
 15   | (1/1) Accurately ripped
 16   | (1/1) Accurately ripped
[AccurateRip ID: 0024359f-01b32d27-ca0eaf10] found.
Track   [  CRC   |   V2   ] Status
 01     [5c1f9625|8f7a6706] (4+0/4) Accurately ripped
 02     [25ed9ef5|bcf4b5bb] (4+0/4) Accurately ripped
 03     [078d8d79|64b2a39c] (4+0/4) Accurately ripped
 04     [f490dc49|6be12fd6] (4+0/4) Accurately ripped
 05     [a30789bb|19f20992] (4+0/4) Accurately ripped
 06     [491ebf0c|da63397b] (4+0/4) Accurately ripped
 07     [73384a5c|603024cf] (4+0/4) Accurately ripped
 08     [99eb33db|05b4eb83] (4+0/4) Accurately ripped
 09     [5f375060|f0028b7a] (4+0/4) Accurately ripped
 10     [09d563ad|e16ba5f9] (4+0/4) Accurately ripped
 11     [c1de670d|486cf3b0] (4+0/4) Accurately ripped
 12     [b2ba4ef3|9373f2f8] (4+0/4) Accurately ripped
 13     [2ab7ce10|48fc20f0] (4+0/4) Accurately ripped
 14     [b406f280|0633302a] (4+0/4) Accurately ripped
 15     [f9c77e28|7a022959] (4+0/4) Accurately ripped
 16     [41c0c6b7|b59d2b53] (4+0/4) Accurately ripped
Track Peak [ CRC32  ] [W/O NULL] [  LOG   ]
 --  100,0 [286E6795] [C508FBA6]   CRC32
 01  100,0 [46CD80EE] [E55E83B0]
 02   99,2 [A99FD38B] [7F917315]
 03   99,2 [46B0D135] [07525B30]
 04   96,1 [21934859] [EDD62286]
 05   84,6 [B9E4B6AC] [2E7D6875]
 06   98,9 [67B91EA2] [C2A4742D]
 07   99,9 [E33B29DF] [AA9084B7]
 08   98,7 [29844569] [2662DA73]
 09   93,0 [A550FC1E] [C4878E76]
 10   98,6 [FA865DE3] [9C9E713F]
 11   96,0 [9D222E53] [BDB916D0]
 12   93,0 [2D4EB2DE] [5E46790E]
 13   92,9 [A66BE160] [EA88E825]
 14   98,9 [32EC2FD6] [B3BF71AF]
 15   97,0 [817D8F6E] [C3F3D4DF]
 16  100,0 [0C2A2F98] [AC8741C4]
#777Треклист:
Keimzeit - "Nachtvorstellung - Live" 2CDs (1996)
CD1:
Tracks: 17
Total time: 70:14
Year: 1996
Disc-ID: rock / fe107f11
1. Kling Klang 3:50
2. Hofnarr 3:46
3. Bunte Scherben 3:44
4. Die Achse 4:11
5. Küss' mich 2:19
6. Maggie 4:10
7. Windstill 4:14
8. Irrenhaus 2:51
9. Kapitel 11 5:22
10. So 4:11
11. Mit dem Regen 2:31
12. Amerikanische Liebe 2:58
13. Amsterdam 4:58
14. Schwein 2:55
15. Nah neh nah 4:45
16. Schmetterlinge 8:58
17. Donauangler 4:31
CD2:
Tracks: 14
Total time: 73:34
Year: 1996
Disc-ID: rock / c611450e
1. Zugabe 0:29
2. Gott will 3:23
3. Ratten 3:47
4. 83 2:55
5. Breit 3:11
6. Trauriges Kind 6:45
7. Singapur 5:19
8. Frau aus Gold 5:54
9. Kintopp 6:10
10. Nathalie 5:42
11. Tequila 4:59
12. Flugzeuge 15:31
13. Band Vorstellung 2:24
14. Der Löwe 7:05
Код:
Exact Audio Copy V1.0 beta 3 from 29. August 2011
EAC extraction logfile from 20. November 2012, 14:50
Keimzeit / Nachtvorstellung - Live (CD1)
Used drive  : PLEXTOR DVDR   PX-712A   Adapter: 1  ID: 0
Read mode               : Secure
Utilize accurate stream : Yes
Defeat audio cache      : Yes
Make use of C2 pointers : No
Read offset correction                      : 30
Overread into Lead-In and Lead-Out          : No
Fill up missing offset samples with silence : Yes
Delete leading and trailing silent blocks   : No
Null samples used in CRC calculations       : Yes
Used interface                              : Native Win32 interface for Win NT & 2000
Used output format : Internal WAV Routines
Sample format      : 44.100 Hz; 16 Bit; Stereo
TOC of the extracted CD
     Track |   Start  |  Length  | Start sector | End sector
    ---------------------------------------------------------
        1  |  0:00.00 |  3:50.50 |         0    |    17299
        2  |  3:50.50 |  3:46.25 |     17300    |    34274
        3  |  7:37.00 |  3:44.37 |     34275    |    51111
        4  | 11:21.37 |  4:11.63 |     51112    |    69999
        5  | 15:33.25 |  2:19.57 |     70000    |    80481
        6  | 17:53.07 |  4:10.20 |     80482    |    99251
        7  | 22:03.27 |  4:14.45 |     99252    |   118346
        8  | 26:17.72 |  2:51.55 |    118347    |   131226
        9  | 29:09.52 |  5:22.65 |    131227    |   155441
       10  | 34:32.42 |  4:11.23 |    155442    |   174289
       11  | 38:43.65 |  2:31.62 |    174290    |   185676
       12  | 41:15.52 |  2:58.25 |    185677    |   199051
       13  | 44:14.02 |  4:58.20 |    199052    |   221421
       14  | 49:12.22 |  2:55.38 |    221422    |   234584
       15  | 52:07.60 |  4:45.52 |    234585    |   256011
       16  | 56:53.37 |  8:58.60 |    256012    |   296421
       17  | 65:52.22 |  4:31.15 |    296422    |   316761
Range status and errors
Selected range
     Filename H:\Razdachi\Keimzeit\Keimzeit - Nachtvorstellung - Live CD1.wav
     Peak level 100.0 %
     Extraction speed 13.8 X
     Range quality 100.0 %
     Test CRC 17FF4E19
     Copy CRC 17FF4E19
     Copy OK
No errors occurred
AccurateRip summary
Track  1  accurately ripped (confidence 9)  [6961FC58]  (AR v1)
Track  2  accurately ripped (confidence 9)  [D0B957E3]  (AR v1)
Track  3  accurately ripped (confidence 9)  [53707464]  (AR v1)
Track  4  accurately ripped (confidence 9)  [851B1109]  (AR v1)
Track  5  accurately ripped (confidence 9)  [073C95B2]  (AR v1)
Track  6  accurately ripped (confidence 9)  [8E0BCC53]  (AR v1)
Track  7  accurately ripped (confidence 9)  [9392B613]  (AR v1)
Track  8  accurately ripped (confidence 9)  [0E95BD62]  (AR v1)
Track  9  accurately ripped (confidence 8)  [9D30525A]  (AR v1)
Track 10  accurately ripped (confidence 8)  [79490FFA]  (AR v1)
Track 11  accurately ripped (confidence 8)  [93CC11D7]  (AR v1)
Track 12  accurately ripped (confidence 9)  [EA12E515]  (AR v1)
Track 13  accurately ripped (confidence 8)  [1D13D5EE]  (AR v1)
Track 14  accurately ripped (confidence 9)  [81E8F500]  (AR v1)
Track 15  accurately ripped (confidence 8)  [E8877878]  (AR v1)
Track 16  accurately ripped (confidence 8)  [1527D17A]  (AR v1)
Track 17  accurately ripped (confidence 8)  [43E3552F]  (AR v1)
All tracks accurately ripped
End of status report
==== Log checksum 472F8471A172862D8D135609826B2BECEBABBFB4EA30068AD83B2205DEC982F1 ====
Код:
Exact Audio Copy V1.0 beta 3 from 29. August 2011
EAC extraction logfile from 27. November 2012, 17:42
Keimzeit / Nachtvorstellung - Live (CD2)
Used drive  : PLEXTOR DVDR   PX-712A   Adapter: 1  ID: 0
Read mode               : Secure
Utilize accurate stream : Yes
Defeat audio cache      : Yes
Make use of C2 pointers : No
Read offset correction                      : 30
Overread into Lead-In and Lead-Out          : No
Fill up missing offset samples with silence : Yes
Delete leading and trailing silent blocks   : No
Null samples used in CRC calculations       : Yes
Used interface                              : Native Win32 interface for Win NT & 2000
Used output format : Internal WAV Routines
Sample format      : 44.100 Hz; 16 Bit; Stereo
TOC of the extracted CD
     Track |   Start  |  Length  | Start sector | End sector
    ---------------------------------------------------------
        1  |  0:00.00 |  0:29.42 |         0    |     2216
        2  |  0:29.42 |  3:23.38 |      2217    |    17479
        3  |  3:53.05 |  3:47.55 |     17480    |    34559
        4  |  7:40.60 |  2:55.17 |     34560    |    47701
        5  | 10:36.02 |  3:11.45 |     47702    |    62071
        6  | 13:47.47 |  6:45.38 |     62072    |    92484
        7  | 20:33.10 |  5:19.62 |     92485    |   116471
        8  | 25:52.72 |  5:54.55 |    116472    |   143076
        9  | 31:47.52 |  6:10.45 |    143077    |   170871
       10  | 37:58.22 |  5:42.53 |    170872    |   196574
       11  | 43:41.00 |  4:59.60 |    196575    |   219059
       12  | 48:40.60 | 15:31.32 |    219060    |   288916
       13  | 64:12.17 |  2:24.50 |    288917    |   299766
       14  | 66:36.67 |  7:04.35 |    299767    |   331601
Range status and errors
Selected range
     Filename H:\Razdachi\Keimzeit\Keimzeit - Nachtvorstellung - Live CD2.wav
     Peak level 100.0 %
     Extraction speed 14.1 X
     Range quality 100.0 %
     Test CRC F882D7EB
     Copy CRC F882D7EB
     Copy OK
No errors occurred
AccurateRip summary
Track  1  accurately ripped (confidence 8)  [8DBCCE55]  (AR v1)
Track  2  accurately ripped (confidence 8)  [C025F756]  (AR v1)
Track  3  accurately ripped (confidence 8)  [7E95C34E]  (AR v1)
Track  4  accurately ripped (confidence 9)  [D63D9F4B]  (AR v1)
Track  5  accurately ripped (confidence 8)  [46479983]  (AR v1)
Track  6  accurately ripped (confidence 8)  [D526AED6]  (AR v1)
Track  7  accurately ripped (confidence 8)  [A99DA7DA]  (AR v1)
Track  8  accurately ripped (confidence 8)  [B9DB7B87]  (AR v1)
Track  9  accurately ripped (confidence 8)  [EC059DBA]  (AR v1)
Track 10  accurately ripped (confidence 8)  [70B928F5]  (AR v1)
Track 11  accurately ripped (confidence 8)  [DD1D5C4F]  (AR v1)
Track 12  accurately ripped (confidence 8)  [AFC49669]  (AR v1)
Track 13  accurately ripped (confidence 8)  [23A53215]  (AR v1)
Track 14  accurately ripped (confidence 8)  [4FEA0B3C]  (AR v1)
All tracks accurately ripped
End of status report
==== Log checksum 0231794B2A7D6CCAE3EE146B504F464C9BD1829EC3AD845AD3E68C974F93486D ====
Код:
-----------------------
DON'T MODIFY THIS FILE
-----------------------
PERFORMER: auCDtect Task Manager, ver. 1.5.1RC6 build 1.5.1.7
Copyright (c) 2008-2010 y-soft. All rights reserved
[url=http://y-soft.org]http://y-soft.org[/url]
ANALYZER: auCDtect: CD records authenticity detector, version 0.8.2
Copyright (c) 2004 Oleg Berngardt. All rights reserved.
Copyright (c) 2004 Alexander Djourik. All rights reserved.
FILE: Keimzeit - Nachtvorstellung - Live CD1.flac
  Size: 502582165 Hash: C8B526FF25F347A459EA7E824A09424F Accuracy: -m0
  Conclusion: CDDA 100%
  Signature: 98BDDE069701403502A6585811D95399E23B08BD
[CUETools log; Date: 29.11.2012 15:57:55; Version: 2.1.4]
[CTDB TOCID: 7_XmE_6OVbj0KVuS0EMWHkCJXzs-] found.
Track | CTDB Status
  1   | (7/8) Accurately ripped
  2   | (7/8) Accurately ripped
  3   | (7/8) Accurately ripped
  4   | (7/8) Accurately ripped
  5   | (7/8) Accurately ripped
  6   | (7/8) Accurately ripped
  7   | (7/8) Accurately ripped
  8   | (7/8) Accurately ripped
  9   | (6/8) Accurately ripped
 10   | (6/8) Accurately ripped
 11   | (7/8) Accurately ripped
 12   | (7/8) Accurately ripped
 13   | (7/8) Accurately ripped
 14   | (7/8) Accurately ripped
 15   | (7/8) Accurately ripped
 16   | (7/8) Accurately ripped
 17   | (7/8) Accurately ripped
[AccurateRip ID: 00284efb-0202d6ec-fe107f11] found.
Track   [  CRC   |   V2   ] Status
 01     [6961fc58|616283bb] (09+00/15) Accurately ripped
 02     [d0b957e3|3875e97c] (09+00/14) Accurately ripped
 03     [53707464|3d385720] (09+00/14) Accurately ripped
 04     [851b1109|e3b8fcb6] (09+00/14) Accurately ripped
 05     [073c95b2|50a741e2] (09+00/14) Accurately ripped
 06     [8e0bcc53|ee6aab9d] (09+00/14) Accurately ripped
 07     [9392b613|9d240d42] (09+00/14) Accurately ripped
 08     [0e95bd62|5b752255] (09+00/14) Accurately ripped
 09     [9d30525a|d2070c19] (08+00/13) Accurately ripped
 10     [79490ffa|38c8898d] (08+00/13) Accurately ripped
 11     [93cc11d7|5b261716] (08+00/13) Accurately ripped
 12     [ea12e515|c51ab1f3] (09+00/14) Accurately ripped
 13     [1d13d5ee|1b82539a] (08+00/13) Accurately ripped
 14     [81e8f500|ab46a098] (09+00/14) Accurately ripped
 15     [e8877878|c7bc72c6] (08+00/13) Accurately ripped
 16     [1527d17a|324727c2] (08+00/13) Accurately ripped
 17     [43e3552f|e5008227] (08+00/13) Accurately ripped
Offsetted by -915:
 01     [8c09b092] (06/15) Accurately ripped
 02     [315e3f5b] (05/14) Accurately ripped
 03     [db3b27fa] (05/14) Accurately ripped
 04     [89080c89] (05/14) Accurately ripped
 05     [defd31dc] (05/14) Accurately ripped
 06     [bfc064ec] (05/14) Accurately ripped
 07     [7a5a455a] (05/14) Accurately ripped
 08     [86b3f778] (05/14) Accurately ripped
 09     [c4140536] (05/13) Accurately ripped
 10     [0d090c23] (05/13) Accurately ripped
 11     [6fe9dd66] (05/13) Accurately ripped
 12     [164cd695] (05/14) Accurately ripped
 13     [8654c632] (05/13) Accurately ripped
 14     [21fbf6cf] (05/14) Accurately ripped
 15     [6d66febc] (05/13) Accurately ripped
 16     [4e775f21] (05/13) Accurately ripped
 17     [0ad3253c] (05/13) Accurately ripped
Track Peak [ CRC32  ] [W/O NULL] [  LOG   ]
 --  100,0 [17FF4E19] [77854043]   CRC32
 01   97,9 [F551AC4D] [2A3BE96A]
 02  100,0 [36B75388] [86DFD523]
 03   97,9 [C6712DF7] [4775148D]
 04   87,3 [F6F7585C] [ABADC355]
 05  100,0 [7E5819C2] [9C8C7318]
 06   97,9 [C5A76D85] [9FC7C213]
 07  100,0 [DCB9A36F] [0C297573]
 08   97,9 [540B9E6F] [1E85082D]
 09   97,9 [CB121377] [FAC397FD]
 10   97,9 [C241420B] [0EFE0594]
 11   97,9 [9CAE266E] [496A95FB]
 12   97,9 [6445247C] [5133B8D7]
 13   97,9 [6CEA0D05] [1187A39D]
 14   97,9 [95315B2F] [7E61F540]
 15   97,9 [1512A757] [310C707A]
 16   97,9 [70AAA8AB] [49F99405]
 17   97,9 [0D617526] [83793179]
Код:
-----------------------
DON'T MODIFY THIS FILE
-----------------------
PERFORMER: auCDtect Task Manager, ver. 1.5.1RC6 build 1.5.1.7
Copyright (c) 2008-2010 y-soft. All rights reserved
[url=http://y-soft.org]http://y-soft.org[/url]
ANALYZER: auCDtect: CD records authenticity detector, version 0.8.2
Copyright (c) 2004 Oleg Berngardt. All rights reserved.
Copyright (c) 2004 Alexander Djourik. All rights reserved.
FILE: Keimzeit - Nachtvorstellung - Live CD2.flac
  Size: 498079009 Hash: 7B83B4B4D43BF2387E29428BC680D6F7 Accuracy: -m0
  Conclusion: CDDA 100%
  Signature: C22F10331B916D5F6FB99FF3D21B2BC1BFD7909B
[CUETools log; Date: 29.11.2012 15:58:24; Version: 2.1.4]
[CTDB TOCID: ljvOxcGNR5PCiRUoSMDP5PFAQQI-] found.
Track | CTDB Status
  1   | (6/6) Accurately ripped
  2   | (6/6) Accurately ripped
  3   | (5/6) Accurately ripped
  4   | (6/6) Accurately ripped
  5   | (6/6) Accurately ripped
  6   | (6/6) Accurately ripped
  7   | (6/6) Accurately ripped
  8   | (5/6) Accurately ripped
  9   | (5/6) Accurately ripped
 10   | (5/6) Accurately ripped
 11   | (6/6) Accurately ripped
 12   | (6/6) Accurately ripped
 13   | (6/6) Accurately ripped
 14   | (6/6) Accurately ripped
[AccurateRip ID: 001eddca-016077ef-c611450e] found.
Track   [  CRC   |   V2   ] Status
 01     [8dbcce55|abe78427] (08+00/10) Accurately ripped
 02     [c025f756|aa82e4af] (08+00/08) Accurately ripped
 03     [7e95c34e|459d6bff] (08+00/10) Accurately ripped
 04     [d63d9f4b|d9f01986] (09+00/11) Accurately ripped
 05     [46479983|271170b7] (08+00/10) Accurately ripped
 06     [d526aed6|c802f3a5] (08+00/10) Accurately ripped
 07     [a99da7da|61f40423] (08+00/10) Accurately ripped
 08     [b9db7b87|58336d0f] (08+00/10) Accurately ripped
 09     [ec059dba|9053e4d1] (08+00/10) Accurately ripped
 10     [70b928f5|0d3d9fb9] (08+00/10) Accurately ripped
 11     [dd1d5c4f|750707a2] (08+00/10) Accurately ripped
 12     [afc49669|7ed7d44b] (08+00/10) Accurately ripped
 13     [23a53215|92906d09] (08+00/10) Accurately ripped
 14     [4fea0b3c|12a6b0ab] (08+00/10) Accurately ripped
Offsetted by -667:
 01     [8bccff47] (02/10) Accurately ripped
 02     [ca704eff] (00/08) No match (V2 was not tested)
 03     [5d46f5de] (02/10) Accurately ripped
 04     [57ef70f9] (02/11) Accurately ripped
 05     [4663d1dd] (02/10) Accurately ripped
 06     [28df0370] (02/10) Accurately ripped
 07     [ccab8c17] (02/10) Accurately ripped
 08     [de9cc3a0] (02/10) Accurately ripped
 09     [f0c80088] (02/10) Accurately ripped
 10     [b06810b2] (02/10) Accurately ripped
 11     [dde9c4bd] (02/10) Accurately ripped
 12     [c81ca715] (02/10) Accurately ripped
 13     [d44b05ca] (02/10) Accurately ripped
 14     [08ae6425] (02/10) Accurately ripped
Track Peak [ CRC32  ] [W/O NULL] [  LOG   ]
 --  100,0 [F882D7EB] [E4E5EABB]   CRC32
 01  100,0 [F2B3A1A6] [37E4607B]
 02   97,5 [DBE5E94F] [901AF244]
 03   97,5 [84224EE7] [4AFDE748]
 04   97,6 [BACE024F] [8B5D4F01]
 05   97,4 [213DEE78] [F5C8F6FD]
 06   97,4 [DFFC9DDA] [2B885B70]
 07   97,5 [773A4424] [F1BBC1C9]
 08   97,5 [D6891361] [015AADF6]
 09  100,0 [5DF9F682] [180C6161]
 10   97,6 [645881FF] [0881056C]
 11   97,4 [7B003315] [4CDDC60C]
 12   97,7 [1A13A47B] [224EA491]
 13  100,0 [0DF8C7CB] [4BAC900B]
 14   97,3 [3359B331] [C3E537A1]
Дополнительно:
Правила, инструкции, FAQ!!!
Торрент  Добавлен [26 мар 2019, 18:41] Скачать торрент Магнет ссылка
Скачать торрент
[ Размер 27.38 КБ / Просмотров 1 ]

Статус
Проверен 
 
Размер  3.91 ГБ
Приватный: Нет (DHT включён)
.torrent скачан  0
 


     Отправить личное сообщение
   
Страница 1 из 1
Показать сообщения за:  Поле сортировки  
Начать новую тему Ответить на тему


Сейчас этот форум просматривают: нет зарегистрированных пользователей и гости: 0


Вы не можете начинать темы
Вы не можете отвечать на сообщения
Вы не можете редактировать свои сообщения
Вы не можете удалять свои сообщения
Вы не можете добавлять вложения

Перейти:  
cron