Начать новую тему Ответить на тему
Статистика раздачи
Размер: 279.58 МБ | Добавлен: 26 мар 2019, 19:41 | Скачали: 0
Сидеров: 0  [0 байт/сек]    Личеров: 0  [0 байт/сек]
Пред. тема | След. тема 

Автор
Сообщение

СообщениеДобавлено: 26 мар 2019, 19:41 

Ответить с цитатой 

Katrina & The Waves / Pet The Tiger
Жанр: Pop Rock
Носитель: CD
Страна-производитель диска (релиза): Germany
Год издания: 1991
Издатель (лейбл): Virgin
Номер по каталогу: 261 947 (CDVIR 9)
Страна исполнителя (группы): England / US
Аудиокодек: FLAC (*.flac)
Тип рипа: image+.cue
Битрейт аудио: lossless
Продолжительность: 00:38:28
Источник (релизер): CD
Наличие сканов в содержимом раздачи: да
Треклист:
1. Birkenhead Garbage Pickers 3:29
2. Tin Horse 4:34
3. Pet The Tiger 3:57
4. Tears Of A Woman 4:02
5. I'll Do Anthing 4:23
6. I Really Taught Me To Watusi 3:39
7. S.W.A.L.K. 3:36
8. Blue Water Blues 3:56
9. I Caught The Milktrain (He Took The Deux Cheveaux) 3:29
10. I Can't Stand Myself (Whenever Your'e Near Me) 3:21
Код:
Exact Audio Copy V1.1 from 23. June 2015
EAC extraction logfile from 16. January 2016, 16:18
Katrina & The Waves / Pet the Tiger
Used drive  : Optiarc DVD RW AD-5280S   Adapter: 1  ID: 0
Read mode               : Secure
Utilize accurate stream : Yes
Defeat audio cache      : Yes
Make use of C2 pointers : No
Read offset correction                      : 48
Overread into Lead-In and Lead-Out          : No
Fill up missing offset samples with silence : Yes
Delete leading and trailing silent blocks   : No
Null samples used in CRC calculations       : Yes
Used interface                              : Native Win32 interface for Win NT & 2000
Used output format              : User Defined Encoder
Selected bitrate                : 896 kBit/s
Quality                         : High
Add ID3 tag                     : No
Command line compressor         : C:\Program Files (x86)\Exact Audio Copy\Flac\flac.exe
Additional command line options : -V -8 -T "Date=%year%" -T "Genre=%genre%" %source%
TOC of the extracted CD
     Track |   Start  |  Length  | Start sector | End sector
    ---------------------------------------------------------
        1  |  0:00.33 |  3:29.25 |        33    |    15732
        2  |  3:29.58 |  4:34.25 |     15733    |    36307
        3  |  8:04.08 |  3:57.25 |     36308    |    54107
        4  | 12:01.33 |  4:02.00 |     54108    |    72257
        5  | 16:03.33 |  4:23.00 |     72258    |    91982
        6  | 20:26.33 |  3:39.00 |     91983    |   108407
        7  | 24:05.33 |  3:36.25 |    108408    |   124632
        8  | 27:41.58 |  3:56.25 |    124633    |   142357
        9  | 31:38.08 |  3:29.00 |    142358    |   158032
       10  | 35:07.08 |  3:21.20 |    158033    |   173127
Range status and errors
Selected range
     Filename F:\МУЗЫКА\Katrina & The Waves - Pet The Tiger 1991\Katrina & The Waves - Pet the Tiger.wav
     Peak level 95.7 %
     Extraction speed 3.5 X
     Range quality 99.9 %
     Test CRC DE72377C
     Copy CRC DE72377C
     Copy OK
No errors occurred
AccurateRip summary
Track  1  accurately ripped (confidence 11)  [85C68FD4]  (AR v2)
Track  2  accurately ripped (confidence 11)  [C9AF0876]  (AR v2)
Track  3  accurately ripped (confidence 11)  [19805BEF]  (AR v2)
Track  4  accurately ripped (confidence 11)  [618DCA55]  (AR v2)
Track  5  accurately ripped (confidence 11)  [160DF238]  (AR v2)
Track  6  accurately ripped (confidence 11)  [5C364164]  (AR v2)
Track  7  accurately ripped (confidence 11)  [26407F4D]  (AR v2)
Track  8  accurately ripped (confidence 11)  [126980FE]  (AR v2)
Track  9  accurately ripped (confidence 11)  [E90E2E9F]  (AR v2)
Track 10  accurately ripped (confidence 11)  [5D4B9F49]  (AR v2)
All tracks accurately ripped
End of status report
---- CUETools DB Plugin V2.1.6
[CTDB TOCID: qPVqrjskoCWQm94J.iE.IXUGeqc-] found
Submit result: qPVqrjskoCWQm94J.iE.IXUGeqc- has been confirmed
Track | CTDB Status
  1   | (1/1) Accurately ripped
  2   | (1/1) Accurately ripped
  3   | (1/1) Accurately ripped
  4   | (1/1) Accurately ripped
  5   | (1/1) Accurately ripped
  6   | (1/1) Accurately ripped
  7   | (1/1) Accurately ripped
  8   | (1/1) Accurately ripped
  9   | (1/1) Accurately ripped
 10   | (1/1) Accurately ripped
==== Log checksum A5313A0CB755EF14BD8072331A5FC7F71EAB5F9A40F27553CE47663ADB24F70C ====
Правила, инструкции, FAQ!!!
Торрент  Добавлен [26 мар 2019, 19:41] Скачать торрент Магнет ссылка
Скачать торрент
[ Размер 11.9 КБ / Просмотров 9 ]

Статус
Проверен 
 
Размер  279.58 МБ
Приватный: Нет (DHT включён)
.torrent скачан  0
 


     Отправить личное сообщение
   
Страница 1 из 1
Показать сообщения за:  Поле сортировки  
Начать новую тему Ответить на тему


Сейчас этот форум просматривают: нет зарегистрированных пользователей и гости: 0


Вы не можете начинать темы
Вы не можете отвечать на сообщения
Вы не можете редактировать свои сообщения
Вы не можете удалять свои сообщения
Вы не можете добавлять вложения

Перейти:  
cron