Начать новую тему Ответить на тему
Статистика раздачи
Размер: 329.59 МБ | Добавлен: 26 мар 2019, 19:15 | Скачали: 0
Сидеров: 2  [0 байт/сек]    Личеров: 0  [0 байт/сек]
Пред. тема | След. тема 

Автор
Сообщение

СообщениеДобавлено: 26 мар 2019, 19:15 

Ответить с цитатой 

Kasia Kowalska / Samotna w wielkim miescie
Жанр: Pop-Rock
Страна-производитель диска: Poland
Год издания: 2004
Издатель (лейбл): Universal
Страна: Poland
Аудиокодек: FLAC (*.flac)
Тип рипа: tracks+.cue
Битрейт аудио: lossless
Источник (релизер): собственный рип
Наличие сканов в содержимом раздачи: нет
Треклист:
1. Ciesz się tym dniem
2. Samotnie spędzę noc
3. Filiżanka prawdy
4. To, co dobre
5. Świat otępiały
6. Prowadź mnie
7. Korowody marzeń
8. Wilczy apetyt
9. Domek z kart
10. Masochizm serc
11. Dokąd mam biec
Код:
Exact Audio Copy V1.0 beta 3 from 29. August 2011
EAC extraction logfile from 6. March 2013, 14:56
Kasia Kowalska / Samotna w wielkim miescie
Used drive  : Optiarc DVD RW AD-5240S   Adapter: 1  ID: 0
Read mode               : Secure
Utilize accurate stream : Yes
Defeat audio cache      : Yes
Make use of C2 pointers : No
Read offset correction                      : 48
Overread into Lead-In and Lead-Out          : No
Fill up missing offset samples with silence : Yes
Delete leading and trailing silent blocks   : No
Null samples used in CRC calculations       : Yes
Used interface                              : Native Win32 interface for Win NT & 2000
Gap handling                                : Appended to previous track
Used output format              : User Defined Encoder
Selected bitrate                : 128 kBit/s
Quality                         : High
Add ID3 tag                     : Yes
Command line compressor         : C:\Program Files\Exact Audio Copy\Flac\flac.exe
Additional command line options : -V -8 -T "Genre=%genre%" -T "Artist=%artist%" -T "Title=%title%" -T "Album=%albumtitle%" -T "Date=%year%" -T "Tracknumber=%tracknr%" -T "Comment=%comment%" %source%
TOC of the extracted CD
     Track |   Start  |  Length  | Start sector | End sector
    ---------------------------------------------------------
        1  |  0:00.00 |  3:59.34 |         0    |    17958
        2  |  3:59.34 |  4:29.72 |     17959    |    38205
        3  |  8:29.31 |  3:38.26 |     38206    |    54581
        4  | 12:07.57 |  3:35.04 |     54582    |    70710
        5  | 15:42.61 |  4:48.66 |     70711    |    92376
        6  | 20:31.52 |  4:14.70 |     92377    |   111496
        7  | 24:46.47 |  3:22.07 |    111497    |   126653
        8  | 28:08.54 |  3:44.09 |    126654    |   143462
        9  | 31:52.63 |  3:59.32 |    143463    |   161419
       10  | 35:52.20 |  3:34.13 |    161420    |   177482
       11  | 39:26.33 |  8:08.65 |    177483    |   214147
Track  1
     Filename E:\Music\Polish\Kasia Kowalska - Samotna W Wielkim Miescie (2004) [FLAC]\01 Ciesz sie tym dniem.wav
     Pre-gap length  0:00:02.00
     Peak level 69.2 %
     Extraction speed 1.3 X
     Track quality 100.0 %
     Test CRC 9BF3B6D0
     Copy CRC 9BF3B6D0
     Copy OK
Track  2
     Filename E:\Music\Polish\Kasia Kowalska - Samotna W Wielkim Miescie (2004) [FLAC]\02 Samotnie spedze noc.wav
     Peak level 64.5 %
     Extraction speed 1.5 X
     Track quality 100.0 %
     Test CRC 2928C091
     Copy CRC 2928C091
     Copy OK
Track  3
     Filename E:\Music\Polish\Kasia Kowalska - Samotna W Wielkim Miescie (2004) [FLAC]\03 Filizanka prawdy.wav
     Peak level 65.7 %
     Extraction speed 1.5 X
     Track quality 100.0 %
     Test CRC CB0B7FAC
     Copy CRC CB0B7FAC
     Copy OK
Track  4
     Filename E:\Music\Polish\Kasia Kowalska - Samotna W Wielkim Miescie (2004) [FLAC]\04 To, co dobre.wav
     Peak level 99.9 %
     Extraction speed 1.6 X
     Track quality 100.0 %
     Test CRC 697D0A06
     Copy CRC 697D0A06
     Copy OK
Track  5
     Filename E:\Music\Polish\Kasia Kowalska - Samotna W Wielkim Miescie (2004) [FLAC]\05 Swiat otepialy.wav
     Peak level 65.2 %
     Extraction speed 1.8 X
     Track quality 100.0 %
     Test CRC 0C8AC5BC
     Copy CRC 0C8AC5BC
     Copy OK
Track  6
     Filename E:\Music\Polish\Kasia Kowalska - Samotna W Wielkim Miescie (2004) [FLAC]\06 Prowadz mnie.wav
     Peak level 63.5 %
     Extraction speed 1.7 X
     Track quality 99.9 %
     Test CRC 074C00A5
     Copy CRC 074C00A5
     Copy OK
Track  7
     Filename E:\Music\Polish\Kasia Kowalska - Samotna W Wielkim Miescie (2004) [FLAC]\07 Korowody marzen.wav
     Peak level 56.3 %
     Extraction speed 1.9 X
     Track quality 100.0 %
     Test CRC 54166D21
     Copy CRC 54166D21
     Copy OK
Track  8
     Filename E:\Music\Polish\Kasia Kowalska - Samotna W Wielkim Miescie (2004) [FLAC]\08 Wilczy apetyt.wav
     Peak level 67.7 %
     Extraction speed 1.8 X
     Track quality 99.9 %
     Test CRC D03C0649
     Copy CRC D03C0649
     Copy OK
Track  9
     Filename E:\Music\Polish\Kasia Kowalska - Samotna W Wielkim Miescie (2004) [FLAC]\09 Domek z kart.wav
     Peak level 67.3 %
     Extraction speed 2.1 X
     Track quality 100.0 %
     Test CRC 14602876
     Copy CRC 14602876
     Copy OK
Track 10
     Filename E:\Music\Polish\Kasia Kowalska - Samotna W Wielkim Miescie (2004) [FLAC]\10 Masochizm serc.wav
     Peak level 65.7 %
     Extraction speed 1.4 X
     Track quality 99.7 %
     Test CRC 83D2359A
     Copy CRC 83D2359A
     Copy OK
Track 11
     Filename E:\Music\Polish\Kasia Kowalska - Samotna W Wielkim Miescie (2004) [FLAC]\11 Dokad mam biec.wav
     Peak level 84.1 %
     Extraction speed 2.8 X
     Track quality 99.8 %
     Test CRC C3234D03
     Copy CRC C3234D03
     Copy OK
No errors occurred
End of status report
==== Log checksum B4471F39999C1C7A087E6DCCFC8B022F1B4DD57447CB64FF87C868806F12418B ====
Код:
REM GENRE Rock
REM DATE 2004
REM DISCID FB127013
REM COMMENT "ExactAudioCopy v1.0b3"
PERFORMER "Kasia Kowalska"
TITLE "Samotna w wielkim miescie"
FILE "01 Ciesz sie tym dniem.wav" WAVE
  TRACK 01 AUDIO
    TITLE "Ciesz sie tym dniem"
    PERFORMER "Kasia Kowalska"
    INDEX 01 00:00:00
FILE "02 Samotnie spedze noc.wav" WAVE
  TRACK 02 AUDIO
    TITLE "Samotnie spedze noc"
    PERFORMER "Kasia Kowalska"
    INDEX 01 00:00:00
FILE "03 Filizanka prawdy.wav" WAVE
  TRACK 03 AUDIO
    TITLE "Filizanka prawdy"
    PERFORMER "Kasia Kowalska"
    INDEX 01 00:00:00
FILE "04 To, co dobre.wav" WAVE
  TRACK 04 AUDIO
    TITLE "To, co dobre"
    PERFORMER "Kasia Kowalska"
    INDEX 01 00:00:00
FILE "05 Swiat otepialy.wav" WAVE
  TRACK 05 AUDIO
    TITLE "Swiat otepialy"
    PERFORMER "Kasia Kowalska"
    INDEX 01 00:00:00
FILE "06 Prowadz mnie.wav" WAVE
  TRACK 06 AUDIO
    TITLE "Prowadz mnie"
    PERFORMER "Kasia Kowalska"
    INDEX 01 00:00:00
FILE "07 Korowody marzen.wav" WAVE
  TRACK 07 AUDIO
    TITLE "Korowody marzen"
    PERFORMER "Kasia Kowalska"
    INDEX 01 00:00:00
FILE "08 Wilczy apetyt.wav" WAVE
  TRACK 08 AUDIO
    TITLE "Wilczy apetyt"
    PERFORMER "Kasia Kowalska"
    INDEX 01 00:00:00
FILE "09 Domek z kart.wav" WAVE
  TRACK 09 AUDIO
    TITLE "Domek z kart"
    PERFORMER "Kasia Kowalska"
    INDEX 01 00:00:00
FILE "10 Masochizm serc.wav" WAVE
  TRACK 10 AUDIO
    TITLE "Masochizm serc"
    PERFORMER "Kasia Kowalska"
    INDEX 01 00:00:00
FILE "11 Dokad mam biec.wav" WAVE
  TRACK 11 AUDIO
    TITLE "Dokad mam biec"
    PERFORMER "Kasia Kowalska"
    INDEX 01 00:00:00
Правила, инструкции, FAQ!!!
Торрент  Добавлен [26 мар 2019, 19:15] Скачать торрент Магнет ссылка
Скачать торрент
[ Размер 14.16 КБ / Просмотров 5 ]

Статус
Проверен 
 
Размер  329.59 МБ
Приватный: Нет (DHT включён)
.torrent скачан  0
 


     Отправить личное сообщение
   
Страница 1 из 1
Показать сообщения за:  Поле сортировки  
Начать новую тему Ответить на тему


Сейчас этот форум просматривают: нет зарегистрированных пользователей и гости: 0


Вы не можете начинать темы
Вы не можете отвечать на сообщения
Вы не можете редактировать свои сообщения
Вы не можете удалять свои сообщения
Вы не можете добавлять вложения

Перейти:  
cron