Начать новую тему Ответить на тему
Статистика раздачи
Размер: 291.13 МБ | Добавлен: 26 мар 2019, 19:15 | Скачали: 0
Сидеров: 0  [0 байт/сек]    Личеров: 0  [0 байт/сек]
Пред. тема | След. тема 

Автор
Сообщение

СообщениеДобавлено: 26 мар 2019, 19:15 

Ответить с цитатой 

Kaija Koo - Mikään Ei Riitä
Жанр: Pop Rock
Носитель: CD
Год издания: 2002
Издатель (лейбл): Universal
Номер по каталогу: 017 745-2
Аудиокодек: FLAC (*.flac)
Тип рипа: image+.cue
Битрейт аудио: lossless
Продолжительность: 00:41:01
Источник (релизер): Sibelius (What.cd)
Наличие сканов в содержимом раздачи: нет
Треклист:
01. Yhtä Kaikki
02. Hakaniemen Pitkä Silta
03. Mikään Ei Riitä
04. Saa Koskettaa
05. Hallelujaa
06. O-Ou
07. Et Voi Satuttaa Enää
08. Nuku Pois
09. Sä Oot Täällä Tänään
10. Mitä Jäljelle Jää
11. Siellä Jossain
Код:
Exact Audio Copy V1.0 beta 3 from 29. August 2011
EAC extraction logfile from 14. November 2012, 3:17
Kaija Koo / Mikään Ei Riitä
Used drive  : HL-DT-STBD-RE  BH10LS30   Adapter: 3  ID: 0
Read mode               : Secure
Utilize accurate stream : Yes
Defeat audio cache      : Yes
Make use of C2 pointers : No
Read offset correction                      : 667
Overread into Lead-In and Lead-Out          : No
Fill up missing offset samples with silence : Yes
Delete leading and trailing silent blocks   : No
Null samples used in CRC calculations       : Yes
Used interface                              : Native Win32 interface for Win NT & 2000
Gap handling                                : Appended to previous track
Used output format              : User Defined Encoder
Selected bitrate                : 1024 kBit/s
Quality                         : High
Add ID3 tag                     : No
Command line compressor         : C:\Program Files (x86)\Exact Audio Copy\Flac\flac.exe
Additional command line options : -8 -V -T "ARTIST=%artist%" -T "TITLE=%title%" -T "ALBUM=%albumtitle%" -T "DATE=%year%" -T "TRACKNUMBER=%tracknr%" -T "GENRE=%genre%" -T "PERFORMER=%albuminterpret%" -T "COMPOSER=%composer%" %haslyrics%--tag-from-file=LYRICS="%lyricsfile%"%haslyrics% -T "ALBUMARTIST=%albumartist%" -T "DISCNUMBER=%cdnumber%" -T "TOTALDISCS=%totalcds%" -T "TOTALTRACKS=%numtracks%" -T "COMMENT=%comment%" %source% -o %dest%
TOC of the extracted CD
     Track |   Start  |  Length  | Start sector | End sector
    ---------------------------------------------------------
        1  |  0:00.00 |  3:11.67 |         0    |    14391
        2  |  3:11.67 |  3:40.15 |     14392    |    30906
        3  |  6:52.07 |  3:57.51 |     30907    |    48732
        4  | 10:49.58 |  3:46.30 |     48733    |    65712
        5  | 14:36.13 |  4:00.30 |     65713    |    83742
        6  | 18:36.43 |  3:48.73 |     83743    |   100915
        7  | 22:25.41 |  4:25.24 |    100916    |   120814
        8  | 26:50.65 |  3:30.61 |    120815    |   136625
        9  | 30:21.51 |  4:32.00 |    136626    |   157025
       10  | 34:53.51 |  3:19.45 |    157026    |   171995
       11  | 38:13.21 |  2:53.07 |    171996    |   184977
Track  1
     Filename C:\EAC Rips\Kaija Koo - Mikään ei riitä (2002) [FLAC]\01 Yhtä Kaikki.wav
     Pre-gap length  0:00:02.00
     Peak level 97.6 %
     Extraction speed 0.9 X
     Track quality 99.9 %
     Test CRC 63CB0F69
     Copy CRC 63CB0F69
     Accurately ripped (confidence 1)  [F80CEE2D]  (AR v1)
     Copy OK
Track  2
     Filename C:\EAC Rips\Kaija Koo - Mikään ei riitä (2002) [FLAC]\02 Hakaniemen Pitkä Silta.wav
     Pre-gap length  0:00:01.00
     Peak level 97.6 %
     Extraction speed 1.2 X
     Track quality 100.0 %
     Test CRC BED380A1
     Copy CRC BED380A1
     Accurately ripped (confidence 1)  [AEC1ECF6]  (AR v1)
     Copy OK
Track  3
     Filename C:\EAC Rips\Kaija Koo - Mikään ei riitä (2002) [FLAC]\03 Mikään Ei Riitä.wav
     Pre-gap length  0:00:01.48
     Peak level 97.6 %
     Extraction speed 1.3 X
     Track quality 99.9 %
     Test CRC 765CB8D2
     Copy CRC 765CB8D2
     Accurately ripped (confidence 1)  [8BB55719]  (AR v1)
     Copy OK
Track  4
     Filename C:\EAC Rips\Kaija Koo - Mikään ei riitä (2002) [FLAC]\04 Saa Koskettaa.wav
     Pre-gap length  0:00:01.13
     Peak level 95.0 %
     Extraction speed 1.4 X
     Track quality 99.9 %
     Test CRC 1AEE4988
     Copy CRC 1AEE4988
     Accurately ripped (confidence 1)  [30024D04]  (AR v1)
     Copy OK
Track  5
     Filename C:\EAC Rips\Kaija Koo - Mikään ei riitä (2002) [FLAC]\05 Hallelujaa.wav
     Peak level 97.6 %
     Extraction speed 1.7 X
     Track quality 100.0 %
     Test CRC 41E0EC07
     Copy CRC 41E0EC07
     Accurately ripped (confidence 1)  [D79CB5EE]  (AR v1)
     Copy OK
Track  6
     Filename C:\EAC Rips\Kaija Koo - Mikään ei riitä (2002) [FLAC]\06 O-Ou.wav
     Peak level 93.1 %
     Extraction speed 1.8 X
     Track quality 100.0 %
     Test CRC 11D2FFDF
     Copy CRC 11D2FFDF
     Accurately ripped (confidence 1)  [BE861A2F]  (AR v1)
     Copy OK
Track  7
     Filename C:\EAC Rips\Kaija Koo - Mikään ei riitä (2002) [FLAC]\07 Et Voi Satuttaa Enää.wav
     Pre-gap length  0:00:01.65
     Peak level 97.6 %
     Extraction speed 1.9 X
     Track quality 100.0 %
     Test CRC A6113E23
     Copy CRC A6113E23
     Accurately ripped (confidence 1)  [0B3755A4]  (AR v1)
     Copy OK
Track  8
     Filename C:\EAC Rips\Kaija Koo - Mikään ei riitä (2002) [FLAC]\08 Nuku Pois.wav
     Peak level 95.5 %
     Extraction speed 1.7 X
     Track quality 99.9 %
     Test CRC 759C5F1C
     Copy CRC 759C5F1C
     Accurately ripped (confidence 1)  [06890A97]  (AR v1)
     Copy OK
Track  9
     Filename C:\EAC Rips\Kaija Koo - Mikään ei riitä (2002) [FLAC]\09 Sä Oot Täällä Tänään.wav
     Pre-gap length  0:00:02.09
     Peak level 97.6 %
     Extraction speed 2.1 X
     Track quality 100.0 %
     Test CRC 42D0025F
     Copy CRC 42D0025F
     Accurately ripped (confidence 1)  [6EA74D74]  (AR v1)
     Copy OK
Track 10
     Filename C:\EAC Rips\Kaija Koo - Mikään ei riitä (2002) [FLAC]\10 Mitä Jäljelle Jää.wav
     Peak level 97.6 %
     Extraction speed 2.1 X
     Track quality 100.0 %
     Test CRC 6604FABE
     Copy CRC 6604FABE
     Accurately ripped (confidence 1)  [21DE5C93]  (AR v1)
     Copy OK
Track 11
     Filename C:\EAC Rips\Kaija Koo - Mikään ei riitä (2002) [FLAC]\11 Siellä Jossain.wav
     Pre-gap length  0:00:01.21
     Peak level 97.6 %
     Extraction speed 2.1 X
     Track quality 100.0 %
     Test CRC DDABB493
     Copy CRC DDABB493
     Accurately ripped (confidence 1)  [A57E7ADD]  (AR v1)
     Copy OK
All tracks accurately ripped
No errors occurred
End of status report
---- CUETools DB Plugin V2.1.3
[CTDB TOCID: CtNyj0KRqbdvyr3RN73blkStXwM-] found, Submit result: CtNyj0KRqbdvyr3RN73blkStXwM- has been confirmed
[221d0dc3] (3/3) Accurately ripped
==== Log checksum C1160D0C414031D138BDC02272FE70DBEC88D8F972F1A8AC2834AB6C63F8DBCD ====
Код:
REM GENRE Pop
REM DATE 2002
REM DISCID 8F09A20B
REM COMMENT "ExactAudioCopy v1.0b3"
PERFORMER "Kaija Koo"
TITLE "Mikддn Ei Riitд"
FILE "01 Yhtд Kaikki.wav" WAVE
  TRACK 01 AUDIO
    TITLE "Yhtд Kaikki"
    PERFORMER "Kaija Koo"
    ISRC FIPFP0200060
    INDEX 01 00:00:00
  TRACK 02 AUDIO
    TITLE "Hakaniemen Pitkд Silta"
    PERFORMER "Kaija Koo"
    ISRC FIPFP0200061
    INDEX 00 03:10:67
FILE "02 Hakaniemen Pitkд Silta.wav" WAVE
    INDEX 01 00:00:00
  TRACK 03 AUDIO
    TITLE "Mikддn Ei Riitд"
    PERFORMER "Kaija Koo"
    ISRC FIPFP0200040
    INDEX 00 03:38:54
FILE "03 Mikддn Ei Riitд.wav" WAVE
    INDEX 01 00:00:00
  TRACK 04 AUDIO
    TITLE "Saa Koskettaa"
    PERFORMER "Kaija Koo"
    ISRC FIPFP0200062
    INDEX 00 03:56:41
FILE "04 Saa Koskettaa.wav" WAVE
    INDEX 01 00:00:00
FILE "05 Hallelujaa.wav" WAVE
  TRACK 05 AUDIO
    TITLE "Hallelujaa"
    PERFORMER "Kaija Koo"
    ISRC FIPFP0200063
    INDEX 01 00:00:00
FILE "06 O-Ou.wav" WAVE
  TRACK 06 AUDIO
    TITLE "O-Ou"
    PERFORMER "Kaija Koo"
    ISRC FIPFP0200064
    INDEX 01 00:00:00
  TRACK 07 AUDIO
    TITLE "Et Voi Satuttaa Enдд"
    PERFORMER "Kaija Koo"
    ISRC FIPFP0200065
    INDEX 00 03:47:24
FILE "07 Et Voi Satuttaa Enдд.wav" WAVE
    INDEX 01 00:00:00
FILE "08 Nuku Pois.wav" WAVE
  TRACK 08 AUDIO
    TITLE "Nuku Pois"
    PERFORMER "Kaija Koo"
    ISRC FIPFP0200066
    INDEX 01 00:00:00
  TRACK 09 AUDIO
    TITLE "Sд Oot Tддllд Tдnддn"
    PERFORMER "Kaija Koo"
    ISRC FIPFP0200067
    INDEX 00 03:28:54
FILE "09 Sд Oot Tддllд Tдnддn.wav" WAVE
    INDEX 01 00:00:00
FILE "10 Mitд Jдljelle Jдд.wav" WAVE
  TRACK 10 AUDIO
    TITLE "Mitд Jдljelle Jдд"
    PERFORMER "Kaija Koo"
    ISRC FIPFP0200068
    INDEX 01 00:00:00
  TRACK 11 AUDIO
    TITLE "Siellд Jossain"
    PERFORMER "Kaija Koo"
    ISRC FIPFP0200069
    INDEX 00 03:18:29
FILE "11 Siellд Jossain.wav" WAVE
    INDEX 01 00:00:00
Правила, инструкции, FAQ!!!
Торрент  Добавлен [26 мар 2019, 19:15] Скачать торрент Магнет ссылка
Скачать торрент
[ Размер 2.7 КБ / Просмотров 3 ]

Статус
Проверен 
 
Размер  291.13 МБ
Приватный: Нет (DHT включён)
.torrent скачан  0
 


     Отправить личное сообщение
   
Страница 1 из 1
Показать сообщения за:  Поле сортировки  
Начать новую тему Ответить на тему


Сейчас этот форум просматривают: нет зарегистрированных пользователей и гости: 0


Вы не можете начинать темы
Вы не можете отвечать на сообщения
Вы не можете редактировать свои сообщения
Вы не можете удалять свои сообщения
Вы не можете добавлять вложения

Перейти:  
cron