Начать новую тему Ответить на тему
Статистика раздачи
Размер: 469.7 МБ | Добавлен: 26 мар 2019, 19:58 | Скачали: 0
Сидеров: 0  [0 байт/сек]    Личеров: 0  [0 байт/сек]
Пред. тема | След. тема 

Автор
Сообщение

СообщениеДобавлено: 26 мар 2019, 19:58 

Ответить с цитатой 

John Bromley - Songs: The complete Sing album plus singles, demos & out-takes
Жанр: Pop Rock
Страна-производитель диска: EU
Год издания диска: 2009
Издатель (лейбл): Rev-Ola
Номер по каталогу: CR REV 281
Страна: UK
Аудиокодек: FLAC (*.flac)
Тип рипа: tracks+.cue
Битрейт аудио: lossless
Продолжительность: 01:12:41
Источник (релизер): суслик
Наличие сканов в содержимом раздачи:
Треклист:
Sings (1969):
01. Only Foolish People 02:46
02. Melody Fayre 02:17
03. So Many Things 02:19
04. If You Are There With Me 03:10
05. Sugar Love 02:08
06. Old Time Mover 02:34
07. What Do You Think Of Me 01:55
08. What A Woman Does 02:51
09. Weather Man 03:04
10. I'm Gonna Love You Till I Die 02:54
11. Natural Born Loser 02:31
12. And The Feeling Goes 02:13
Bonus Songs:
13. Only Foolish People (demo)* 02:58
14. My My (non-album B-side) 02:44
15. Weatherman (demo)* 03:01
16. Melody Fayre (demo)* 01:56
17. And the Feeling Goes (demo)* 03:02
18. For Once In My Life (demo)* 02:51
19. Just A Little Bit Of Love (demo)* 02:30
20. Hold Me Woman (demo)* 02:52
21. All The People In The World (demo)* 01:51
22. Darby & McKenny (demo)* 01:51
23. Comic Coversation (demo)* 03:35
24. Isn't This A Lovely Day? (demo)* 02:49
25. This World's An Apple (demo)* 02:05
26. Wonderland Avenue USA (non-LP single) 02:12
27. Kick A Tin Can (non-LP B-side) 02:57
28. I Love Them All (demo)* 02:45
* previously unreleased
Код:
X Lossless Decoder version 20131102 (145.0)
XLD extraction logfile from 2014-02-26 15:17:54 -0500
John Bromley / Songs
Used drive : MATSHITA DVD-R   UJ-898 (revision HC10)
Media type : Pressed CD
Ripper mode             : XLD Secure Ripper
Disable audio cache     : OK for the drive with a cache less than 1375KiB
Make use of C2 pointers : NO
Read offset correction  : 102
Max retry count         : 20
Gap status              : Analyzed, Appended (except HTOA)
TOC of the extracted CD
     Track |   Start  |  Length  | Start sector | End sector
    ---------------------------------------------------------
        1  | 00:00:00 | 02:46:08 |         0    |    12457
        2  | 02:46:08 | 02:17:19 |     12458    |    22751
        3  | 05:03:27 | 02:19:07 |     22752    |    33183
        4  | 07:22:34 | 03:10:37 |     33184    |    47470
        5  | 10:32:71 | 02:08:02 |     47471    |    57072
        6  | 12:40:73 | 02:34:33 |     57073    |    68655
        7  | 15:15:31 | 01:54:39 |     68656    |    77244
        8  | 17:09:70 | 02:51:03 |     77245    |    90072
        9  | 20:00:73 | 03:04:32 |     90073    |   103904
       10  | 23:05:30 | 02:54:12 |    103905    |   116966
       11  | 25:59:42 | 02:30:72 |    116967    |   128288
       12  | 28:30:39 | 02:13:27 |    128289    |   138290
       13  | 30:43:66 | 02:58:14 |    138291    |   151654
       14  | 33:42:05 | 02:43:72 |    151655    |   163951
       15  | 36:26:02 | 03:01:32 |    163952    |   177558
       16  | 39:27:34 | 01:56:27 |    177559    |   186285
       17  | 41:23:61 | 03:02:15 |    186286    |   199950
       18  | 44:26:01 | 02:51:33 |    199951    |   212808
       19  | 47:17:34 | 02:30:04 |    212809    |   224062
       20  | 49:47:38 | 02:52:18 |    224063    |   236980
       21  | 52:39:56 | 01:51:21 |    236981    |   245326
       22  | 54:31:02 | 01:51:33 |    245327    |   253684
       23  | 56:22:35 | 03:34:71 |    253685    |   269805
       24  | 59:57:31 | 02:49:33 |    269806    |   282513
       25  | 62:46:64 | 02:05:13 |    282514    |   291901
       26  | 64:52:02 | 02:11:45 |    291902    |   301771
       27  | 67:03:47 | 02:56:53 |    301772    |   315024
       28  | 70:00:25 | 02:45:36 |    315025    |   327435
AccurateRip Summary (DiscID: 0048483f-05a7f0ce-ad110d1c)
    Track 01 : OK (v1, confidence 1/1)
    Track 02 : OK (v1, confidence 1/1)
    Track 03 : OK (v1, confidence 1/1)
    Track 04 : OK (v1, confidence 1/1)
    Track 05 : OK (v1, confidence 1/1)
    Track 06 : OK (v1, confidence 1/1)
    Track 07 : OK (v1, confidence 1/1)
    Track 08 : OK (v1, confidence 1/1)
    Track 09 : OK (v1, confidence 1/1)
    Track 10 : OK (v1, confidence 1/1)
    Track 11 : OK (v1, confidence 1/1)
    Track 12 : OK (v1, confidence 1/1)
    Track 13 : OK (v1, confidence 1/1)
    Track 14 : OK (v1, confidence 1/1)
    Track 15 : OK (v1, confidence 1/1)
    Track 16 : OK (v1, confidence 1/1)
    Track 17 : OK (v1, confidence 1/1)
    Track 18 : OK (v1, confidence 1/1)
    Track 19 : OK (v1, confidence 1/1)
    Track 20 : OK (v1, confidence 1/1)
    Track 21 : OK (v1, confidence 1/1)
    Track 22 : OK (v1, confidence 1/1)
    Track 23 : OK (v1, confidence 1/1)
    Track 24 : OK (v1, confidence 1/1)
    Track 25 : OK (v1, confidence 1/1)
    Track 26 : OK (v1, confidence 1/1)
    Track 27 : OK (v1, confidence 1/1)
    Track 28 : OK (v1, confidence 1/1)
        ->All tracks accurately ripped.
All Tracks
    Album gain               : -7.43 dB
    Peak                     : 0.988525
    Statistics
        Read error                           : 0
        Jitter error (maybe fixed)           : 0
        Retry sector count                   : 0
        Damaged sector count                 : 0
Track 01
    Filename : /Volumes/everything ever /Torrents/John Bromley - Songs (2009) [FLAC]/01 Only Foolish People.flac
    Pre-gap length : 00:02:00
    Track gain               : -6.68 dB
    Peak                     : 0.988525
    CRC32 hash (test run)    : 999E1EE3
    CRC32 hash               : 999E1EE3
    CRC32 hash (skip zero)   : C7DC20DF
    AccurateRip v1 signature : A9919BBA
    AccurateRip v2 signature : 5AB5F1FE
        ->Accurately ripped (v1, confidence 1/1)
    Statistics
        Read error                           : 0
        Jitter error (maybe fixed)           : 0
        Retry sector count                   : 0
        Damaged sector count                 : 0
Track 02
    Filename : /Volumes/everything ever /Torrents/John Bromley - Songs (2009) [FLAC]/02 Melody Fayre.flac
    Pre-gap length : 00:00:33
    Track gain               : -5.79 dB
    Peak                     : 0.988525
    CRC32 hash (test run)    : AF06BE55
    CRC32 hash               : AF06BE55
    CRC32 hash (skip zero)   : F4BF8FBF
    AccurateRip v1 signature : 4C57CA6C
    AccurateRip v2 signature : 87F0AC2B
        ->Accurately ripped (v1, confidence 1/1)
    Statistics
        Read error                           : 0
        Jitter error (maybe fixed)           : 0
        Retry sector count                   : 0
        Damaged sector count                 : 0
Track 03
    Filename : /Volumes/everything ever /Torrents/John Bromley - Songs (2009) [FLAC]/03 So Many Things.flac
    Pre-gap length : 00:00:36
    Track gain               : -8.71 dB
    Peak                     : 0.988525
    CRC32 hash (test run)    : 71986F5C
    CRC32 hash               : 71986F5C
    CRC32 hash (skip zero)   : 763BE903
    AccurateRip v1 signature : A19B2BF5
    AccurateRip v2 signature : 6907BB08
        ->Accurately ripped (v1, confidence 1/1)
    Statistics
        Read error                           : 0
        Jitter error (maybe fixed)           : 0
        Retry sector count                   : 0
        Damaged sector count                 : 0
Track 04
    Filename : /Volumes/everything ever /Torrents/John Bromley - Songs (2009) [FLAC]/04 If You Are There With Me.flac
    Pre-gap length : 00:00:36
    Track gain               : -5.93 dB
    Peak                     : 0.988525
    CRC32 hash (test run)    : 85DE73FF
    CRC32 hash               : 85DE73FF
    CRC32 hash (skip zero)   : 04331E77
    AccurateRip v1 signature : A86E8255
    AccurateRip v2 signature : 28CAA9C9
        ->Accurately ripped (v1, confidence 1/1)
    Statistics
        Read error                           : 0
        Jitter error (maybe fixed)           : 0
        Retry sector count                   : 0
        Damaged sector count                 : 0
Track 05
    Filename : /Volumes/everything ever /Torrents/John Bromley - Songs (2009) [FLAC]/05 Sugar Love.flac
    Pre-gap length : 00:00:52
    Track gain               : -7.67 dB
    Peak                     : 0.988525
    CRC32 hash (test run)    : 0D6DF499
    CRC32 hash               : 0D6DF499
    CRC32 hash (skip zero)   : 9B3865D9
    AccurateRip v1 signature : 89E5D8C0
    AccurateRip v2 signature : 9B802C0A
        ->Accurately ripped (v1, confidence 1/1)
    Statistics
        Read error                           : 0
        Jitter error (maybe fixed)           : 0
        Retry sector count                   : 0
        Damaged sector count                 : 0
Track 06
    Filename : /Volumes/everything ever /Torrents/John Bromley - Songs (2009) [FLAC]/06 Old Time Mover.flac
    Pre-gap length : 00:00:51
    Track gain               : -5.15 dB
    Peak                     : 0.988525
    CRC32 hash (test run)    : FA37754F
    CRC32 hash               : FA37754F
    CRC32 hash (skip zero)   : EDBC75FA
    AccurateRip v1 signature : 94FC3FB6
    AccurateRip v2 signature : 8FC8CCB6
        ->Accurately ripped (v1, confidence 1/1)
    Statistics
        Read error                           : 0
        Jitter error (maybe fixed)           : 0
        Retry sector count                   : 0
        Damaged sector count                 : 0
Track 07
    Filename : /Volumes/everything ever /Torrents/John Bromley - Songs (2009) [FLAC]/07 What Do You Think Of Me.flac
    Pre-gap length : 00:01:20
    Track gain               : -6.09 dB
    Peak                     : 0.988525
    CRC32 hash (test run)    : D709C15F
    CRC32 hash               : D709C15F
    CRC32 hash (skip zero)   : 8B4A7E3E
    AccurateRip v1 signature : 5186C6B0
    AccurateRip v2 signature : 89DAD36B
        ->Accurately ripped (v1, confidence 1/1)
    Statistics
        Read error                           : 0
        Jitter error (maybe fixed)           : 0
        Retry sector count                   : 0
        Damaged sector count                 : 0
Track 08
    Filename : /Volumes/everything ever /Torrents/John Bromley - Songs (2009) [FLAC]/08 What A Woman Does.flac
    Pre-gap length : 00:00:55
    Track gain               : -3.38 dB
    Peak                     : 0.944916
    CRC32 hash (test run)    : 89B24E05
    CRC32 hash               : 89B24E05
    CRC32 hash (skip zero)   : DDCFE026
    AccurateRip v1 signature : 7B9DE9B3
    AccurateRip v2 signature : 4A76F6AB
        ->Accurately ripped (v1, confidence 1/1)
    Statistics
        Read error                           : 0
        Jitter error (maybe fixed)           : 0
        Retry sector count                   : 0
        Damaged sector count                 : 0
Track 09
    Filename : /Volumes/everything ever /Torrents/John Bromley - Songs (2009) [FLAC]/09 Weather Man.flac
    Pre-gap length : 00:00:68
    Track gain               : -5.68 dB
    Peak                     : 0.988525
    CRC32 hash (test run)    : 8F11816C
    CRC32 hash               : 8F11816C
    CRC32 hash (skip zero)   : AD0414D0
    AccurateRip v1 signature : 41725D89
    AccurateRip v2 signature : 05C24CDE
        ->Accurately ripped (v1, confidence 1/1)
    Statistics
        Read error                           : 0
        Jitter error (maybe fixed)           : 0
        Retry sector count                   : 0
        Damaged sector count                 : 0
Track 10
    Filename : /Volumes/everything ever /Torrents/John Bromley - Songs (2009) [FLAC]/10 I'm Gonna Love You Till I Die.flac
    Pre-gap length : 00:00:60
    Track gain               : -6.07 dB
    Peak                     : 0.988525
    CRC32 hash (test run)    : 29E2D787
    CRC32 hash               : 29E2D787
    CRC32 hash (skip zero)   : 0A6772C5
    AccurateRip v1 signature : B554429E
    AccurateRip v2 signature : E93849F2
        ->Accurately ripped (v1, confidence 1/1)
    Statistics
        Read error                           : 0
        Jitter error (maybe fixed)           : 0
        Retry sector count                   : 0
        Damaged sector count                 : 0
Track 11
    Filename : /Volumes/everything ever /Torrents/John Bromley - Songs (2009) [FLAC]/11 Natural Born Loser.flac
    Pre-gap length : 00:01:20
    Track gain               : -6.22 dB
    Peak                     : 0.988525
    CRC32 hash (test run)    : E7BBFA1E
    CRC32 hash               : E7BBFA1E
    CRC32 hash (skip zero)   : 8E5B59BD
    AccurateRip v1 signature : 5680B374
    AccurateRip v2 signature : 5E367DB1
        ->Accurately ripped (v1, confidence 1/1)
    Statistics
        Read error                           : 0
        Jitter error (maybe fixed)           : 0
        Retry sector count                   : 0
        Damaged sector count                 : 0
Track 12
    Filename : /Volumes/everything ever /Torrents/John Bromley - Songs (2009) [FLAC]/12 And The Feeling Goes.flac
    Pre-gap length : 00:00:64
    Track gain               : -5.26 dB
    Peak                     : 0.988525
    CRC32 hash (test run)    : 8AE1F9B5
    CRC32 hash               : 8AE1F9B5
    CRC32 hash (skip zero)   : 155ED867
    AccurateRip v1 signature : 470C81AF
    AccurateRip v2 signature : AAE58B10
        ->Accurately ripped (v1, confidence 1/1)
    Statistics
        Read error                           : 0
        Jitter error (maybe fixed)           : 0
        Retry sector count                   : 0
        Damaged sector count                 : 0
Track 13
    Filename : /Volumes/everything ever /Torrents/John Bromley - Songs (2009) [FLAC]/13 Only Foolish People [demo].flac
    Pre-gap length : 00:00:64
    Track gain               : -7.34 dB
    Peak                     : 0.988525
    CRC32 hash (test run)    : 4019D5A7
    CRC32 hash               : 4019D5A7
    CRC32 hash (skip zero)   : 88782223
    AccurateRip v1 signature : 903D1611
    AccurateRip v2 signature : 7EE2DEB0
        ->Accurately ripped (v1, confidence 1/1)
    Statistics
        Read error                           : 0
        Jitter error (maybe fixed)           : 0
        Retry sector count                   : 0
        Damaged sector count                 : 0
Track 14
    Filename : /Volumes/everything ever /Torrents/John Bromley - Songs (2009) [FLAC]/14 My My [non-album B-side].flac
    Pre-gap length : 00:01:33
    Track gain               : -5.44 dB
    Peak                     : 0.988525
    CRC32 hash (test run)    : 8DD10502
    CRC32 hash               : 8DD10502
    CRC32 hash (skip zero)   : 5BEEB7D2
    AccurateRip v1 signature : B0D402B5
    AccurateRip v2 signature : 18C52783
        ->Accurately ripped (v1, confidence 1/1)
    Statistics
        Read error                           : 0
        Jitter error (maybe fixed)           : 0
        Retry sector count                   : 0
        Damaged sector count                 : 0
Track 15
    Filename : /Volumes/everything ever /Torrents/John Bromley - Songs (2009) [FLAC]/15 Weatherman [demo].flac
    Pre-gap length : 00:01:31
    Track gain               : -8.34 dB
    Peak                     : 0.988525
    CRC32 hash (test run)    : FDCACFD0
    CRC32 hash               : FDCACFD0
    CRC32 hash (skip zero)   : DDB718AD
    AccurateRip v1 signature : 888FEF5C
    AccurateRip v2 signature : 78339ED4
        ->Accurately ripped (v1, confidence 1/1)
    Statistics
        Read error                           : 0
        Jitter error (maybe fixed)           : 0
        Retry sector count                   : 0
        Damaged sector count                 : 0
Track 16
    Filename : /Volumes/everything ever /Torrents/John Bromley - Songs (2009) [FLAC]/16 Melody Fayre [demo].flac
    Pre-gap length : 00:01:38
    Track gain               : -7.42 dB
    Peak                     : 0.988525
    CRC32 hash (test run)    : 1E659ADA
    CRC32 hash               : 1E659ADA
    CRC32 hash (skip zero)   : 3466538E
    AccurateRip v1 signature : 4273694E
    AccurateRip v2 signature : 70B687E3
        ->Accurately ripped (v1, confidence 1/1)
    Statistics
        Read error                           : 0
        Jitter error (maybe fixed)           : 0
        Retry sector count                   : 0
        Damaged sector count                 : 0
Track 17
    Filename : /Volumes/everything ever /Torrents/John Bromley - Songs (2009) [FLAC]/17 And the Feeling Goes [demo].flac
    Pre-gap length : 00:01:26
    Track gain               : -8.40 dB
    Peak                     : 0.988525
    CRC32 hash (test run)    : 776F3F86
    CRC32 hash               : 776F3F86
    CRC32 hash (skip zero)   : BF75CAC5
    AccurateRip v1 signature : 9FC9BF64
    AccurateRip v2 signature : 0BF8364A
        ->Accurately ripped (v1, confidence 1/1)
    Statistics
        Read error                           : 0
        Jitter error (maybe fixed)           : 0
        Retry sector count                   : 0
        Damaged sector count                 : 0
Track 18
    Filename : /Volumes/everything ever /Torrents/John Bromley - Songs (2009) [FLAC]/18 For Once In My Life [demo].flac
    Pre-gap length : 00:01:06
    Track gain               : -6.88 dB
    Peak                     : 0.988525
    CRC32 hash (test run)    : 2D0475A5
    CRC32 hash               : 2D0475A5
    CRC32 hash (skip zero)   : E56DA63E
    AccurateRip v1 signature : 77DD3BE2
    AccurateRip v2 signature : EB08CB9A
        ->Accurately ripped (v1, confidence 1/1)
    Statistics
        Read error                           : 0
        Jitter error (maybe fixed)           : 0
        Retry sector count                   : 0
        Damaged sector count                 : 0
Track 19
    Filename : /Volumes/everything ever /Torrents/John Bromley - Songs (2009) [FLAC]/19 Just A Little Bit Of Love [demo].flac
    Pre-gap length : 00:01:00
    Track gain               : -3.47 dB
    Peak                     : 0.988495
    CRC32 hash (test run)    : 66B639DD
    CRC32 hash               : 66B639DD
    CRC32 hash (skip zero)   : 80F44674
    AccurateRip v1 signature : 806CF2B7
    AccurateRip v2 signature : D00E8638
        ->Accurately ripped (v1, confidence 1/1)
    Statistics
        Read error                           : 0
        Jitter error (maybe fixed)           : 0
        Retry sector count                   : 0
        Damaged sector count                 : 0
Track 20
    Filename : /Volumes/everything ever /Torrents/John Bromley - Songs (2009) [FLAC]/20 Hold Me Woman [demo].flac
    Pre-gap length : 00:00:12
    Track gain               : -7.53 dB
    Peak                     : 0.988525
    CRC32 hash (test run)    : A63C1ECA
    CRC32 hash               : A63C1ECA
    CRC32 hash (skip zero)   : B44544F7
    AccurateRip v1 signature : 585560B8
    AccurateRip v2 signature : B3E2E020
        ->Accurately ripped (v1, confidence 1/1)
    Statistics
        Read error                           : 0
        Jitter error (maybe fixed)           : 0
        Retry sector count                   : 0
        Damaged sector count                 : 0
Track 21
    Filename : /Volumes/everything ever /Torrents/John Bromley - Songs (2009) [FLAC]/21 All The People In The World [demo].flac
    Pre-gap length : 00:01:03
    Track gain               : -6.29 dB
    Peak                     : 0.988525
    CRC32 hash (test run)    : 38D560DD
    CRC32 hash               : 38D560DD
    CRC32 hash (skip zero)   : EC3AE493
    AccurateRip v1 signature : B3B0931B
    AccurateRip v2 signature : 379FE0D4
        ->Accurately ripped (v1, confidence 1/1)
    Statistics
        Read error                           : 0
        Jitter error (maybe fixed)           : 0
        Retry sector count                   : 0
        Damaged sector count                 : 0
Track 22
    Filename : /Volumes/everything ever /Torrents/John Bromley - Songs (2009) [FLAC]/22 Darby & McKenny [demo].flac
    Pre-gap length : 00:01:63
    Track gain               : -6.07 dB
    Peak                     : 0.988525
    CRC32 hash (test run)    : B8876813
    CRC32 hash               : B8876813
    CRC32 hash (skip zero)   : 98F97670
    AccurateRip v1 signature : 6062A8E4
    AccurateRip v2 signature : 82154ECB
        ->Accurately ripped (v1, confidence 1/1)
    Statistics
        Read error                           : 0
        Jitter error (maybe fixed)           : 0
        Retry sector count                   : 0
        Damaged sector count                 : 0
Track 23
    Filename : /Volumes/everything ever /Torrents/John Bromley - Songs (2009) [FLAC]/23 Comic Coversation [demo].flac
    Pre-gap length : 00:01:02
    Track gain               : -5.14 dB
    Peak                     : 0.988525
    CRC32 hash (test run)    : 74EF5471
    CRC32 hash               : 74EF5471
    CRC32 hash (skip zero)   : 59CBD0E4
    AccurateRip v1 signature : 61FBD8F2
    AccurateRip v2 signature : 70F32052
        ->Accurately ripped (v1, confidence 1/1)
    Statistics
        Read error                           : 0
        Jitter error (maybe fixed)           : 0
        Retry sector count                   : 0
        Damaged sector count                 : 0
Track 24
    Filename : /Volumes/everything ever /Torrents/John Bromley - Songs (2009) [FLAC]/24 Isn't This A Lovely Day_ [demo].flac
    Pre-gap length : 00:01:26
    Track gain               : -7.52 dB
    Peak                     : 0.988525
    CRC32 hash (test run)    : A8914F28
    CRC32 hash               : A8914F28
    CRC32 hash (skip zero)   : 3DC4534F
    AccurateRip v1 signature : 4A2950F5
    AccurateRip v2 signature : 56779FD9
        ->Accurately ripped (v1, confidence 1/1)
    Statistics
        Read error                           : 0
        Jitter error (maybe fixed)           : 0
        Retry sector count                   : 0
        Damaged sector count                 : 0
Track 25
    Filename : /Volumes/everything ever /Torrents/John Bromley - Songs (2009) [FLAC]/25 This World's An Apple [demo].flac
    Pre-gap length : 00:00:71
    Track gain               : -8.20 dB
    Peak                     : 0.988525
    CRC32 hash (test run)    : 28553C01
    CRC32 hash               : 28553C01
    CRC32 hash (skip zero)   : 4B2B68B2
    AccurateRip v1 signature : 37725A78
    AccurateRip v2 signature : 12490FD4
        ->Accurately ripped (v1, confidence 1/1)
    Statistics
        Read error                           : 0
        Jitter error (maybe fixed)           : 0
        Retry sector count                   : 0
        Damaged sector count                 : 0
Track 26
    Filename : /Volumes/everything ever /Torrents/John Bromley - Songs (2009) [FLAC]/26 Wonderland Avenue USA [non-LP single].flac
    Pre-gap length : 00:01:33
    Track gain               : -8.22 dB
    Peak                     : 0.988525
    CRC32 hash (test run)    : EE82F789
    CRC32 hash               : EE82F789
    CRC32 hash (skip zero)   : 269DDF99
    AccurateRip v1 signature : AA73DB2D
    AccurateRip v2 signature : 257E2975
        ->Accurately ripped (v1, confidence 1/1)
    Statistics
        Read error                           : 0
        Jitter error (maybe fixed)           : 0
        Retry sector count                   : 0
        Damaged sector count                 : 0
Track 27
    Filename : /Volumes/everything ever /Torrents/John Bromley - Songs (2009) [FLAC]/27 Kick A Tin Can [non-LP B-side].flac
    Pre-gap length : 00:01:56
    Track gain               : -8.00 dB
    Peak                     : 0.988525
    CRC32 hash (test run)    : 53640C17
    CRC32 hash               : 53640C17
    CRC32 hash (skip zero)   : AE636571
    AccurateRip v1 signature : A3E52EF5
    AccurateRip v2 signature : 572AAEE5
        ->Accurately ripped (v1, confidence 1/1)
    Statistics
        Read error                           : 0
        Jitter error (maybe fixed)           : 0
        Retry sector count                   : 0
        Damaged sector count                 : 0
Track 28
    Filename : /Volumes/everything ever /Torrents/John Bromley - Songs (2009) [FLAC]/28 I Love Them All [demo].flac
    Pre-gap length : 00:01:19
    Track gain               : -6.59 dB
    Peak                     : 0.988525
    CRC32 hash (test run)    : 696F2161
    CRC32 hash               : 696F2161
    CRC32 hash (skip zero)   : BE50F315
    AccurateRip v1 signature : 5B150C99
    AccurateRip v2 signature : B02A3041
        ->Accurately ripped (v1, confidence 1/1)
    Statistics
        Read error                           : 0
        Jitter error (maybe fixed)           : 0
        Retry sector count                   : 0
        Damaged sector count                 : 0
No errors occurred
End of status report
-----BEGIN XLD SIGNATURE-----
ZbfjrEIdOWxKkL42wwTEG4gUCV6aZ3C8KaLLK0EwH7laWBaHPtdeYlJInPrz2KUQC5t6LomF891j1yleftdVbnSWGxzZUeZsKf4VZrS
-----END XLD SIGNATURE-----
Код:
TITLE "Songs"
PERFORMER "John Bromley"
REM DATE "2009"
REM DISCNUMBER 1
REM TOTALDISCS 1
REM DISCID AD110D1C
REM REPLAYGAIN_ALBUM_GAIN -7.43 dB
REM REPLAYGAIN_ALBUM_PEAK 0.988525
FILE "01 Only Foolish People.flac" WAVE
  TRACK 01 AUDIO
    TITLE "Only Foolish People"
    ISRC GBBLY0900926
    REM REPLAYGAIN_TRACK_GAIN -6.68 dB
    REM REPLAYGAIN_TRACK_PEAK 0.988525
    INDEX 01 00:00:00
  TRACK 02 AUDIO
    TITLE "Melody Fayre"
    ISRC GBBLY0900927
    REM REPLAYGAIN_TRACK_GAIN -5.79 dB
    REM REPLAYGAIN_TRACK_PEAK 0.988525
    INDEX 00 02:45:50
FILE "02 Melody Fayre.flac" WAVE
    INDEX 01 00:00:00
  TRACK 03 AUDIO
    TITLE "So Many Things"
    ISRC GBBLY0900928
    REM REPLAYGAIN_TRACK_GAIN -8.71 dB
    REM REPLAYGAIN_TRACK_PEAK 0.988525
    INDEX 00 02:16:58
FILE "03 So Many Things.flac" WAVE
    INDEX 01 00:00:00
  TRACK 04 AUDIO
    TITLE "If You Are There With Me"
    ISRC GBBLY0900929
    REM REPLAYGAIN_TRACK_GAIN -5.93 dB
    REM REPLAYGAIN_TRACK_PEAK 0.988525
    INDEX 00 02:18:46
FILE "04 If You Are There With Me.flac" WAVE
    INDEX 01 00:00:00
  TRACK 05 AUDIO
    TITLE "Sugar Love"
    ISRC GBBLY0900930
    REM REPLAYGAIN_TRACK_GAIN -7.67 dB
    REM REPLAYGAIN_TRACK_PEAK 0.988525
    INDEX 00 03:09:60
FILE "05 Sugar Love.flac" WAVE
    INDEX 01 00:00:00
  TRACK 06 AUDIO
    TITLE "Old Time Mover"
    ISRC GBBLY0900931
    REM REPLAYGAIN_TRACK_GAIN -5.15 dB
    REM REPLAYGAIN_TRACK_PEAK 0.988525
    INDEX 00 02:07:26
FILE "06 Old Time Mover.flac" WAVE
    INDEX 01 00:00:00
  TRACK 07 AUDIO
    TITLE "What Do You Think Of Me"
    ISRC GBBLY0900932
    REM REPLAYGAIN_TRACK_GAIN -6.09 dB
    REM REPLAYGAIN_TRACK_PEAK 0.988525
    INDEX 00 02:33:13
FILE "07 What Do You Think Of Me.flac" WAVE
    INDEX 01 00:00:00
  TRACK 08 AUDIO
    TITLE "What A Woman Does"
    ISRC GBBLY0900933
    REM REPLAYGAIN_TRACK_GAIN -3.38 dB
    REM REPLAYGAIN_TRACK_PEAK 0.944916
    INDEX 00 01:53:59
FILE "08 What A Woman Does.flac" WAVE
    INDEX 01 00:00:00
  TRACK 09 AUDIO
    TITLE "Weather Man"
    ISRC GBBLY0900934
    REM REPLAYGAIN_TRACK_GAIN -5.68 dB
    REM REPLAYGAIN_TRACK_PEAK 0.988525
    INDEX 00 02:50:10
FILE "09 Weather Man.flac" WAVE
    INDEX 01 00:00:00
  TRACK 10 AUDIO
    TITLE "I'm Gonna Love You Till I Die"
    ISRC GBBLY0900935
    REM REPLAYGAIN_TRACK_GAIN -6.07 dB
    REM REPLAYGAIN_TRACK_PEAK 0.988525
    INDEX 00 03:03:47
FILE "10 I'm Gonna Love You Till I Die.flac" WAVE
    INDEX 01 00:00:00
  TRACK 11 AUDIO
    TITLE "Natural Born Loser"
    ISRC GBBLY0900936
    REM REPLAYGAIN_TRACK_GAIN -6.22 dB
    REM REPLAYGAIN_TRACK_PEAK 0.988525
    INDEX 00 02:52:67
FILE "11 Natural Born Loser.flac" WAVE
    INDEX 01 00:00:00
  TRACK 12 AUDIO
    TITLE "And The Feeling Goes"
    ISRC GBBLY0900937
    REM REPLAYGAIN_TRACK_GAIN -5.26 dB
    REM REPLAYGAIN_TRACK_PEAK 0.988525
    INDEX 00 02:30:08
FILE "12 And The Feeling Goes.flac" WAVE
    INDEX 01 00:00:00
  TRACK 13 AUDIO
    TITLE "Only Foolish People [demo]"
    ISRC GBBLY0900938
    REM REPLAYGAIN_TRACK_GAIN -7.34 dB
    REM REPLAYGAIN_TRACK_PEAK 0.988525
    INDEX 00 02:12:38
FILE "13 Only Foolish People [demo].flac" WAVE
    INDEX 01 00:00:00
  TRACK 14 AUDIO
    TITLE "My My [non-album B-side]"
    ISRC GBBLY0900939
    REM REPLAYGAIN_TRACK_GAIN -5.44 dB
    REM REPLAYGAIN_TRACK_PEAK 0.988525
    INDEX 00 02:56:56
FILE "14 My My [non-album B-side].flac" WAVE
    INDEX 01 00:00:00
  TRACK 15 AUDIO
    TITLE "Weatherman [demo]"
    ISRC GBBLY0900940
    REM REPLAYGAIN_TRACK_GAIN -8.34 dB
    REM REPLAYGAIN_TRACK_PEAK 0.988525
    INDEX 00 02:42:41
FILE "15 Weatherman [demo].flac" WAVE
    INDEX 01 00:00:00
  TRACK 16 AUDIO
    TITLE "Melody Fayre [demo]"
    ISRC GBBLY0900941
    REM REPLAYGAIN_TRACK_GAIN -7.42 dB
    REM REPLAYGAIN_TRACK_PEAK 0.988525
    INDEX 00 02:59:69
FILE "16 Melody Fayre [demo].flac" WAVE
    INDEX 01 00:00:00
  TRACK 17 AUDIO
    TITLE "And the Feeling Goes [demo]"
    ISRC GBBLY0900942
    REM REPLAYGAIN_TRACK_GAIN -8.40 dB
    REM REPLAYGAIN_TRACK_PEAK 0.988525
    INDEX 00 01:55:01
FILE "17 And the Feeling Goes [demo].flac" WAVE
    INDEX 01 00:00:00
  TRACK 18 AUDIO
    TITLE "For Once In My Life [demo]"
    ISRC GBBLY0900943
    REM REPLAYGAIN_TRACK_GAIN -6.88 dB
    REM REPLAYGAIN_TRACK_PEAK 0.988525
    INDEX 00 03:01:09
FILE "18 For Once In My Life [demo].flac" WAVE
    INDEX 01 00:00:00
  TRACK 19 AUDIO
    TITLE "Just A Little Bit Of Love [demo]"
    ISRC GBBLY0900944
    REM REPLAYGAIN_TRACK_GAIN -3.47 dB
    REM REPLAYGAIN_TRACK_PEAK 0.988495
    INDEX 00 02:50:33
FILE "19 Just A Little Bit Of Love [demo].flac" WAVE
    INDEX 01 00:00:00
  TRACK 20 AUDIO
    TITLE "Hold Me Woman [demo]"
    ISRC GBBLY0900945
    REM REPLAYGAIN_TRACK_GAIN -7.53 dB
    REM REPLAYGAIN_TRACK_PEAK 0.988525
    INDEX 00 02:29:67
FILE "20 Hold Me Woman [demo].flac" WAVE
    INDEX 01 00:00:00
  TRACK 21 AUDIO
    TITLE "All The People In The World [demo]"
    ISRC GBBLY0900946
    REM REPLAYGAIN_TRACK_GAIN -6.29 dB
    REM REPLAYGAIN_TRACK_PEAK 0.988525
    INDEX 00 02:51:15
FILE "21 All The People In The World [demo].flac" WAVE
    INDEX 01 00:00:00
  TRACK 22 AUDIO
    TITLE "Darby & McKenny [demo]"
    ISRC GBBLY0900947
    REM REPLAYGAIN_TRACK_GAIN -6.07 dB
    REM REPLAYGAIN_TRACK_PEAK 0.988525
    INDEX 00 01:49:33
FILE "22 Darby & McKenny [demo].flac" WAVE
    INDEX 01 00:00:00
  TRACK 23 AUDIO
    TITLE "Comic Coversation [demo]"
    ISRC GBBLY0900948
    REM REPLAYGAIN_TRACK_GAIN -5.14 dB
    REM REPLAYGAIN_TRACK_PEAK 0.988525
    INDEX 00 01:50:31
FILE "23 Comic Coversation [demo].flac" WAVE
    INDEX 01 00:00:00
  TRACK 24 AUDIO
    TITLE "Isn't This A Lovely Day? [demo]"
    ISRC GBBLY0900949
    REM REPLAYGAIN_TRACK_GAIN -7.52 dB
    REM REPLAYGAIN_TRACK_PEAK 0.988525
    INDEX 00 03:33:45
FILE "24 Isn't This A Lovely Day_ [demo].flac" WAVE
    INDEX 01 00:00:00
  TRACK 25 AUDIO
    TITLE "This World's An Apple [demo]"
    ISRC GBBLY0900950
    REM REPLAYGAIN_TRACK_GAIN -8.20 dB
    REM REPLAYGAIN_TRACK_PEAK 0.988525
    INDEX 00 02:48:37
FILE "25 This World's An Apple [demo].flac" WAVE
    INDEX 01 00:00:00
  TRACK 26 AUDIO
    TITLE "Wonderland Avenue USA [non-LP single]"
    ISRC GBBLY0900951
    REM REPLAYGAIN_TRACK_GAIN -8.22 dB
    REM REPLAYGAIN_TRACK_PEAK 0.988525
    INDEX 00 02:03:55
FILE "26 Wonderland Avenue USA [non-LP single].flac" WAVE
    INDEX 01 00:00:00
  TRACK 27 AUDIO
    TITLE "Kick A Tin Can [non-LP B-side]"
    ISRC GBBLY0900952
    REM REPLAYGAIN_TRACK_GAIN -8.00 dB
    REM REPLAYGAIN_TRACK_PEAK 0.988525
    INDEX 00 02:09:64
FILE "27 Kick A Tin Can [non-LP B-side].flac" WAVE
    INDEX 01 00:00:00
  TRACK 28 AUDIO
    TITLE "I Love Them All [demo]"
    ISRC GBBLY0900953
    REM REPLAYGAIN_TRACK_GAIN -6.59 dB
    REM REPLAYGAIN_TRACK_PEAK 0.988525
    INDEX 00 02:55:34
FILE "28 I Love Them All [demo].flac" WAVE
    INDEX 01 00:00:00
Код:
-----------------------
DON'T MODIFY THIS FILE
-----------------------
PERFORMER: auCDtect Task Manager, ver. 1.5.1RC4 build 1.5.1.5
Copyright (c) 2008-2010 y-soft. All rights reserved
[url=http://y-soft.org]http://y-soft.org[/url]
ANALYZER: auCDtect: CD records authenticity detector, version 0.8.2
Copyright (c) 2004 Oleg Berngardt. All rights reserved.
Copyright (c) 2004 Alexander Djourik. All rights reserved.
FILE: 28 I Love Them All [demo].flac
  Size: 17846867 Hash: DE18215C3773061F2274BD09A9795104 Accuracy: -m0
  Conclusion: CDDA 58%
  Signature: DBE18AA52053EBA6A04021BFC1C44A1877AE62BA
FILE: 27 Kick A Tin Can [non-LP B-side].flac
  Size: 20665723 Hash: 14750642F7236C0152F3E8CD833984AF Accuracy: -m0
  Conclusion: CDDA 100%
  Signature: 501598F48237504C513C883D7C35171B40BA44A9
FILE: 26 Wonderland Avenue USA [non-LP single].flac
  Size: 16016847 Hash: B073CA2AFABBFD9DB8B03D2FC8B10D02 Accuracy: -m0
  Conclusion: CDDA 100%
  Signature: 291E025B7F4F30EA57212C314244EDEE27992975
FILE: 25 This World's An Apple [demo].flac
  Size: 14368366 Hash: 7F27493EC4283CD170A3F75E9E0A9B67 Accuracy: -m0
  Conclusion: CDDA 100%
  Signature: 3DD283DF6B71200B5A9E017F52D74B1B6F9BA89A
FILE: 24 Isn't This A Lovely Day_ [demo].flac
  Size: 19043966 Hash: 1B36CAFC257EADCF605FD0E8BC95E9C9 Accuracy: -m0
  Conclusion: CDDA 100%
  Signature: BF2055C3B8203BA9FCDE5EDD8512402BB41418F0
FILE: 23 Comic Coversation [demo].flac
  Size: 21141081 Hash: 2CB15FECE23B1C40F22B23881FF7F2CF Accuracy: -m0
  Conclusion: CDDA 100%
  Signature: BF1C913E8BDBF47C70C62F68A04EB05287EF4432
FILE: 22 Darby & McKenny [demo].flac
  Size: 12939127 Hash: 11EE8281C5353A4ABC6E3EB97E25DAE5 Accuracy: -m0
  Conclusion: CDDA 100%
  Signature: 908FB85B1A9520DA353DD71130FBCE2C92E77887
FILE: 21 All The People In The World [demo].flac
  Size: 11976867 Hash: 75F65A6FBB4CEE1D242EBD00A7621784 Accuracy: -m0
  Conclusion: CDDA 100%
  Signature: F211BE4B4C6742F1980CECE5E7065D8D7BBAB927
FILE: 20 Hold Me Woman [demo].flac
  Size: 19138120 Hash: 8A5692DFCA2334A3B7E6C089558F9B75 Accuracy: -m0
  Conclusion: CDDA 100%
  Signature: 28FF9B322893E84B5F90EF8DAEE548C77E8089CA
FILE: 19 Just A Little Bit Of Love [demo].flac
  Size: 14867858 Hash: 883BA799AAE0CD692B14C8610999DDA8 Accuracy: -m0
  Conclusion: CDDA 100%
  Signature: 27C595DF76A506FC10F06AD0337DF36521621C6C
FILE: 18 For Once In My Life [demo].flac
  Size: 17751587 Hash: 3D7A2FEC6C2B55DE30C29A7070A000D4 Accuracy: -m0
  Conclusion: MPEG 79%
  Signature: 91569826DE6F143CA40925B47345CC1B8460F7A3
FILE: 17 And the Feeling Goes [demo].flac
  Size: 22699083 Hash: 525880ABE074CA7496C943A14459CBE1 Accuracy: -m0
  Conclusion: CDDA 100%
  Signature: C6D4C9025E50F0661F4F2ABD6316DA58403931F6
FILE: 16 Melody Fayre [demo].flac
  Size: 14345409 Hash: BB7308E542C66EF0EC82213618312EF4 Accuracy: -m0
  Conclusion: CDDA 100%
  Signature: 4EE20DCC0706E5340FD40CE52FCB90B894AA4436
FILE: 15 Weatherman [demo].flac
  Size: 19864595 Hash: 1B424A58841B402980E3B6FF51F943D7 Accuracy: -m0
  Conclusion: CDDA 100%
  Signature: 0836170FF256CB1A2E26A4358009D900E90B5D16
FILE: 14 My My [non-album B-side].flac
  Size: 17782679 Hash: 7E5036D22836570C3E5684056D5F3737 Accuracy: -m0
  Conclusion: CDDA 100%
  Signature: 0681F02ACD9D52C94A499A4DA86623C523099906
FILE: 13 Only Foolish People [demo].flac
  Size: 19345838 Hash: 7776297D570F5D0616C7269ECE506258 Accuracy: -m0
  Conclusion: CDDA 100%
  Signature: 3462F042D7F3A15B7E2761F9F8555C014FD62CF2
FILE: 12 And The Feeling Goes.flac
  Size: 15791364 Hash: 3B71D2E6D16556BAEE31CFB3AB782DF2 Accuracy: -m0
  Conclusion: CDDA 100%
  Signature: 7C38C075E06738E94F554C8DE02071C948DA7A09
FILE: 11 Natural Born Loser.flac
  Size: 17856384 Hash: 2D36B5FD5C952B4CA6CF11083BA26D73 Accuracy: -m0
  Conclusion: CDDA 100%
  Signature: DB06E7BC4A0F9AE30A5A7A0D25B0EA69197C8020
FILE: 10 I'm Gonna Love You Till I Die.flac
  Size: 18557856 Hash: E952199CCF914C979EF880F17F64DC52 Accuracy: -m0
  Conclusion: CDDA 100%
  Signature: A341E8A4402AB7F77D1D41CC0E80F12EF91D3A57
FILE: 09 Weather Man.flac
  Size: 20919526 Hash: 9BCFFC0A91C7D2D2C73C1D251175D0FD Accuracy: -m0
  Conclusion: CDDA 99%
  Signature: 8773E96A1B071C94CE269ED2AF4EA704A72E4260
FILE: 08 What A Woman Does.flac
  Size: 18894989 Hash: 188628D46D3EF198AB2E2BD38A05DD76 Accuracy: -m0
  Conclusion: CDDA 100%
  Signature: 77E6D52CF72275DD07C8E4292D8DF4F61299B4A2
FILE: 07 What Do You Think Of Me.flac
  Size: 13338999 Hash: 2DC660423CCD429BFC916CA889C6FE3A Accuracy: -m0
  Conclusion: CDDA 100%
  Signature: 225D23C3CF6F57101DB0BEE7480628342B3CEB6B
FILE: 06 Old Time Mover.flac
  Size: 16443429 Hash: 167622CB380AF29F420EB098E0000409 Accuracy: -m0
  Conclusion: CDDA 100%
  Signature: 561D56866001D5758E70ED0F4F91F255870925DF
FILE: 05 Sugar Love.flac
  Size: 15348804 Hash: FFF0A69874305D94ED7F001572A4986D Accuracy: -m0
  Conclusion: CDDA 100%
  Signature: 5499077F8F574CFF7923034E36941A07370D7C95
FILE: 04 If You Are There With Me.flac
  Size: 20159278 Hash: 3872AFA14CF81E48B6FE78620CD6C2C7 Accuracy: -m0
  Conclusion: CDDA 100%
  Signature: F7F9B08C135055F8B2FD9024C0AFE0604E4C8656
FILE: 03 So Many Things.flac
  Size: 18502847 Hash: D33B9854D813E1C158F293B95F95B5CD Accuracy: -m0
  Conclusion: CDDA 100%
  Signature: CE4233C485965BE6DFE0A82CF1DB921C4E02205E
FILE: 02 Melody Fayre.flac
  Size: 16833998 Hash: B49CD2E5E7BFA74E758D8CBCE245CAB7 Accuracy: -m0
  Conclusion: CDDA 100%
  Signature: 7C1BB2ED00A4EFD009219E3D039CB4B7CEC75F29
FILE: 01 Only Foolish People.flac
  Size: 19541232 Hash: 8123772434FF6DE9EDB5297CEC96AF43 Accuracy: -m0
  Conclusion: CDDA 100%
  Signature: C28BF1A7565C9A180E5B8598123DAAE891B8AAAB
Код:
[CUETools log; Date: 03.02.2016 14:44:00; Version: 2.1.4]
[CTDB TOCID: y0SYhtmv9T3HzNjDl2ZfwOnNKP8-] disk not present in database.
[AccurateRip ID: 0048483f-05a7f0ce-ad110d1c] found.
Track   [  CRC   |   V2   ] Status
 01     [a9919bba|5ab5f1fe] (1+0/1) Accurately ripped
 02     [4c57ca6c|87f0ac2b] (1+0/1) Accurately ripped
 03     [a19b2bf5|6907bb08] (1+0/1) Accurately ripped
 04     [a86e8255|28caa9c9] (1+0/1) Accurately ripped
 05     [89e5d8c0|9b802c0a] (1+0/1) Accurately ripped
 06     [94fc3fb6|8fc8ccb6] (1+0/1) Accurately ripped
 07     [5186c6b0|89dad36b] (1+0/1) Accurately ripped
 08     [7b9de9b3|4a76f6ab] (1+0/1) Accurately ripped
 09     [41725d89|05c24cde] (1+0/1) Accurately ripped
 10     [b554429e|e93849f2] (1+0/1) Accurately ripped
 11     [5680b374|5e367db1] (1+0/1) Accurately ripped
 12     [470c81af|aae58b10] (1+0/1) Accurately ripped
 13     [903d1611|7ee2deb0] (1+0/1) Accurately ripped
 14     [b0d402b5|18c52783] (1+0/1) Accurately ripped
 15     [888fef5c|78339ed4] (1+0/1) Accurately ripped
 16     [4273694e|70b687e3] (1+0/1) Accurately ripped
 17     [9fc9bf64|0bf8364a] (1+0/1) Accurately ripped
 18     [77dd3be2|eb08cb9a] (1+0/1) Accurately ripped
 19     [806cf2b7|d00e8638] (1+0/1) Accurately ripped
 20     [585560b8|b3e2e020] (1+0/1) Accurately ripped
 21     [b3b0931b|379fe0d4] (1+0/1) Accurately ripped
 22     [6062a8e4|82154ecb] (1+0/1) Accurately ripped
 23     [61fbd8f2|70f32052] (1+0/1) Accurately ripped
 24     [4a2950f5|56779fd9] (1+0/1) Accurately ripped
 25     [37725a78|12490fd4] (1+0/1) Accurately ripped
 26     [aa73db2d|257e2975] (1+0/1) Accurately ripped
 27     [a3e52ef5|572aaee5] (1+0/1) Accurately ripped
 28     [5b150c99|b02a3041] (1+0/1) Accurately ripped
Track Peak [ CRC32  ] [W/O NULL]
 --   98,8 [A4A0942E] [90A63568]
 01   98,8 [999E1EE3] [C7DC20DF]
 02   98,8 [AF06BE55] [F4BF8FBF]
 03   98,8 [71986F5C] [763BE903]
 04   98,8 [85DE73FF] [04331E77]
 05   98,8 [0D6DF499] [9B3865D9]
 06   98,8 [FA37754F] [EDBC75FA]
 07   98,8 [D709C15F] [8B4A7E3E]
 08   94,4 [89B24E05] [DDCFE026]
 09   98,8 [8F11816C] [AD0414D0]
 10   98,8 [29E2D787] [0A6772C5]
 11   98,8 [E7BBFA1E] [8E5B59BD]
 12   98,8 [8AE1F9B5] [155ED867]
 13   98,8 [4019D5A7] [88782223]
 14   98,8 [8DD10502] [5BEEB7D2]
 15   98,8 [FDCACFD0] [DDB718AD]
 16   98,8 [1E659ADA] [3466538E]
 17   98,8 [776F3F86] [BF75CAC5]
 18   98,8 [2D0475A5] [E56DA63E]
 19   98,8 [66B639DD] [80F44674]
 20   98,8 [A63C1ECA] [B44544F7]
 21   98,8 [38D560DD] [EC3AE493]
 22   98,8 [B8876813] [98F97670]
 23   98,8 [74EF5471] [59CBD0E4]
 24   98,8 [A8914F28] [3DC4534F]
 25   98,8 [28553C01] [4B2B68B2]
 26   98,8 [EE82F789] [269DDF99]
 27   98,8 [53640C17] [AE636571]
 28   98,8 [696F2161] [BE50F315]
Код:
foobar2000 1.3.9 / Замер динамического диапазона (DR) 1.1.1
Дата отчёта:  2016-02-03 14:43:21
--------------------------------------------------------------------------------
Анализ:   John Bromley / Songs
--------------------------------------------------------------------------------
DR         Пики         RMS           Продолжительность трека
--------------------------------------------------------------------------------
DR10      -0.10 дБ   -12.95 дБ      2:46 1-Only Foolish People
DR11      -0.10 дБ   -12.57 дБ      2:17 2-Melody Fayre
DR8       -0.10 дБ    -9.65 дБ      2:19 3-So Many Things
DR10      -0.10 дБ   -12.60 дБ      3:10 4-If You Are There With Me
DR10      -0.10 дБ   -11.70 дБ      2:08 5-Sugar Love
DR11      -0.10 дБ   -13.35 дБ      2:34 6-Old Time Mover
DR12      -0.10 дБ   -13.74 дБ      1:55 7-What Do You Think Of Me
DR12      -0.49 дБ   -15.35 дБ      2:51 8-What A Woman Does
DR11      -0.10 дБ   -13.92 дБ      3:04 9-Weather Man
DR10      -0.10 дБ   -13.51 дБ      2:54 10-I'm Gonna Love You Till I Die
DR10      -0.10 дБ   -12.72 дБ      2:31 11-Natural Born Loser
DR12      -0.10 дБ   -14.03 дБ      2:13 12-And The Feeling Goes
DR10      -0.10 дБ   -13.72 дБ      2:58 13-Only Foolish People [demo]
DR10      -0.10 дБ   -11.35 дБ      2:44 14-My My [non-album B-side]
DR9       -0.10 дБ   -11.04 дБ      3:01 15-Weatherman [demo]
DR9       -0.10 дБ   -10.30 дБ      1:56 16-Melody Fayre [demo]
DR7       -0.10 дБ    -7.98 дБ      3:02 17-And the Feeling Goes [demo]
DR10      -0.10 дБ   -12.65 дБ      2:51 18-For Once In My Life [demo]
DR13      -0.10 дБ   -14.50 дБ      2:30 19-Just A Little Bit Of Love [demo]
DR9       -0.10 дБ   -11.09 дБ      2:52 20-Hold Me Woman [demo]
DR10      -0.10 дБ   -12.62 дБ      1:51 21-All The People In The World [demo]
DR10      -0.10 дБ   -11.85 дБ      1:51 22-Darby & McKenny [demo]
DR11      -0.10 дБ   -13.35 дБ      3:35 23-Comic Coversation [demo]
DR9       -0.10 дБ   -10.02 дБ      2:49 24-Isn't This A Lovely Day? [demo]
DR9       -0.10 дБ   -11.11 дБ      2:05 25-This World's An Apple [demo]
DR9       -0.10 дБ   -10.06 дБ      2:12 26-Wonderland Avenue USA [non-LP single]
DR8       -0.10 дБ    -9.37 дБ      2:57 27-Kick A Tin Can [non-LP B-side]
DR9       -0.10 дБ   -12.10 дБ      2:45 28-I Love Them All [demo]
--------------------------------------------------------------------------------
Количество треков: 28
Реальные значения DR: DR10
Частота:   44100 Гц
Каналов:   2
Разрядность:   16
Битрейт:   860 кбит/с
Кодек:   FLAC
================================================================================
Доп. информация
Автор исполнитель, композитор из Манчестера. Бромли был, прежде всего, автор песен, сочиняя мелодии для певицы Jackie DeShannon. К концу 60-х, он был сподвигнут лэйблом Polydor к записи его синглов на полноценный альбом. В записи песен поддержку оказали The Fleur de Lys.
Digitally remastered and expanded edition of the singer/songwriter's 1969 album including bonus non-album singles, demos and outtakes. Interest in the sweet, string-laden sounds of late '60s Pop has been higher than ever in recent times. Compilations such as the Fading Yellow series and Bob Stanley's Tea & Symphony have raised awareness of an entire strata of lost Pop gems that inhabit a previously unmarketable netherworld somewhere between Soft Pop, Folk and Bubblegum. John Bromley came up through a series of unsuccessful harmony bands before scoring a couple of hits as a songwriter "Come On Down" for Jackie DeShannon and "Tomorrow, Manana" for a plethora of acts. John was signed by hit writer Graham Dee on the strength of his song "What A Woman Does" and then recorded a series of high-quality demos and masters, some of which made up his 1969 album Sing. The album boasts a broad range of styles from ornate, baroque ballads to tough, Psychedelic rockers aimed to capitalize on John's innate commercial songwriting ability. Rev-Ola. 2009.
http://www.cduniverse.com/productinfo.asp?pid=7930999
http://www.allmusic.com/album/sing-bonus-tracks-mw0000820612
http://www.discogs.com/John-Bromley-Songs/release/7870753
Правила, инструкции, FAQ!!!
Торрент  Добавлен [26 мар 2019, 19:58] Скачать торрент Магнет ссылка
Скачать торрент
[ Размер 20.93 КБ / Просмотров 2 ]

Статус
Проверен 
 
Размер  469.7 МБ
Приватный: Нет (DHT включён)
.torrent скачан  0
 


     Отправить личное сообщение
   
Страница 1 из 1
Показать сообщения за:  Поле сортировки  
Начать новую тему Ответить на тему


Сейчас этот форум просматривают: нет зарегистрированных пользователей и гости: 0


Вы не можете начинать темы
Вы не можете отвечать на сообщения
Вы не можете редактировать свои сообщения
Вы не можете удалять свои сообщения
Вы не можете добавлять вложения

Перейти:  
cron