Начать новую тему Ответить на тему
Статистика раздачи
Размер: 646.4 МБ | Добавлен: 28 апр 2020, 19:51 | Скачали: 2
Сидеров: 3  [0 байт/сек]    Личеров: 0  [0 байт/сек]
Пред. тема | След. тема 

Автор
Сообщение

СообщениеДобавлено: 28 апр 2020, 19:51 

Ответить с цитатой 

#777
Joe Dolan and RTÉ Concert Orchestra • Orchestrated

Жанр: Pop
Носитель: WEB
Страна-производитель диска (релиза): Ireland
Год издания: 2016 • 2017
Издатель (лейбл): Universal Music Ireland
Номер по каталогу: 5719038 • 6700999
Страна исполнителя (группы): Ireland
Аудиокодек: FLAC (*.flac)
Тип рипа: tracks
Продолжительность: 00:44:28 \ 00:52:57
Наличие сканов в содержимом раздачи: нет
#777Жанр: Pop-Rock
Носитель: WEB
Страна-производитель диска (релиза): Ireland
Год издания: 2016
Издатель (лейбл): Universal Music Ireland
Номер по каталогу: 5719038
Страна исполнителя (группы): Ireland
Аудиокодек: FLAC (*.flac)
Тип рипа: tracks
Битрейт аудио: lossless
Продолжительность: 00:44:28
Информация по альбому: discogs
Наличие сканов в содержимом раздачи: нет
Треклист:
01. Always On My Mind
02. You're Such A Good Looking Woman
03. Make Me An Island
04. The Answer To Everything
05. The Universal
06. Ciara
07. Have I Told You Lately
08. Starman
09. If I Could Put My Life On Paper
10. Who's Gonna Ride Your Wild Horses
11. Foggy Dew
12. O Holy Night
13. Goodbye Venice Goodbye
Код:
foobar2000 1.4.6 / Dynamic Range Meter 1.1.1
log date: 2020-03-29 16:57:35
--------------------------------------------------------------------------------
Analyzed: Joe Dolan; The RTÉ Concert Orchestra; Nathan Carter / Orchestrated (Vol.1) (1)
          Joe Dolan; The RTÉ Concert Orchestra / Orchestrated (Vol.1) (2-12)
          The RTÉ Concert Orchestra / Orchestrated (Vol.1) (13)
--------------------------------------------------------------------------------
DR         Peak         RMS     Duration Track
--------------------------------------------------------------------------------
DR10      -0.26 dB   -13.30 dB      1:32 01-Always On My Mind
DR8       -0.17 dB    -9.89 dB      3:15 02-You're Such A Good Looking Woman
DR8       -0.07 dB    -9.83 dB      2:40 03-Make Me An Island
DR9       -0.28 dB   -11.81 dB      2:58 04-The Answer To Everything
DR8       -0.15 dB   -10.97 dB      3:44 05-The Universal
DR9       -0.35 dB   -11.19 dB      3:28 06-Ciara
DR9       -0.27 dB   -12.67 dB      4:23 07-Have I Told You Lately
DR9       -0.16 dB   -11.18 dB      4:07 08-Starman
DR8       -0.17 dB   -10.33 dB      2:56 09-If I Could Put My Life On Paper
DR8       -0.10 dB   -11.05 dB      5:25 10-Who's Gonna Ride Your Wild Horses
DR8       -3.15 dB   -13.65 dB      2:59 11-Foggy Dew
DR8       -0.21 dB   -11.52 dB      3:14 12-O Holy Night
DR8       -0.07 dB   -10.24 dB      3:51 13-Goodbye Venice Goodbye
--------------------------------------------------------------------------------
Number of tracks:  13
Official DR value: DR8
Samplerate:        44100 Hz
Channels:          2
Bits per sample:   16
Bitrate:           749 kbps
Codec:             FLAC
================================================================================
Код:
Lossless Audio Checker 2.0.7 logfile from Sunday 29 March 2020 04:41:26 PM
File:   D:\Joe Dolan - Orchestrated\Joe Dolan - Orchestrated (Vol.1)\01 - The RTÉ Concert Orchestra - Always On My Mind.flac
Result: Clean
File:   D:\Joe Dolan - Orchestrated\Joe Dolan - Orchestrated (Vol.1)\02 - Joe Dolan - You're Such A Good Looking Woman.flac
Result: Clean
File:   D:\Joe Dolan - Orchestrated\Joe Dolan - Orchestrated (Vol.1)\03 - Joe Dolan - Make Me An Island.flac
Result: Clean
File:   D:\Joe Dolan - Orchestrated\Joe Dolan - Orchestrated (Vol.1)\04 - Joe Dolan - The Answer To Everything.flac
Result: Clean
File:   D:\Joe Dolan - Orchestrated\Joe Dolan - Orchestrated (Vol.1)\05 - Joe Dolan - The Universal.flac
Result: Clean
File:   D:\Joe Dolan - Orchestrated\Joe Dolan - Orchestrated (Vol.1)\06 - Joe Dolan - Ciara.flac
Result: Clean
File:   D:\Joe Dolan - Orchestrated\Joe Dolan - Orchestrated (Vol.1)\07 - Joe Dolan - Have I Told You Lately.flac
Result: Clean
File:   D:\Joe Dolan - Orchestrated\Joe Dolan - Orchestrated (Vol.1)\08 - Joe Dolan - Starman.flac
Result: Clean
File:   D:\Joe Dolan - Orchestrated\Joe Dolan - Orchestrated (Vol.1)\09 - Joe Dolan - If I Could Put My Life On Paper.flac
Result: Clean
File:   D:\Joe Dolan - Orchestrated\Joe Dolan - Orchestrated (Vol.1)\10 - Joe Dolan - Who's Gonna Ride Your Wild Horses.flac
Result: Clean
File:   D:\Joe Dolan - Orchestrated\Joe Dolan - Orchestrated (Vol.1)\11 - Joe Dolan - Foggy Dew.flac
Result: Clean
File:   D:\Joe Dolan - Orchestrated\Joe Dolan - Orchestrated (Vol.1)\12 - Joe Dolan - O Holy Night.flac
Result: Clean
File:   D:\Joe Dolan - Orchestrated\Joe Dolan - Orchestrated (Vol.1)\13 - Joe Dolan - Goodbye Venice Goodbye.flac
Result: Clean
#777Жанр: Pop-Rock
Носитель: WEB
Страна-производитель диска (релиза): Ireland
Год издания: 2017
Издатель (лейбл): Universal Music Ireland
Номер по каталогу: 6700999
Страна исполнителя (группы): Ireland
Аудиокодек: FLAC (*.flac)
Тип рипа: tracks
Битрейт аудио: lossless
Продолжительность: 00:52:57
Информация по альбому: discogs
Наличие сканов в содержимом раздачи: нет
Треклист:
01. It's You, It's You, It's You
02. Disco 2000
03. Sweet Little Rock 'n' Roller
04. You've Lost That Lovin' Feeling
05. More And More
06. The Air That I Breathe
07. Teresa
08. Everybody Hurts
09. Pretty Brown Eyes
10. Brilliant Disguise
11. Hush Hush Maria
12. Cottage By The Lee
13. Ave Maria
14. You're Such A Good Looking Woman
Код:
foobar2000 1.4.6 / Dynamic Range Meter 1.1.1
log date: 2020-03-29 16:53:20
--------------------------------------------------------------------------------
Analyzed: Joe Dolan; The RTÉ Concert Orchestra; Niamh Kavanagh / Orchestrated (Vol. 2) (1)
          Joe Dolan; The RTÉ Concert Orchestra; Pete Conway / Orchestrated (Vol. 2) (2)
          Joe Dolan; The RTÉ Concert Orchestra / Orchestrated (Vol. 2) (3-14)
--------------------------------------------------------------------------------
DR         Peak         RMS     Duration Track
--------------------------------------------------------------------------------
DR9       -0.54 dB   -10.56 dB      3:30 01-It's You, It's You, It's You
DR8       -0.12 dB    -9.75 dB      4:51 02-Disco 2000
DR8       -0.23 dB   -10.09 dB      3:32 03-Sweet Little Rock 'n' Roller
DR8       -0.13 dB   -10.81 dB      4:34 04-You've Lost That Lovin' Feeling
DR9       -0.07 dB    -9.76 dB      3:41 05-More And More
DR9       -0.80 dB   -11.50 dB      3:43 06-The Air That I Breathe
DR8       -0.13 dB    -9.41 dB      2:51 07-Teresa
DR8       -0.81 dB   -12.41 dB      4:31 08-Everybody Hurts
DR8       -0.61 dB   -10.49 dB      2:30 09-Pretty Brown Eyes
DR9       -0.46 dB   -11.30 dB      3:36 10-Brilliant Disguise
DR8       -0.23 dB    -9.99 dB      3:54 11-Hush Hush Maria
DR8       -2.95 dB   -13.46 dB      3:38 12-Cottage By The Lee
DR7       -0.27 dB    -9.60 dB      4:43 13-Ave Maria
DR9       -0.45 dB   -10.77 dB      3:22 14-You're Such A Good Looking Woman
--------------------------------------------------------------------------------
Number of tracks:  14
Official DR value: DR8
Samplerate:        44100 Hz
Channels:          2
Bits per sample:   16
Bitrate:           959 kbps
Codec:             FLAC
================================================================================
Код:
Lossless Audio Checker 2.0.7 logfile from Sunday 29 March 2020 04:42:58 PM
File:   D:\Joe Dolan - Orchestrated\Joe Dolan - Orchestrated (Vol.2)\01 - Joe Dolan - It's You, It's You, It's You.flac
Result: Clean
File:   D:\Joe Dolan - Orchestrated\Joe Dolan - Orchestrated (Vol.2)\02 - Joe Dolan - Disco 2000.flac
Result: Clean
File:   D:\Joe Dolan - Orchestrated\Joe Dolan - Orchestrated (Vol.2)\03 - Joe Dolan - Sweet Little Rock 'n' Roller.flac
Result: Clean
File:   D:\Joe Dolan - Orchestrated\Joe Dolan - Orchestrated (Vol.2)\04 - Joe Dolan - You've Lost That Lovin' Feeling.flac
Result: Clean
File:   D:\Joe Dolan - Orchestrated\Joe Dolan - Orchestrated (Vol.2)\05 - Joe Dolan - More And More.flac
Result: Clean
File:   D:\Joe Dolan - Orchestrated\Joe Dolan - Orchestrated (Vol.2)\06 - Joe Dolan - The Air That I Breathe.flac
Result: Clean
File:   D:\Joe Dolan - Orchestrated\Joe Dolan - Orchestrated (Vol.2)\07 - Joe Dolan - Teresa.flac
Result: Clean
File:   D:\Joe Dolan - Orchestrated\Joe Dolan - Orchestrated (Vol.2)\08 - Joe Dolan - Everybody Hurts.flac
Result: Clean
File:   D:\Joe Dolan - Orchestrated\Joe Dolan - Orchestrated (Vol.2)\09 - Joe Dolan - Pretty Brown Eyes.flac
Result: Clean
File:   D:\Joe Dolan - Orchestrated\Joe Dolan - Orchestrated (Vol.2)\10 - Joe Dolan - Brilliant Disguise.flac
Result: Clean
File:   D:\Joe Dolan - Orchestrated\Joe Dolan - Orchestrated (Vol.2)\11 - Joe Dolan - Hush Hush Maria.flac
Result: Clean
File:   D:\Joe Dolan - Orchestrated\Joe Dolan - Orchestrated (Vol.2)\12 - Joe Dolan - Cottage By The Lee.flac
Result: Clean
File:   D:\Joe Dolan - Orchestrated\Joe Dolan - Orchestrated (Vol.2)\13 - Joe Dolan - Ave Maria.flac
Result: Clean
File:   D:\Joe Dolan - Orchestrated\Joe Dolan - Orchestrated (Vol.2)\14 - Joe Dolan - You're Such A Good Looking Woman.flac
Result: Clean
#777#777
Правила, инструкции, FAQ!!!
Торрент  Добавлен [28 апр 2020, 19:51] Скачать торрент Магнет ссылка
Скачать торрент
[ Размер 16.19 КБ / Просмотров 21 ]

Статус
Проверен 
 
Размер  646.4 МБ
Приватный: Нет (DHT включён)
.torrent скачан  2
 


     Отправить личное сообщение
   
Страница 1 из 1
Показать сообщения за:  Поле сортировки  
Начать новую тему Ответить на тему


Сейчас этот форум просматривают: нет зарегистрированных пользователей и гости: 0


Вы не можете начинать темы
Вы не можете отвечать на сообщения
Вы не можете редактировать свои сообщения
Вы не можете удалять свои сообщения
Вы не можете добавлять вложения

Перейти:  
cron