Начать новую тему Ответить на тему
Статистика раздачи
Размер: 385.97 МБ | Добавлен: 26 мар 2019, 20:11 | Скачали: 0
Сидеров: 0  [0 байт/сек]    Личеров: 0  [0 байт/сек]
Пред. тема | След. тема 

Автор
Сообщение

СообщениеДобавлено: 26 мар 2019, 20:11 

Ответить с цитатой 

Jim Diamond / Double Crossed
Жанр: Рор-rock
Страна-производитель диска: UK
Год издания диска: 2009
Издатель (лейбл): Cherry Pop
Номер по каталогу: CRPOP19
Страна: Netherlands
Аудиокодек: FLAC (*.flac)
Тип рипа: image+.cue
Битрейт аудио: lossless
Продолжительность: 58:59 min
Источник (релизер): Newshotfan
Наличие сканов в содержимом раздачи: да
Треклист:
1.Double crossed
2.I sleep alone at night
3.After the fire
4.I should have known better
5.Stumblin' over
6.Remember i love you
7.New generation
8.Co - operation
9.She is woman
10.I'm yours
Bonus tracks:
11.Impossible dream(B-side)
12.Caledonia(B-side)
13.Rock'n'roll(B-side)
Код:
Exact Audio Copy V1.0 beta 1 from 15. November 2010
EAC extraction logfile from 19. July 2011, 9:17
Jim Diamond / Double crossed
Used drive  : HL-DT-STDVDRAM GSA-T10N   Adapter: 0  ID: 1
Read mode               : Secure
Utilize accurate stream : Yes
Defeat audio cache      : Yes
Make use of C2 pointers : No
Read offset correction                      : 667
Overread into Lead-In and Lead-Out          : No
Fill up missing offset samples with silence : Yes
Delete leading and trailing silent blocks   : No
Null samples used in CRC calculations       : Yes
Used interface                              : Native Win32 interface for Win NT & 2000
Used output format              : User Defined Encoder
Selected bitrate                : 768 kBit/s
Quality                         : High
Add ID3 tag                     : No
Command line compressor         : C:\Program Files\Exact Audio Copy\FLAC\FLAC.EXE
Additional command line options : -6 -V -T "ARTIST=%a" -T "TITLE=%t" -T "ALBUM=%g" -T "DATE=%y" -T "TRACKNUMBER=%n" -T "GENRE=%m" -T "COMMENT=%e" %j--picture="%i"%j %s -o %d
TOC of the extracted CD
     Track |   Start  |  Length  | Start sector | End sector
    ---------------------------------------------------------
        1  |  0:00.00 |  3:55.41 |         0    |    17665
        2  |  3:55.41 |  5:00.68 |     17666    |    40233
        3  |  8:56.34 |  4:09.26 |     40234    |    58934
        4  | 13:05.60 |  4:08.60 |     58935    |    77594
        5  | 17:14.45 |  4:10.50 |     77595    |    96394
        6  | 21:25.20 |  4:05.62 |     96395    |   114831
        7  | 25:31.07 |  5:07.28 |    114832    |   137884
        8  | 30:38.35 |  5:54.44 |    137885    |   164478
        9  | 36:33.04 |  4:36.22 |    164479    |   185200
       10  | 41:09.26 |  4:55.45 |    185201    |   207370
       11  | 46:04.71 |  4:28.19 |    207371    |   227489
       12  | 50:33.15 |  5:11.62 |    227490    |   250876
       13  | 55:45.02 |  3:14.41 |    250877    |   265467
Range status and errors
Selected range
     Filename C:\Documents and Settings\Gundars\Desktop\Jim 85\Jim Diamond - Double crossed.wav
     Peak level 97.7 %
     Extraction speed 0.2 X
     Range quality 100.0 %
     Copy CRC 1E481C97
     Copy OK
No errors occurred
AccurateRip summary
Track  1  not present in database
Track  2  not present in database
Track  3  not present in database
Track  4  not present in database
Track  5  not present in database
Track  6  not present in database
Track  7  not present in database
Track  8  not present in database
Track  9  not present in database
Track 10  not present in database
Track 11  not present in database
Track 12  not present in database
Track 13  not present in database
None of the tracks are present in the AccurateRip database
End of status report
Код:
REM GENRE Synthypop
REM DATE 1985
REM DISCID B90DD30D
REM COMMENT "ExactAudioCopy v1.0b1"
PERFORMER "Jim Diamond"
TITLE "Double crossed"
FILE "Jim Diamond - Double crossed.flac" WAVE
  TRACK 01 AUDIO
    TITLE "1.Double crossed"
    PERFORMER "Jim Diamond"
    INDEX 01 00:00:00
  TRACK 02 AUDIO
    TITLE "2.I sleep alone at night"
    PERFORMER "Jim Diamond"
    INDEX 00 03:52:44
    INDEX 01 03:55:41
  TRACK 03 AUDIO
    TITLE "3.After the fire"
    PERFORMER "Jim Diamond"
    INDEX 00 08:54:00
    INDEX 01 08:56:34
  TRACK 04 AUDIO
    TITLE "4.I should have known better"
    PERFORMER "Jim Diamond"
    INDEX 00 13:02:00
    INDEX 01 13:05:60
  TRACK 05 AUDIO
    TITLE "5.Stumblin' over"
    PERFORMER "Jim Diamond"
    INDEX 01 17:14:45
  TRACK 06 AUDIO
    TITLE "6.Remember i love you"
    PERFORMER "Jim Diamond"
    INDEX 00 21:22:30
    INDEX 01 21:25:20
  TRACK 07 AUDIO
    TITLE "7.New generation"
    PERFORMER "Jim Diamond"
    INDEX 00 25:27:73
    INDEX 01 25:31:07
  TRACK 08 AUDIO
    TITLE "8.Co-operation"
    PERFORMER "Jim Diamond"
    INDEX 00 30:35:62
    INDEX 01 30:38:35
  TRACK 09 AUDIO
    TITLE "9.She is woman"
    PERFORMER "Jim Diamond"
    INDEX 00 36:30:25
    INDEX 01 36:33:04
  TRACK 10 AUDIO
    TITLE "10.I'm yours"
    PERFORMER "Jim Diamond"
    INDEX 00 41:07:13
    INDEX 01 41:09:26
  TRACK 11 AUDIO
    TITLE "11.Imposible dream"
    PERFORMER "Jim Diamond"
    INDEX 00 46:01:11
    INDEX 01 46:04:71
  TRACK 12 AUDIO
    TITLE "12.Caledonia"
    PERFORMER "Jim Diamond"
    INDEX 00 50:29:69
    INDEX 01 50:33:15
  TRACK 13 AUDIO
    TITLE "13.Rock'n'roll"
    PERFORMER "Jim Diamond"
    INDEX 00 55:41:67
    INDEX 01 55:45:02
Доп. информация: (p) 1985
Правила, инструкции, FAQ!!!
Торрент  Добавлен [26 мар 2019, 20:11] Скачать торрент Магнет ссылка
Скачать торрент
[ Размер 15.78 КБ / Просмотров 5 ]

Статус
Проверен 
 
Размер  385.97 МБ
Приватный: Нет (DHT включён)
.torrent скачан  0
 


     Отправить личное сообщение
   
Страница 1 из 1
Показать сообщения за:  Поле сортировки  
Начать новую тему Ответить на тему


Сейчас этот форум просматривают: нет зарегистрированных пользователей и гости: 0


Вы не можете начинать темы
Вы не можете отвечать на сообщения
Вы не можете редактировать свои сообщения
Вы не можете удалять свои сообщения
Вы не можете добавлять вложения

Перейти:  
cron