Начать новую тему Ответить на тему
Статистика раздачи
Размер: 398.45 МБ | Добавлен: 26 мар 2019, 20:29 | Скачали: 0
Сидеров: 0  [0 байт/сек]    Личеров: 0  [0 байт/сек]
Пред. тема | След. тема 

Автор
Сообщение

СообщениеДобавлено: 26 мар 2019, 20:29 

Ответить с цитатой 

Jesus Culture / Everything
Жанр: Pop-Rock
Страна-производитель диска: USA
Год издания диска: 2006
Издатель (лейбл): Jesus Culture Music
Страна: USA
Аудио кодек: FLAC (*.flac)
Тип рипа: tracks+.cue
Битрейт аудио: lossless
Продолжительность: 01:03:34
Источник (релизер): Frend's collection
Наличие сканов в содержимом раздачи: нет
Треклист:
1. How we want you to come
2. You
3. Prayer
4. I was made to worship You
5. Shining
6. Prayer
7. We are hungry
8. We will Sing
9. How Great is our God
10. Prayer
11. Everything
12. Dance
13. Spontaneous Worship
14. You (reprise)
15. You (reprise)
Код:
Exact Audio Copy V0.99 prebeta 3 from 28. July 2007
EAC extraction logfile from 29. April 2010, 23:30
Jesus Culture / Everything
Used drive  : SONY    DVD RW DW-U18A   Adapter: 0  ID: 0
Read mode               : Secure
Utilize accurate stream : Yes
Defeat audio cache      : Yes
Make use of C2 pointers : No
Read offset correction                      : 12
Overread into Lead-In and Lead-Out          : No
Fill up missing offset samples with silence : Yes
Delete leading and trailing silent blocks   : No
Null samples used in CRC calculations       : Yes
Used interface                              : Native Win32 interface for Win NT & 2000
Gap handling                                : Appended to previous track
Used output format              : User Defined Encoder
Selected bitrate                : 128 kBit/s
Quality                         : High
Add ID3 tag                     : No
Command line compressor         : C:\Program Files\Exact Audio Copy\Flac\flac.exe
Additional command line options : -V -8 -T "artist=%a" -T "title=%t" -T "album=%g" -T "date=%y" -T "tracknumber=%n" -T "genre=%m" %s
TOC of the extracted CD
     Track |   Start  |  Length  | Start sector | End sector
    ---------------------------------------------------------
        1  |  0:00.00 |  5:07.45 |         0    |    23069
        2  |  5:07.45 |  5:41.16 |     23070    |    48660
        3  | 10:48.61 |  0:36.71 |     48661    |    51431
        4  | 11:25.57 |  5:43.51 |     51432    |    77207
        5  | 17:09.33 |  7:12.64 |     77208    |   109671
        6  | 24:22.22 |  0:34.19 |    109672    |   112240
        7  | 24:56.41 |  6:34.31 |    112241    |   141821
        8  | 31:30.72 |  6:38.01 |    141822    |   171672
        9  | 38:08.73 |  4:17.23 |    171673    |   190970
       10  | 42:26.21 |  0:17.59 |    190971    |   192304
       11  | 42:44.05 |  8:02.47 |    192305    |   228501
       12  | 50:46.52 |  4:06.72 |    228502    |   247023
       13  | 54:53.49 |  4:31.17 |    247024    |   267365
       14  | 59:24.66 |  1:55.01 |    267366    |   275991
       15  | 61:19.67 |  2:15.20 |    275992    |   286136
Track  1
     Filename D:\Inbox\EAC\Jesus Culture\Jesus Culture - Everything (2006) [FLAC]\01 - Oh, How We Want You To Come.wav
     Pre-gap length  0:00:02.00
     Peak level 100.0 %
     Track quality 100.0 %
     Test CRC 0D2501AA
     Copy CRC 0D2501AA
     Track not present in AccurateRip database
     Copy OK
Track  2
     Filename D:\Inbox\EAC\Jesus Culture\Jesus Culture - Everything (2006) [FLAC]\02 - You.wav
     Pre-gap length  0:00:02.00
     Peak level 100.0 %
     Track quality 100.0 %
     Test CRC 5C5DBA63
     Copy CRC 5C5DBA63
     Track not present in AccurateRip database
     Copy OK
Track  3
     Filename D:\Inbox\EAC\Jesus Culture\Jesus Culture - Everything (2006) [FLAC]\03 - Prayer.wav
     Peak level 100.0 %
     Track quality 100.0 %
     Test CRC 193FE8C5
     Copy CRC 193FE8C5
     Track not present in AccurateRip database
     Copy OK
Track  4
     Filename D:\Inbox\EAC\Jesus Culture\Jesus Culture - Everything (2006) [FLAC]\04 - I Was Made To Worship You.wav
     Pre-gap length  0:00:02.00
     Peak level 100.0 %
     Track quality 99.9 %
     Test CRC 3418BE1A
     Copy CRC 3418BE1A
     Track not present in AccurateRip database
     Copy OK
Track  5
     Filename D:\Inbox\EAC\Jesus Culture\Jesus Culture - Everything (2006) [FLAC]\05 - Shinning.wav
     Pre-gap length  0:00:02.00
     Peak level 100.0 %
     Track quality 100.0 %
     Test CRC FFE34F4A
     Copy CRC FFE34F4A
     Track not present in AccurateRip database
     Copy OK
Track  6
     Filename D:\Inbox\EAC\Jesus Culture\Jesus Culture - Everything (2006) [FLAC]\06 - Prayer.wav
     Pre-gap length  0:00:02.00
     Peak level 100.0 %
     Track quality 100.0 %
     Test CRC 1FD65E3D
     Copy CRC 1FD65E3D
     Accurately ripped (confidence 1)  [F7210EF2]
     Copy OK
Track  7
     Filename D:\Inbox\EAC\Jesus Culture\Jesus Culture - Everything (2006) [FLAC]\07 - Hungry.wav
     Peak level 100.0 %
     Track quality 100.0 %
     Test CRC 95FAF337
     Copy CRC 95FAF337
     Accurately ripped (confidence 1)  [0FD76864]
     Copy OK
Track  8
     Filename D:\Inbox\EAC\Jesus Culture\Jesus Culture - Everything (2006) [FLAC]\08 - We Will Sing.wav
     Pre-gap length  0:00:02.00
     Peak level 100.0 %
     Track quality 100.0 %
     Test CRC 6F14508D
     Copy CRC 6F14508D
     Track not present in AccurateRip database
     Copy OK
Track  9
     Filename D:\Inbox\EAC\Jesus Culture\Jesus Culture - Everything (2006) [FLAC]\09 - How Great Is Our God.wav
     Pre-gap length  0:00:02.00
     Peak level 100.0 %
     Track quality 100.0 %
     Test CRC D2BB4D84
     Copy CRC D2BB4D84
     Track not present in AccurateRip database
     Copy OK
Track 10
     Filename D:\Inbox\EAC\Jesus Culture\Jesus Culture - Everything (2006) [FLAC]\10 - Prayer.wav
     Pre-gap length  0:00:02.00
     Peak level 79.3 %
     Track quality 100.0 %
     Test CRC 60B08525
     Copy CRC 60B08525
     Track not present in AccurateRip database
     Copy OK
Track 11
     Filename D:\Inbox\EAC\Jesus Culture\Jesus Culture - Everything (2006) [FLAC]\11 - Everything.wav
     Peak level 100.0 %
     Track quality 100.0 %
     Test CRC 9553A8B1
     Copy CRC 9553A8B1
     Accurately ripped (confidence 1)  [E7261371]
     Copy OK
Track 12
     Filename D:\Inbox\EAC\Jesus Culture\Jesus Culture - Everything (2006) [FLAC]\12 - Dance.wav
     Pre-gap length  0:00:02.00
     Peak level 100.0 %
     Track quality 100.0 %
     Test CRC 9C44C73B
     Copy CRC 9C44C73B
     Track not present in AccurateRip database
     Copy OK
Track 13
     Filename D:\Inbox\EAC\Jesus Culture\Jesus Culture - Everything (2006) [FLAC]\13 - Spontaneous Song.wav
     Peak level 100.0 %
     Track quality 100.0 %
     Test CRC 6A722D9E
     Copy CRC 6A722D9E
     Track not present in AccurateRip database
     Copy OK
Track 14
     Filename D:\Inbox\EAC\Jesus Culture\Jesus Culture - Everything (2006) [FLAC]\14 - You (Reprise).wav
     Pre-gap length  0:00:02.00
     Peak level 95.5 %
     Track quality 100.0 %
     Test CRC DF06AB57
     Copy CRC DF06AB57
     Track not present in AccurateRip database
     Copy OK
Track 15
     Filename D:\Inbox\EAC\Jesus Culture\Jesus Culture - Everything (2006) [FLAC]\15 - Sermon.wav
     Peak level 100.0 %
     Track quality 100.0 %
     Test CRC 476F1DB9
     Copy CRC 476F1DB9
     Track not present in AccurateRip database
     Copy OK
 3 track(s) accurately ripped
12 track(s) not present in the AccurateRip database
Some tracks could not be verified as accurate
No errors occurred
End of status report
Код:
REM GENRE
REM DATE
REM DISCID E70EE70F
REM COMMENT "ExactAudioCopy v0.99pb3"
PERFORMER "Jesus Culture"
TITLE "Everything"
FILE "01 - Oh, How We Want You To Come.wav" WAVE
  TRACK 01 AUDIO
    TITLE "Oh, How We Want You To Come"
    PERFORMER "Jesus Culture"
    INDEX 01 00:00:00
  TRACK 02 AUDIO
    TITLE "You"
    PERFORMER "Jesus Culture"
    INDEX 00 05:05:45
FILE "02 - You.wav" WAVE
    INDEX 01 00:00:00
FILE "03 - Prayer.wav" WAVE
  TRACK 03 AUDIO
    TITLE "Prayer"
    PERFORMER "Jesus Culture"
    INDEX 01 00:00:00
  TRACK 04 AUDIO
    TITLE "I Was Made To Worship You"
    PERFORMER "Jesus Culture"
    INDEX 00 00:34:71
FILE "04 - I Was Made To Worship You.wav" WAVE
    INDEX 01 00:00:00
  TRACK 05 AUDIO
    TITLE "Shinning"
    PERFORMER "Jesus Culture"
    INDEX 00 05:41:51
FILE "05 - Shinning.wav" WAVE
    INDEX 01 00:00:00
  TRACK 06 AUDIO
    TITLE "Prayer"
    PERFORMER "Jesus Culture"
    INDEX 00 07:10:64
FILE "06 - Prayer.wav" WAVE
    INDEX 01 00:00:00
FILE "07 - Hungry.wav" WAVE
  TRACK 07 AUDIO
    TITLE "Hungry"
    PERFORMER "Jesus Culture"
    INDEX 01 00:00:00
  TRACK 08 AUDIO
    TITLE "We Will Sing"
    PERFORMER "Jesus Culture"
    INDEX 00 06:32:31
FILE "08 - We Will Sing.wav" WAVE
    INDEX 01 00:00:00
  TRACK 09 AUDIO
    TITLE "How Great Is Our God"
    PERFORMER "Jesus Culture"
    INDEX 00 06:36:01
FILE "09 - How Great Is Our God.wav" WAVE
    INDEX 01 00:00:00
  TRACK 10 AUDIO
    TITLE "Prayer"
    PERFORMER "Jesus Culture"
    INDEX 00 04:15:23
FILE "10 - Prayer.wav" WAVE
    INDEX 01 00:00:00
FILE "11 - Everything.wav" WAVE
  TRACK 11 AUDIO
    TITLE "Everything"
    PERFORMER "Jesus Culture"
    INDEX 01 00:00:00
  TRACK 12 AUDIO
    TITLE "Dance"
    PERFORMER "Jesus Culture"
    INDEX 00 08:00:47
FILE "12 - Dance.wav" WAVE
    INDEX 01 00:00:00
FILE "13 - Spontaneous Song.wav" WAVE
  TRACK 13 AUDIO
    TITLE "Spontaneous Song"
    PERFORMER "Jesus Culture"
    INDEX 01 00:00:00
  TRACK 14 AUDIO
    TITLE "You (Reprise)"
    PERFORMER "Jesus Culture"
    INDEX 00 04:29:17
FILE "14 - You (Reprise).wav" WAVE
    INDEX 01 00:00:00
FILE "15 - Sermon.wav" WAVE
  TRACK 15 AUDIO
    TITLE "Sermon"
    PERFORMER "Jesus Culture"
    INDEX 01 00:00:00
Debut album.
Правила, инструкции, FAQ!!!
Торрент  Добавлен [26 мар 2019, 20:29] Скачать торрент Магнет ссылка
Скачать торрент
[ Размер 17.03 КБ / Просмотров 5 ]

Статус
Проверен 
 
Размер  398.45 МБ
Приватный: Нет (DHT включён)
.torrent скачан  0
 


     Отправить личное сообщение
   
Страница 1 из 1
Показать сообщения за:  Поле сортировки  
Начать новую тему Ответить на тему


Сейчас этот форум просматривают: нет зарегистрированных пользователей и гости: 0


Вы не можете начинать темы
Вы не можете отвечать на сообщения
Вы не можете редактировать свои сообщения
Вы не можете удалять свои сообщения
Вы не можете добавлять вложения

Перейти:  
cron