Начать новую тему Ответить на тему
Статистика раздачи
Размер: 512 МБ | Добавлен: 26 мар 2019, 20:29 | Скачали: 1
Сидеров: 18  [0 байт/сек]    Личеров: 2  [0 байт/сек]
Пред. тема | След. тема 

Автор
Сообщение

СообщениеДобавлено: 26 мар 2019, 20:29 

Ответить с цитатой 

Jesus Culture / We Cry Out
Жанр: Pop-Rock
Страна-производитель диска: USA
Год издания диска: 2007
Издатель (лейбл): Jesus Culture Music
Страна: USA
Аудио кодек: FLAC (*.flac)
Тип рипа: tracks+.cue
Битрейт аудио: lossless
Продолжительность: 01:10:01
Источник (релизер): Frend's collection
Наличие сканов в содержимом раздачи: нет
Треклист:
1. We Cry Out
2. Your Love is Everything
3. Rain Down
4. I Adore You
5. See His Love
6. My Romance
7. How He Loves
8. Fire Fall Down
9. All I Need
10. The Time Has Come
Код:
Exact Audio Copy V0.99 prebeta 5 from 4. May 2009
EAC extraction logfile from 21. June 2010, 20:04
Jesus Culture / We Cry Out
Used drive  : TSSTcorpCD/DVDW SH-S182M   Adapter: 3  ID: 0
Read mode               : Secure
Utilize accurate stream : Yes
Defeat audio cache      : Yes
Make use of C2 pointers : No
Read offset correction                      : 6
Overread into Lead-In and Lead-Out          : No
Fill up missing offset samples with silence : Yes
Delete leading and trailing silent blocks   : No
Null samples used in CRC calculations       : Yes
Used interface                              : Native Win32 interface for Win NT & 2000
Gap handling                                : Appended to previous track
Used output format              : User Defined Encoder
Selected bitrate                : 320 kBit/s
Quality                         : High
Add ID3 tag                     : No
Command line compressor         : C:\Program Files (x86)\Exact Audio Copy\Flac\flac.exe
Additional command line options : -V -8 -T "artist=%a" -T "title=%t" -T "album=%g" -T "date=%y" -T "tracknumber=%n" -T "genre=%m" %s
TOC of the extracted CD
     Track |   Start  |  Length  | Start sector | End sector
    ---------------------------------------------------------
        1  |  0:00.00 |  6:13.29 |         0    |    28003
        2  |  6:13.29 |  6:32.50 |     28004    |    57453
        3  | 12:46.04 |  5:55.31 |     57454    |    84109
        4  | 18:41.35 |  6:40.47 |     84110    |   114156
        5  | 25:22.07 |  7:11.70 |    114157    |   146551
        6  | 32:34.02 |  5:46.64 |    146552    |   172565
        7  | 38:20.66 |  8:53.09 |    172566    |   212549
        8  | 47:14.00 |  9:23.04 |    212550    |   254778
        9  | 56:37.04 |  6:44.71 |    254779    |   285149
       10  | 63:22.00 |  6:39.56 |    285150    |   315130
Track  1
     Filename G:\FLAC\01 - We Cry Out - Kim Walker - Jesus Culture - We Cry Out - 2007 - Contemporary Christian.wav
     Pre-gap length  0:00:02.00
     Peak level 97.5 %
     Track quality 100.0 %
     Test CRC CEFB23ED
     Copy CRC CEFB23ED
     Cannot be verified as accurate (confidence 1)  [BCB76E10], AccurateRip returned [44E1A412]
     Copy OK
Track  2
     Filename G:\FLAC\02 - Your Love Is Everything - Chris Quilala - Jesus Culture - We Cry Out - 2007 - Contemporary Christian.wav
     Peak level 97.6 %
     Track quality 100.0 %
     Test CRC F305E57D
     Copy CRC F305E57D
     Cannot be verified as accurate (confidence 1)  [7AAB09A0], AccurateRip returned [65EE415A]
     Copy OK
Track  3
     Filename G:\FLAC\03 - Rain Down - Melissa Wise - Jesus Culture - We Cry Out - 2007 - Contemporary Christian.wav
     Peak level 97.9 %
     Track quality 100.0 %
     Test CRC CD779E8B
     Copy CRC CD779E8B
     Cannot be verified as accurate (confidence 1)  [CFEDB150], AccurateRip returned [74D37725]
     Copy OK
Track  4
     Filename G:\FLAC\04 - I Adore You - Chris Quilala - Jesus Culture - We Cry Out - 2007 - Contemporary Christian.wav
     Peak level 98.5 %
     Track quality 100.0 %
     Test CRC DB62776B
     Copy CRC DB62776B
     Cannot be verified as accurate (confidence 1)  [CAF13A5A], AccurateRip returned [47FE5F8F]
     Copy OK
Track  5
     Filename G:\FLAC\05 - See His Love - Kim Walker - Jesus Culture - We Cry Out - 2007 - Contemporary Christian.wav
     Peak level 97.5 %
     Track quality 100.0 %
     Test CRC D296EC86
     Copy CRC D296EC86
     Cannot be verified as accurate (confidence 1)  [C41C3C7E], AccurateRip returned [92A30B6C]
     Copy OK
Track  6
     Filename G:\FLAC\06 - My Romance - Melissa Wise - Jesus Culture - We Cry Out - 2007 - Contemporary Christian.wav
     Peak level 98.5 %
     Track quality 100.0 %
     Test CRC 34AB0C3B
     Copy CRC 34AB0C3B
     Cannot be verified as accurate (confidence 1)  [EC2012A4], AccurateRip returned [4EDB7B2D]
     Copy OK
Track  7
     Filename G:\FLAC\07 - How He Loves - Kim Walker - Jesus Culture - We Cry Out - 2007 - Contemporary Christian.wav
     Peak level 98.5 %
     Track quality 100.0 %
     Test CRC 27689451
     Copy CRC 27689451
     Cannot be verified as accurate (confidence 1)  [BDC3CAC5], AccurateRip returned [E2F8589A]
     Copy OK
Track  8
     Filename G:\FLAC\08 - Fire Fall Down - Chris Quilala - Jesus Culture - We Cry Out - 2007 - Contemporary Christian.wav
     Peak level 98.4 %
     Track quality 100.0 %
     Test CRC EF105F8E
     Copy CRC EF105F8E
     Cannot be verified as accurate (confidence 1)  [C77ADB42], AccurateRip returned [FA9ABF5B]
     Copy OK
Track  9
     Filename G:\FLAC\09 - All I Need - Kim Walker - Jesus Culture - We Cry Out - 2007 - Contemporary Christian.wav
     Peak level 98.4 %
     Track quality 100.0 %
     Test CRC 448756D4
     Copy CRC 448756D4
     Cannot be verified as accurate (confidence 1)  [FB1372BD], AccurateRip returned [CD5F41AA]
     Copy OK
Track 10
     Filename G:\FLAC\10 - The Time Has Come - Melissa Wise - Jesus Culture - We Cry Out - 2007 - Contemporary Christian.wav
     Peak level 99.6 %
     Track quality 100.0 %
     Test CRC 6B17DB8E
     Copy CRC 6B17DB8E
     Cannot be verified as accurate (confidence 1)  [9E7F58F3], AccurateRip returned [29FBEDEC]
     Copy OK
No tracks could be verified as accurate
You may have a different pressing from the one(s) in the database
No errors occurred
End of status report
Код:
REM GENRE "Contemporary Christian"
REM DATE 2007
REM DISCID 8F10690A
REM COMMENT "ExactAudioCopy v0.99pb5"
FILE "01 - We Cry Out - Kim Walker - Jesus Culture - We Cry Out - 2007 - Contemporary Christian.wav" WAVE
  TRACK 01 AUDIO
    INDEX 01 00:00:00
FILE "02 - Your Love Is Everything - Chris Quilala - Jesus Culture - We Cry Out - 2007 - Contemporary Christian.wav" WAVE
  TRACK 02 AUDIO
    INDEX 01 00:00:00
FILE "03 - Rain Down - Melissa Wise - Jesus Culture - We Cry Out - 2007 - Contemporary Christian.wav" WAVE
  TRACK 03 AUDIO
    INDEX 01 00:00:00
FILE "04 - I Adore You - Chris Quilala - Jesus Culture - We Cry Out - 2007 - Contemporary Christian.wav" WAVE
  TRACK 04 AUDIO
    INDEX 01 00:00:00
FILE "05 - See His Love - Kim Walker - Jesus Culture - We Cry Out - 2007 - Contemporary Christian.wav" WAVE
  TRACK 05 AUDIO
    INDEX 01 00:00:00
FILE "06 - My Romance - Melissa Wise - Jesus Culture - We Cry Out - 2007 - Contemporary Christian.wav" WAVE
  TRACK 06 AUDIO
    INDEX 01 00:00:00
FILE "07 - How He Loves - Kim Walker - Jesus Culture - We Cry Out - 2007 - Contemporary Christian.wav" WAVE
  TRACK 07 AUDIO
    INDEX 01 00:00:00
FILE "08 - Fire Fall Down - Chris Quilala - Jesus Culture - We Cry Out - 2007 - Contemporary Christian.wav" WAVE
  TRACK 08 AUDIO
    INDEX 01 00:00:00
FILE "09 - All I Need - Kim Walker - Jesus Culture - We Cry Out - 2007 - Contemporary Christian.wav" WAVE
  TRACK 09 AUDIO
    INDEX 01 00:00:00
FILE "10 - The Time Has Come - Melissa Wise - Jesus Culture - We Cry Out - 2007 - Contemporary Christian.wav" WAVE
  TRACK 10 AUDIO
    INDEX 01 00:00:00
Правила, инструкции, FAQ!!!
Торрент  Добавлен [26 мар 2019, 20:29] Скачать торрент Магнет ссылка
Скачать торрент
[ Размер 22.42 КБ / Просмотров 12 ]

Статус
Проверен 
 
Размер  512 МБ
Приватный: Нет (DHT включён)
.torrent скачан  1
 


     Отправить личное сообщение
   
Страница 1 из 1
Показать сообщения за:  Поле сортировки  
Начать новую тему Ответить на тему


Сейчас этот форум просматривают: нет зарегистрированных пользователей и гости: 0


Вы не можете начинать темы
Вы не можете отвечать на сообщения
Вы не можете редактировать свои сообщения
Вы не можете удалять свои сообщения
Вы не можете добавлять вложения

Перейти:  
cron