Начать новую тему Ответить на тему
Статистика раздачи
Размер: 519.52 МБ | Добавлен: 26 мар 2019, 20:29 | Скачали: 1
Сидеров: 9  [0 байт/сек]    Личеров: 0  [0 байт/сек]
Пред. тема | След. тема 

Автор
Сообщение

СообщениеДобавлено: 26 мар 2019, 20:29 

Ответить с цитатой 

Jesus Culture / Consumed
Жанр: Pop-Rock
Страна-производитель диска: USA
Год издания диска: 2009
Издатель (лейбл): Jesus Culture Music
Номер по каталогу: JC-10007-7
Страна: USA
Аудио кодек: FLAC (*.flac)
Тип рипа: tracks+.cue
Битрейт аудио: lossless
Продолжительность: 01:14:45
Источник (релизер): Frend's collection
Наличие сканов в содержимом раздачи: да
Треклист:
1. Heaven Is Here
2. Burning Ones
3. Holding Nothing Back
4. Revelation Song
5. Dance with Me
6. Light of Your Face
7. Holy
8. You Are Faithful
9. Oh Lord You're Beautiful
10. Obsession
Код:
Exact Audio Copy V0.99 prebeta 4 from 23. January 2008
EAC extraction logfile from 12. August 2009, 20:44
Jesus Culture / Consumed
Used drive  : Optiarc BD ROM BC-5500A   Adapter: 1  ID: 0
Read mode               : Secure
Utilize accurate stream : Yes
Defeat audio cache      : Yes
Make use of C2 pointers : No
Read offset correction                      : 0
Overread into Lead-In and Lead-Out          : No
Fill up missing offset samples with silence : Yes
Delete leading and trailing silent blocks   : No
Null samples used in CRC calculations       : No
Used interface                              : Native Win32 interface for Win NT & 2000
Gap handling                                : Appended to previous track
Used output format              : User Defined Encoder
Selected bitrate                : 768 kBit/s
Quality                         : High
Add ID3 tag                     : No
Command line compressor         : C:\Program Files\Exact Audio Copy\Flac\flac.exe
Additional command line options : -V -8 -T "artist=%a" -T "title=%t" -T "album=%g" -T "date=%y" -T "tracknumber=%n" -T "genre=%m" %s
TOC of the extracted CD
     Track |   Start  |  Length  | Start sector | End sector
    ---------------------------------------------------------
        1  |  0:00.00 |  4:05.01 |         0    |    18375
        2  |  4:05.01 |  7:03.18 |     18376    |    50118
        3  | 11:08.19 |  5:18.68 |     50119    |    74036
        4  | 16:27.12 |  9:27.14 |     74037    |   116575
        5  | 25:54.26 |  7:11.53 |    116576    |   148953
        6  | 33:06.04 | 10:51.44 |    148954    |   197822
        7  | 43:57.48 |  9:56.20 |    197823    |   242542
        8  | 53:53.68 |  7:26.08 |    242543    |   276000
        9  | 61:20.01 |  5:00.06 |    276001    |   298506
       10  | 66:20.07 |  8:25.69 |    298507    |   336450
Track  1
     Filename C:\Users\Jefrek\EAC\Jesus Culture - Consumed - 01 - Heaven Is Here.wav
     Pre-gap length  0:00:02.00
     Peak level 99.8 %
     Track quality 100.0 %
     Test CRC 722F5C51
     Copy CRC 722F5C51
     Copy OK
Track  2
     Filename C:\Users\Jefrek\EAC\Jesus Culture - Consumed - 02 - Burning Ones.wav
     Peak level 99.7 %
     Track quality 100.0 %
     Test CRC 2ECE5EE2
     Copy CRC 2ECE5EE2
     Copy OK
Track  3
     Filename C:\Users\Jefrek\EAC\Jesus Culture - Consumed - 03 - Holding Nothing Back.wav
     Pre-gap length  0:00:00.02
     Peak level 99.8 %
     Track quality 100.0 %
     Test CRC 4377F5FA
     Copy CRC 4377F5FA
     Copy OK
Track  4
     Filename C:\Users\Jefrek\EAC\Jesus Culture - Consumed - 04 - Revelation Song.wav
     Peak level 99.8 %
     Track quality 99.9 %
     Test CRC 2A052A31
     Copy CRC 2A052A31
     Copy OK
Track  5
     Filename C:\Users\Jefrek\EAC\Jesus Culture - Consumed - 05 - Dance with Me.wav
     Peak level 99.7 %
     Track quality 99.9 %
     Test CRC BF415B97
     Copy CRC BF415B97
     Copy OK
Track  6
     Filename C:\Users\Jefrek\EAC\Jesus Culture - Consumed - 06 - Light of Your Face.wav
     Peak level 99.7 %
     Track quality 100.0 %
     Test CRC 1100138D
     Copy CRC 1100138D
     Copy OK
Track  7
     Filename C:\Users\Jefrek\EAC\Jesus Culture - Consumed - 07 - Holy.wav
     Peak level 99.7 %
     Track quality 100.0 %
     Test CRC 12FDF317
     Copy CRC 12FDF317
     Copy OK
Track  8
     Filename C:\Users\Jefrek\EAC\Jesus Culture - Consumed - 08 - You Are Faithful.wav
     Peak level 99.7 %
     Track quality 100.0 %
     Test CRC 34C54061
     Copy CRC 34C54061
     Copy OK
Track  9
     Filename C:\Users\Jefrek\EAC\Jesus Culture - Consumed - 09 - Oh Lord You're Beautiful.wav
     Peak level 99.7 %
     Track quality 100.0 %
     Test CRC 7964C2A8
     Copy CRC 7964C2A8
     Copy OK
Track 10
     Filename C:\Users\Jefrek\EAC\Jesus Culture - Consumed - 10 - Obsession.wav
     Pre-gap length  0:00:00.10
     Peak level 99.7 %
     Track quality 100.0 %
     Test CRC FD74BE3E
     Copy CRC FD74BE3E
     Copy OK
No errors occurred
End of status report
Код:
REM GENRE Worship
REM DATE 2009
REM DISCID AB11860A
REM COMMENT "ExactAudioCopy v0.99pb4"
PERFORMER "Jesus Culture"
TITLE "Consumed"
FILE "Jesus Culture - Consumed - 01 - Heaven Is Here.wav" WAVE
  TRACK 01 AUDIO
    TITLE "Heaven Is Here"
    PERFORMER "Jesus Culture"
    INDEX 01 00:00:00
FILE "Jesus Culture - Consumed - 02 - Burning Ones.wav" WAVE
  TRACK 02 AUDIO
    TITLE "Burning Ones"
    PERFORMER "Jesus Culture"
    INDEX 01 00:00:00
  TRACK 03 AUDIO
    TITLE "Holding Nothing Back"
    PERFORMER "Jesus Culture"
    INDEX 00 07:03:16
FILE "Jesus Culture - Consumed - 03 - Holding Nothing Back.wav" WAVE
    INDEX 01 00:00:00
FILE "Jesus Culture - Consumed - 04 - Revelation Song.wav" WAVE
  TRACK 04 AUDIO
    TITLE "Revelation Song"
    PERFORMER "Jesus Culture"
    INDEX 01 00:00:00
FILE "Jesus Culture - Consumed - 05 - Dance with Me.wav" WAVE
  TRACK 05 AUDIO
    TITLE "Dance with Me"
    PERFORMER "Jesus Culture"
    INDEX 01 00:00:00
FILE "Jesus Culture - Consumed - 06 - Light of Your Face.wav" WAVE
  TRACK 06 AUDIO
    TITLE "Light of Your Face"
    PERFORMER "Jesus Culture"
    INDEX 01 00:00:00
FILE "Jesus Culture - Consumed - 07 - Holy.wav" WAVE
  TRACK 07 AUDIO
    TITLE "Holy"
    PERFORMER "Jesus Culture"
    INDEX 01 00:00:00
FILE "Jesus Culture - Consumed - 08 - You Are Faithful.wav" WAVE
  TRACK 08 AUDIO
    TITLE "You Are Faithful"
    PERFORMER "Jesus Culture"
    INDEX 01 00:00:00
FILE "Jesus Culture - Consumed - 09 - Oh Lord You're Beautiful.wav" WAVE
  TRACK 09 AUDIO
    TITLE "Oh Lord You're Beautiful"
    PERFORMER "Jesus Culture"
    INDEX 01 00:00:00
  TRACK 10 AUDIO
    TITLE "Obsession"
    PERFORMER "Jesus Culture"
    INDEX 00 04:59:71
FILE "Jesus Culture - Consumed - 10 - Obsession.wav" WAVE
    INDEX 01 00:00:00
Jesus Culture began in the summer of 1999, when the youth group at Bethel Church in Redding, California, led by Banning Liebscher, launched the first Jesus Culture conference. The ministry has been called "one of the most significant Christian movements in post-war America
4th album of JC.
Kim Walker-Smith, Chris Quilala, and Melissa How were worship leaders at Bethel Church's youth group, and are the core of the Jesus Culture Band.[
Правила, инструкции, FAQ!!!
Торрент  Добавлен [26 мар 2019, 20:29] Скачать торрент Магнет ссылка
Скачать торрент
[ Размер 11.67 КБ / Просмотров 98 ]

Статус
Проверен 
 
Размер  519.52 МБ
Приватный: Нет (DHT включён)
.torrent скачан  1
 


     Отправить личное сообщение
   
Страница 1 из 1
Показать сообщения за:  Поле сортировки  
Начать новую тему Ответить на тему


Сейчас этот форум просматривают: нет зарегистрированных пользователей и гости: 0


Вы не можете начинать темы
Вы не можете отвечать на сообщения
Вы не можете редактировать свои сообщения
Вы не можете удалять свои сообщения
Вы не можете добавлять вложения

Перейти:  
cron