Начать новую тему Ответить на тему
Статистика раздачи
Размер: 476.07 МБ | Добавлен: 26 мар 2019, 18:38 | Скачали: 1
Сидеров: 0  [0 байт/сек]    Личеров: 0  [0 байт/сек]
Пред. тема | След. тема 

Автор
Сообщение

СообщениеДобавлено: 26 мар 2019, 18:38 

Ответить с цитатой 

Jess Roden - The Best Of
Жанр: Pop/Rock
Страна-производитель диска: EU
Год издания диска: 2009
Издатель (лейбл): Lemon Rocords
Номер по каталогу: CD LEM 126
Страна: England
Аудиокодек: APE (*.ape)
Тип рипа: image+.cue
Битрейт аудио: lossless
Продолжительность: 01:17:00
Источник (релизер): Диск из личной коллекции
Наличие сканов в содержимом раздачи: да
Треклист:
1. BALLAD OF BIG SALLY (5'47)
2. BLOWIN' (3'26)
3. YOU CAN LEAVE YOUR HAT ON (4'09)
4. STONECHASER (5'38)
5. REASON TO CHANGE (3'54)
6. WOMAN ACROSS THE WATER (4'08)
7. IN A CIRLCE (5'30)
8. TROUBLE IN THE MIND (3'54)
9. ME AND CRYSTAL EYE (4'14)
10. IN ME TONIGHT (4'30)
11. CAN'T GET NEXT TO YOU (7'01)
12. WHAT THE HELL (4'54)
13. I'M ON A WINNER WITH YOU (3'19)
14. DEEPER IN LOVE (2'58)
15. LONELY AVENUE (3'33)
16. IF YOU CHANGE YOUR MIND (3'26)
17. JUMP MAMA (3'59)
18. ALL NIGHT LONG (3'34)
Tracks 5,8,12 from album JESS RODEN (1974)
Tracks 2,3,7,13,17 from album LEAVE YOUR HAT ON (1976)
Tracks 1,4,9,11,18 from album PALY IT DIRTY, PLAY IT CLASS (1977)
Tracks 6,10,15 from album PLAYER NOT THE GAME (1977)
Tracks 14,16 from album STONECHASER (1980)
Код:
Exact Audio Copy V0.99 prebeta 4 from 23. January 2008
Отчёт EAC об извлечении, выполненном 22. февраля 2012, 18:51
Jess Roden / The Best Of (Lemon, 2009)
Дисковод: HL-DT-STDVDRAM GH20LS10   Adapter: 3  ID: 1
Режим чтения                 : Достоверность
Использование точного потока : Да
Отключение кэша аудио        : Да
Использование указателей C2  : Нет
Коррекция смещения при чтении                     : 667
Способность читать области Lead-in и Lead-out     : Нет
Заполнение пропущенных сэмплов тишиной            : Да
Удаление блоков с тишиной в начале и конце        : Нет
При вычислениях CRC использовались нулевые сэмплы : Да
Интерфейс                                         : Встроенный Win32-интерфейс для Win NT/2000
Выходной формат : Внутренние WAV-операции
Формат сэмплов  : 44.100 Гц; 16 бит; стерео
TOC извлечённого CD
     Трек |   Старт  | Длительность | Начальный сектор | Конечный сектор
    ---------------------------------------------------------------------
       1  |  0:00.00 |    5:44.26   |           0      |      25825
       2  |  5:44.26 |    3:27.47   |       25826      |      41397
       3  |  9:11.73 |    4:04.45   |       41398      |      59742
       4  | 13:16.43 |    5:33.64   |       59743      |      84781
       5  | 18:50.32 |    3:05.11   |       84782      |      98667
       6  | 21:55.43 |    4:13.24   |       98668      |     117666
       7  | 26:08.67 |    5:33.50   |      117667      |     142691
       8  | 31:42.42 |    4:08.02   |      142692      |     161293
       9  | 35:50.44 |    4:13.59   |      161294      |     180327
      10  | 40:04.28 |    4:36.62   |      180328      |     201089
      11  | 44:41.15 |    7:00.03   |      201090      |     232592
      12  | 51:41.18 |    4:57.12   |      232593      |     254879
      13  | 56:38.30 |    3:20.15   |      254880      |     269894
      14  | 59:58.45 |    2:58.42   |      269895      |     283286
      15  | 62:57.12 |    3:37.43   |      283287      |     299604
      16  | 66:34.55 |    3:17.52   |      299605      |     314431
      17  | 69:52.32 |    4:02.21   |      314432      |     332602
      18  | 73:54.53 |    3:33.74   |      332603      |     348651
Характеристики диапазона извлечения и сообщения об ошибках
Выбранный диапазон
     Имя файла D:\Lossless\Jess Roden - The Best Of - 2009\Jess Roden - The Best Of (Lemon, 2009).wav
     Пиковый уровень 100.0 %
     Качество диапазона 100.0 %
     CRC теста 32B02A3A
     CRC копии 32B02A3A
     Копирование... OK
Ошибок не произошло
AccurateRip: сводка
Трек  1  нет в базе данных
Трек  2  нет в базе данных
Трек  3  нет в базе данных
Трек  4  нет в базе данных
Трек  5  нет в базе данных
Трек  6  нет в базе данных
Трек  7  нет в базе данных
Трек  8  нет в базе данных
Трек  9  нет в базе данных
Трек 10  нет в базе данных
Трек 11  нет в базе данных
Трек 12  нет в базе данных
Трек 13  нет в базе данных
Трек 14  нет в базе данных
Трек 15  нет в базе данных
Трек 16  нет в базе данных
Трек 17  нет в базе данных
Трек 18  нет в базе данных
Ни одного трека нет в базе AccurateRip
Конец отчёта
Код:
REM GENRE "Blue Eyed Soul"
REM DATE 2009
REM DISCID FA122812
REM COMMENT "ExactAudioCopy v0.99pb4"
PERFORMER "Jess Roden"
TITLE "The Best Of (Lemon, 2009)"
FILE "Jess Roden - The Best Of (Lemon, 2009).wav" WAVE
  TRACK 01 AUDIO
    TITLE "Ballad Of Big Sally"
    PERFORMER "Jess Roden"
    INDEX 01 00:00:00
  TRACK 02 AUDIO
    TITLE "Blowin'"
    PERFORMER "Jess Roden"
    INDEX 00 05:42:26
    INDEX 01 05:44:26
  TRACK 03 AUDIO
    TITLE "You Can Leave Your Hat On"
    PERFORMER "Jess Roden"
    INDEX 00 09:09:73
    INDEX 01 09:11:73
  TRACK 04 AUDIO
    TITLE "Stonechaser"
    PERFORMER "Jess Roden"
    INDEX 00 13:14:43
    INDEX 01 13:16:43
  TRACK 05 AUDIO
    TITLE "Reason To Change"
    PERFORMER "Jess Roden"
    INDEX 00 18:48:32
    INDEX 01 18:50:32
  TRACK 06 AUDIO
    TITLE "Woman Across The Water"
    PERFORMER "Jess Roden"
    INDEX 00 21:53:43
    INDEX 01 21:55:43
  TRACK 07 AUDIO
    TITLE "In A Circle"
    PERFORMER "Jess Roden"
    INDEX 00 26:06:67
    INDEX 01 26:08:67
  TRACK 08 AUDIO
    TITLE "Trouble In The Mind"
    PERFORMER "Jess Roden"
    INDEX 00 31:40:42
    INDEX 01 31:42:42
  TRACK 09 AUDIO
    TITLE "Me And Crystal Eye"
    PERFORMER "Jess Roden"
    INDEX 00 35:48:44
    INDEX 01 35:50:44
  TRACK 10 AUDIO
    TITLE "In Me Tonight"
    PERFORMER "Jess Roden"
    INDEX 00 40:02:28
    INDEX 01 40:04:28
  TRACK 11 AUDIO
    TITLE "Can't Get Next To You"
    PERFORMER "Jess Roden"
    INDEX 00 44:39:15
    INDEX 01 44:41:15
  TRACK 12 AUDIO
    TITLE "What The Hell"
    PERFORMER "Jess Roden"
    INDEX 00 51:39:18
    INDEX 01 51:41:18
  TRACK 13 AUDIO
    TITLE "I'm On A Winner With You"
    PERFORMER "Jess Roden"
    INDEX 00 56:36:30
    INDEX 01 56:38:30
  TRACK 14 AUDIO
    TITLE "Deeper In Love"
    PERFORMER "Jess Roden"
    INDEX 00 59:56:45
    INDEX 01 59:58:45
  TRACK 15 AUDIO
    TITLE "Lonely Avenue"
    PERFORMER "Jess Roden"
    INDEX 00 62:55:12
    INDEX 01 62:57:12
  TRACK 16 AUDIO
    TITLE "If You Change Your Mind"
    PERFORMER "Jess Roden"
    INDEX 00 66:32:55
    INDEX 01 66:34:55
  TRACK 17 AUDIO
    TITLE "Jump Mama"
    PERFORMER "Jess Roden"
    INDEX 00 69:50:32
    INDEX 01 69:52:32
  TRACK 18 AUDIO
    TITLE "All Night Long"
    PERFORMER "Jess Roden"
    INDEX 00 73:52:53
    INDEX 01 73:54:53
Правила, инструкции, FAQ!!!
Торрент  Добавлен [26 мар 2019, 18:38] Скачать торрент Магнет ссылка
Скачать торрент
[ Размер 19.49 КБ / Просмотров 13 ]

Статус
Проверен 
 
Размер  476.07 МБ
Приватный: Нет (DHT включён)
.torrent скачан  1
 


     Отправить личное сообщение
   
Страница 1 из 1
Показать сообщения за:  Поле сортировки  
Начать новую тему Ответить на тему


Сейчас этот форум просматривают: нет зарегистрированных пользователей и гости: 0


Вы не можете начинать темы
Вы не можете отвечать на сообщения
Вы не можете редактировать свои сообщения
Вы не можете удалять свои сообщения
Вы не можете добавлять вложения

Перейти:  
cron