Начать новую тему Ответить на тему
Статистика раздачи
Размер: 270.84 МБ | Добавлен: 26 мар 2019, 22:37 | Скачали: 1
Сидеров: 0  [0 байт/сек]    Личеров: 0  [0 байт/сек]
Пред. тема | След. тема 

Автор
Сообщение

СообщениеДобавлено: 26 мар 2019, 22:37 

Ответить с цитатой 

Rosie Vela / Zazu
Жанр: Pop-rock, Jazz-rock
Год издания: 1986
Издатель (лейбл): A&M
Аудиокодек: FLAC (*.flac)
Тип рипа: tracks+.cue
Битрейт аудио: lossless
Продолжительность: 00:39:48
Источник (релизер): CydneyX
Наличие сканов в содержимом раздачи: да
Треклист:
01 - Fool's Paradise
02 - Magic Smile
03 - Interlude
04 - Tonto
05 - Sunday
06 - Taxi
07 - 2nd Emotion
08 - Boxs
09 - Zazu
Дебютный и, к настоящему времени, единственный альбом Рози Вэлы "Zazu" был выпущен в 1986 году. Cherry Red Records недавно переиздали этот альбом. Купить его можно здесь и он также доступен на Яндекс.Музыке.
Вэла написала всю музыку на "Zazu" и ее песни оказались настолько хороши, что Уолтер Беккер и Дональд Фаген из Steely Dan воссоединили группу, чтобы играть на них. Она выпустила альбом, который сравнивали с произведениями Джони Митчелл, Рики Ли Джонс и Кейт Буш. Интервью с Рози доступно здесь (англ).
Но у нее есть завершенный второй альбом под названием "Sun Across the Altar", который был отвергнут ее лейблом и с 1991 года до сих пор находится в архиве. Гитарист Рик Дерринджер (который играл на обоих альбомах Рози) утверждал, что второй альбом "великолепен ... музыка, тексты, песни и вокал по качеству превосходят Zazu". Всю историю можно прочитать здесь (англ).
"Sun Across the Altar" еще может быть выпущен компанией Cherry Red.
Подпишите петицию и получите, наконец, возможность услышать второй альбом Рози!
Код:
Exact Audio Copy V0.99 prebeta 5 from 4. May 2009
EAC extraction logfile from 22. March 2012, 16:03
Rosie Vela / Zazu
Used drive  : HL-DT-STDVDRAM GT20F   Adapter: 0  ID: 1
Read mode               : Secure
Utilize accurate stream : No
Defeat audio cache      : Yes
Make use of C2 pointers : No
Read offset correction                      : 667
Overread into Lead-In and Lead-Out          : No
Fill up missing offset samples with silence : Yes
Delete leading and trailing silent blocks   : No
Null samples used in CRC calculations       : Yes
Used interface                              : Native Win32 interface for Win NT & 2000
Gap handling                                : Appended to previous track
Used output format              : User Defined Encoder
Selected bitrate                : 320 kBit/s
Quality                         : High
Add ID3 tag                     : No
Command line compressor         : C:\Program Files\Exact Audio Copy\FLAC\FLAC.EXE
Additional command line options : -8 -V -T "ARTIST=%a" -T "TITLE=%t" -T "ALBUM=%g" -T "DATE=%y" -T "TRACKNUMBER=%n" -T "GENRE=%m" -T "COMMENT=%e" %s -o %d
TOC of the extracted CD
     Track |   Start  |  Length  | Start sector | End sector
    ---------------------------------------------------------
        1  |  0:00.00 |  4:02.04 |         0    |    18153
        2  |  4:02.04 |  4:25.69 |     18154    |    38097
        3  |  8:27.73 |  4:06.67 |     38098    |    56614
        4  | 12:34.65 |  5:40.22 |     56615    |    82136
        5  | 18:15.12 |  4:32.50 |     82137    |   102586
        6  | 22:47.62 |  3:27.41 |    102587    |   118152
        7  | 26:15.28 |  4:47.37 |    118153    |   139714
        8  | 31:02.65 |  3:54.72 |    139715    |   157336
        9  | 34:57.62 |  4:47.11 |    157337    |   178872
Track  1
     Filename C:\Users\Admin\Desktop\01 Fool's Paradise.wav
     Pre-gap length  0:00:02.00
     Peak level 100.0 %
     Track quality 100.0 %
     Test CRC 8CCCB3BD
     Copy CRC 8CCCB3BD
     Track not present in AccurateRip database
     Copy OK
Track  2
     Filename C:\Users\Admin\Desktop\02 Magic Smile.wav
     Pre-gap length  0:00:01.38
     Peak level 100.0 %
     Track quality 100.0 %
     Test CRC A9442C70
     Copy CRC A9442C70
     Track not present in AccurateRip database
     Copy OK
Track  3
     Filename C:\Users\Admin\Desktop\03 Interlude.wav
     Pre-gap length  0:00:01.37
     Peak level 100.0 %
     Track quality 100.0 %
     Test CRC D2269B77
     Copy CRC D2269B77
     Track not present in AccurateRip database
     Copy OK
Track  4
     Filename C:\Users\Admin\Desktop\04 Tonto.wav
     Pre-gap length  0:00:01.37
     Peak level 99.9 %
     Track quality 100.0 %
     Test CRC 691A8079
     Copy CRC 691A8079
     Track not present in AccurateRip database
     Copy OK
Track  5
     Filename C:\Users\Admin\Desktop\05 Sunday.wav
     Pre-gap length  0:00:01.38
     Peak level 100.0 %
     Track quality 100.0 %
     Test CRC 255D3094
     Copy CRC 255D3094
     Track not present in AccurateRip database
     Copy OK
Track  6
     Filename C:\Users\Admin\Desktop\06 Taxi.wav
     Pre-gap length  0:00:01.37
     Peak level 100.0 %
     Track quality 100.0 %
     Test CRC 87EE6EF9
     Copy CRC 87EE6EF9
     Track not present in AccurateRip database
     Copy OK
Track  7
     Filename C:\Users\Admin\Desktop\07 2nd Emotion.wav
     Pre-gap length  0:00:01.38
     Peak level 100.0 %
     Track quality 100.0 %
     Test CRC 905BC941
     Copy CRC 905BC941
     Track not present in AccurateRip database
     Copy OK
Track  8
     Filename C:\Users\Admin\Desktop\08 Boxs.wav
     Pre-gap length  0:00:01.38
     Peak level 99.9 %
     Track quality 100.0 %
     Test CRC 9FE5FBD3
     Copy CRC 9FE5FBD3
     Track not present in AccurateRip database
     Copy OK
Track  9
     Filename C:\Users\Admin\Desktop\09 Zazu.wav
     Pre-gap length  0:00:01.38
     Peak level 99.5 %
     Track quality 100.0 %
     Test CRC 73B5D7F5
     Copy CRC 73B5D7F5
     Track not present in AccurateRip database
     Copy OK
No errors occurred
End of status report
Код:
REM DISCID 8B095009
REM COMMENT "ExactAudioCopy v0.99pb5"
PERFORMER "Rosie Vela"
TITLE "Zazu"
FILE "01 Fool's Paradise.wav" WAVE
  TRACK 01 AUDIO
    TITLE "Fool's Paradise"
    PERFORMER "Rosie Vela"
    ISRC USUM71105030
    FLAGS DCP
    INDEX 01 00:00:00
  TRACK 02 AUDIO
    TITLE "Magic Smile"
    PERFORMER "Rosie Vela"
    ISRC USAM18600012
    FLAGS DCP
    INDEX 00 04:00:41
FILE "02 Magic Smile.wav" WAVE
    INDEX 01 00:00:00
  TRACK 03 AUDIO
    TITLE "Interlude"
    PERFORMER "Rosie Vela"
    ISRC USUM71105027
    FLAGS DCP
    INDEX 00 04:24:32
FILE "03 Interlude.wav" WAVE
    INDEX 01 00:00:00
  TRACK 04 AUDIO
    TITLE "Tonto"
    PERFORMER "Rosie Vela"
    ISRC USUM71104920
    FLAGS DCP
    INDEX 00 04:05:30
FILE "04 Tonto.wav" WAVE
    INDEX 01 00:00:00
  TRACK 05 AUDIO
    TITLE "Sunday"
    PERFORMER "Rosie Vela"
    ISRC USUM71105029
    FLAGS DCP
    INDEX 00 05:38:59
FILE "05 Sunday.wav" WAVE
    INDEX 01 00:00:00
  TRACK 06 AUDIO
    TITLE "Taxi"
    PERFORMER "Rosie Vela"
    ISRC USUM71105025
    FLAGS DCP
    INDEX 00 04:31:13
FILE "06 Taxi.wav" WAVE
    INDEX 01 00:00:00
  TRACK 07 AUDIO
    TITLE "2nd Emotion"
    PERFORMER "Rosie Vela"
    ISRC USUM71105024
    FLAGS DCP
    INDEX 00 03:26:03
FILE "07 2nd Emotion.wav" WAVE
    INDEX 01 00:00:00
  TRACK 08 AUDIO
    TITLE "Boxs"
    PERFORMER "Rosie Vela"
    ISRC USUM71105028
    FLAGS DCP
    INDEX 00 04:45:74
FILE "08 Boxs.wav" WAVE
    INDEX 01 00:00:00
  TRACK 09 AUDIO
    TITLE "Zazu"
    PERFORMER "Rosie Vela"
    ISRC USUM71105026
    FLAGS DCP
    INDEX 00 03:53:34
FILE "09 Zazu.wav" WAVE
    INDEX 01 00:00:00
Правила, инструкции, FAQ!!!
Торрент  Добавлен [26 мар 2019, 22:37] Скачать торрент Магнет ссылка
Скачать торрент
[ Размер 43.35 КБ / Просмотров 5 ]

Статус
Проверен 
 
Размер  270.84 МБ
Приватный: Нет (DHT включён)
.torrent скачан  1
 


     Отправить личное сообщение
   
Страница 1 из 1
Показать сообщения за:  Поле сортировки  
Начать новую тему Ответить на тему


Сейчас этот форум просматривают: нет зарегистрированных пользователей и гости: 0


Вы не можете начинать темы
Вы не можете отвечать на сообщения
Вы не можете редактировать свои сообщения
Вы не можете удалять свои сообщения
Вы не можете добавлять вложения

Перейти:  
cron