Начать новую тему Ответить на тему
Статистика раздачи
Размер: 300.37 МБ | Добавлен: 26 мар 2019, 19:50 | Скачали: 0
Сидеров: 0  [0 байт/сек]    Личеров: 0  [0 байт/сек]
Пред. тема | След. тема 

Автор
Сообщение

СообщениеДобавлено: 26 мар 2019, 19:50 

Ответить с цитатой 

Jann Arden / Time For Mercy
Жанр: Pop-Rock
Носитель: CD
Страна-производитель диска (релиза): Canada
Год издания: 1993
Издатель (лейбл): A&M Records
Номер по каталогу: 3145400712
Аудиокодек: FLAC (*.flac)
Тип рипа: tracks+.cue
Битрейт аудио: lossless
Продолжительность: 0:50:48.02.
Источник (релизер): clustert
Наличие сканов в содержимом раздачи: да
Треклист:
01. I Would Die For You [0:04:35.52]
02. Waiting For Someone [0:04:40.53]
03. Will You Remember Me [0:03:46.17]
04. We Do Some Strange Things [0:05:31.35]
05. I'm Not Your Lover [0:04:13.13]
06. Give Me Back My Heart [0:05:02.02]
07. The Way Things Are Going [0:04:10.35]
08. Kitchen Window [0:05:07.00]
09. I Just Don't Love You Anymore [0:03:53.53]
10. Time For Mercy [0:04:15.60]
11. Over You [0:05:31.57]
Код:
Exact Audio Copy V1.0 beta 3 from 29. August 2011
Отчёт EAC об извлечении, выполненном 6. ноября 2018, 21:30
Jann Arden / Time For Mercy
Дисковод: ASUS    DRW-1814BLT   Adapter: 5  ID: 0
Режим чтения                 : Достоверность
Использование точного потока : Да
Отключение кэша аудио        : Да
Использование указателей C2  : Нет
Коррекция смещения при чтении                     : 6
Способность читать области Lead-in и Lead-out     : Нет
Заполнение пропущенных сэмплов тишиной            : Да
Удаление блоков с тишиной в начале и конце        : Нет
При вычислениях CRC использовались нулевые сэмплы : Да
Интерфейс                                         : Встроенный Win32-интерфейс для Win NT/2000
Обработка зазоров                                 : Добавлено к предыдущему треку
Выходной формат          : Пользовательский кодировщик
Выбранный битрейт        : 128 kBit/s
Качество                 : Высокий
Добавление ID3-тега      : Нет
Утилита сжатия           : C:\Program Files\Exact Audio Copy\Flac\flac.exe
Дополнительные параметры :  -V -8 -T "Genre=%genre%" -T "Artist=%artist%" -T "Title=%title%" -T "Album=%albumtitle%" -T "Date=%year%" -T "Tracknumber=%tracknr%" -T "Comment=EAC1.0b2 FLAC -8" %source%
TOC извлечённого CD
     Трек |   Старт  | Длительность | Начальный сектор | Конечный сектор
    ---------------------------------------------------------------------
       1  |  0:00.00 |    4:35.52   |           0      |      20676
       2  |  4:35.52 |    4:40.53   |       20677      |      41729
       3  |  9:16.30 |    3:46.17   |       41730      |      58696
       4  | 13:02.47 |    5:31.35   |       58697      |      83556
       5  | 18:34.07 |    4:13.13   |       83557      |     102544
       6  | 22:47.20 |    5:02.02   |      102545      |     125196
       7  | 27:49.22 |    4:10.35   |      125197      |     143981
       8  | 31:59.57 |    5:07.00   |      143982      |     167006
       9  | 37:06.57 |    3:53.53   |      167007      |     184534
      10  | 41:00.35 |    4:15.60   |      184535      |     203719
      11  | 45:16.20 |    5:31.57   |      203720      |     228601
Трек  1
     Имя файла R:\Раздача 80\Jann Arden - 1993 - Time For Mercy\01 I Would Die For You .wav
     Длина предзазора  0:00:02.00
     Пиковый уровень 96.3 %
     Скорость извлечения 2.6 X
     Качество трека 100.0 %
     CRC теста DAE95FAA
     CRC копии DAE95FAA
     Точное извлечение (достоверность 13)  [3D323545]  (AR v2)
     Копирование... OK
Трек  2
     Имя файла R:\Раздача 80\Jann Arden - 1993 - Time For Mercy\02 Waiting For Someone .wav
     Длина предзазора  0:00:00.12
     Пиковый уровень 97.2 %
     Скорость извлечения 3.0 X
     Качество трека 100.0 %
     CRC теста A7AFFF76
     CRC копии A7AFFF76
     Точное извлечение (достоверность 13)  [A01BC5F4]  (AR v2)
     Копирование... OK
Трек  3
     Имя файла R:\Раздача 80\Jann Arden - 1993 - Time For Mercy\03 Will You Remember Me .wav
     Длина предзазора  0:00:00.13
     Пиковый уровень 97.2 %
     Скорость извлечения 3.1 X
     Качество трека 100.0 %
     CRC теста 078E59D8
     CRC копии 078E59D8
     Точное извлечение (достоверность 13)  [E2DE75B2]  (AR v2)
     Копирование... OK
Трек  4
     Имя файла R:\Раздача 80\Jann Arden - 1993 - Time For Mercy\04 We Do Some Strange Things .wav
     Пиковый уровень 91.3 %
     Скорость извлечения 3.6 X
     Качество трека 100.0 %
     CRC теста E965B22D
     CRC копии E965B22D
     Точное извлечение (достоверность 13)  [C18EBFA2]  (AR v2)
     Копирование... OK
Трек  5
     Имя файла R:\Раздача 80\Jann Arden - 1993 - Time For Mercy\05 I'm Not Your Lover .wav
     Пиковый уровень 97.2 %
     Скорость извлечения 3.7 X
     Качество трека 100.0 %
     CRC теста A5F37998
     CRC копии A5F37998
     Точное извлечение (достоверность 13)  [B51861E5]  (AR v2)
     Копирование... OK
Трек  6
     Имя файла R:\Раздача 80\Jann Arden - 1993 - Time For Mercy\06 Give Me Back My Heart .wav
     Пиковый уровень 87.8 %
     Скорость извлечения 4.0 X
     Качество трека 100.0 %
     CRC теста F7A6870D
     CRC копии F7A6870D
     Точное извлечение (достоверность 13)  [EF24EED9]  (AR v2)
     Копирование... OK
Трек  7
     Имя файла R:\Раздача 80\Jann Arden - 1993 - Time For Mercy\07 The Way Things Are Going .wav
     Пиковый уровень 97.2 %
     Скорость извлечения 4.1 X
     Качество трека 100.0 %
     CRC теста B6429CF3
     CRC копии B6429CF3
     Точное извлечение (достоверность 13)  [BB233289]  (AR v2)
     Копирование... OK
Трек  8
     Имя файла R:\Раздача 80\Jann Arden - 1993 - Time For Mercy\08 Kitchen Window .wav
     Пиковый уровень 97.2 %
     Скорость извлечения 4.4 X
     Качество трека 100.0 %
     CRC теста 56344775
     CRC копии 56344775
     Точное извлечение (достоверность 13)  [A224DA90]  (AR v2)
     Копирование... OK
Трек  9
     Имя файла R:\Раздача 80\Jann Arden - 1993 - Time For Mercy\09 I Just Don't Love You Anymore .wav
     Длина предзазора  0:00:00.52
     Пиковый уровень 90.2 %
     Скорость извлечения 2.6 X
     Качество трека 99.9 %
     CRC теста 96AC694C
     CRC копии 96AC694C
     Точное извлечение (достоверность 13)  [8E8156DC]  (AR v2)
     Копирование... OK
Трек 10
     Имя файла R:\Раздача 80\Jann Arden - 1993 - Time For Mercy\10 Time For Mercy .wav
     Пиковый уровень 55.3 %
     Скорость извлечения 4.7 X
     Качество трека 100.0 %
     CRC теста 5F534A43
     CRC копии 5F534A43
     Точное извлечение (достоверность 13)  [D1D3F99D]  (AR v2)
     Копирование... OK
Трек 11
     Имя файла R:\Раздача 80\Jann Arden - 1993 - Time For Mercy\11 Over You .wav
     Пиковый уровень 97.2 %
     Скорость извлечения 5.0 X
     Качество трека 100.0 %
     CRC теста 9C4FFE44
     CRC копии 9C4FFE44
     Точное извлечение (достоверность 13)  [20257A28]  (AR v2)
     Копирование... OK
Все треки извлечены точно
Ошибок не произошло
Конец отчёта
==== Контрольная сумма отчёта C8F0F56084660842A0EAA69DEA4D4C843442A4ABBF30E12A7C70D01C40DA06CB ====
Код:
REM GENRE "Pop - Rock"
REM DATE 1993
REM DISCID 9D0BE80B
REM COMMENT "ExactAudioCopy v1.0b3"
CATALOG 0000000000000
PERFORMER "Jann Arden"
TITLE "Time For Mercy"
FILE "01 I Would Die For You .wav" WAVE
  TRACK 01 AUDIO
    TITLE "I Would Die For You"
    PERFORMER "Jann Arden"
    ISRC C@hY29200053
    INDEX 01 00:00:00
  TRACK 02 AUDIO
    TITLE "Waiting For Someone"
    PERFORMER "Jann Arden"
    ISRC C@hY29200054
    INDEX 00 04:35:40
FILE "02 Waiting For Someone .wav" WAVE
    INDEX 01 00:00:00
  TRACK 03 AUDIO
    TITLE "Will You Remember Me"
    PERFORMER "Jann Arden"
    ISRC C@hY29200055
    INDEX 00 04:40:40
FILE "03 Will You Remember Me .wav" WAVE
    INDEX 01 00:00:00
FILE "04 We Do Some Strange Things .wav" WAVE
  TRACK 04 AUDIO
    TITLE "We Do Some Strange Things"
    PERFORMER "Jann Arden"
    ISRC C@hY29200056
    INDEX 01 00:00:00
FILE "05 I'm Not Your Lover .wav" WAVE
  TRACK 05 AUDIO
    TITLE "I'm Not Your Lover"
    PERFORMER "Jann Arden"
    ISRC C@hY29200057
    INDEX 01 00:00:00
FILE "06 Give Me Back My Heart .wav" WAVE
  TRACK 06 AUDIO
    TITLE "Give Me Back My Heart"
    PERFORMER "Jann Arden"
    ISRC C@hY29200058
    INDEX 01 00:00:00
FILE "07 The Way Things Are Going .wav" WAVE
  TRACK 07 AUDIO
    TITLE "The Way Things Are Going"
    PERFORMER "Jann Arden"
    ISRC C@hY29200059
    INDEX 01 00:00:00
FILE "08 Kitchen Window .wav" WAVE
  TRACK 08 AUDIO
    TITLE "Kitchen Window"
    PERFORMER "Jann Arden"
    ISRC C@hY29200060
    INDEX 01 00:00:00
  TRACK 09 AUDIO
    TITLE "I Just Don't Love You Anymore"
    PERFORMER "Jann Arden"
    ISRC C@hY29200061
    INDEX 00 05:06:23
FILE "09 I Just Don't Love You Anymore .wav" WAVE
    INDEX 01 00:00:00
FILE "10 Time For Mercy .wav" WAVE
  TRACK 10 AUDIO
    TITLE "Time For Mercy"
    PERFORMER "Jann Arden"
    ISRC C@hY29200061
    INDEX 01 00:00:00
FILE "11 Over You .wav" WAVE
  TRACK 11 AUDIO
    TITLE "Over You"
    PERFORMER "Jann Arden"
    ISRC C@hY29200063
    INDEX 01 00:00:00
Правила, инструкции, FAQ!!!
Торрент  Добавлен [26 мар 2019, 19:50] Скачать торрент Магнет ссылка
Скачать торрент
[ Размер 13.54 КБ / Просмотров 1 ]

Статус
Проверен 
 
Размер  300.37 МБ
Приватный: Нет (DHT включён)
.torrent скачан  0
 


     Отправить личное сообщение
   
Страница 1 из 1
Показать сообщения за:  Поле сортировки  
Начать новую тему Ответить на тему


Сейчас этот форум просматривают: нет зарегистрированных пользователей и гости: 0


Вы не можете начинать темы
Вы не можете отвечать на сообщения
Вы не можете редактировать свои сообщения
Вы не можете удалять свои сообщения
Вы не можете добавлять вложения

Перейти:  
cron