Начать новую тему Ответить на тему
Статистика раздачи
Размер: 1.34 ГБ | Добавлен: 01 янв 2020, 23:03 | Скачали: 0
Сидеров: 2  [0 байт/сек]    Личеров: 1  [0 байт/сек]
Пред. тема | След. тема 

Автор
Сообщение

СообщениеДобавлено: 01 янв 2020, 23:03 

Ответить с цитатой 

Jacques Higelin / Réfugié poétique – Triple Best Of – 3CDs
Жанр: Pop-Rock
Страна-производитель диска: EU
Год издания диска: 2010
Издатель (лейбл): EMI Music France
Номер по каталогу: 509996484312 4
Аудиокодек: FLAC (*.flac)
Тип рипа: tracks+.cue
Битрейт аудио: lossless
Продолжительность: 03:35:38 (73:54/74:03/67:41)
Источник: собственный альбом
Наличие сканов в содержимом раздачи: да

Об альбоме
Этот тройной сборный альбом Жака Ижлена вышел во Франции накануне 70-ти летнего юбилея артиста (18 октября 2010) и долгое время почему-то оставался недосягаем даже в сети и даже в обычном для французов качестве mp3. Судя по всему, первое издание альбома полностью разошлось во Франции и в мире, потому что предлагаемые здесь рипы сняты уже с альбома, сделанного в Польше по лицензии EMI Music France. Поскольку поляки изменили подзаголовок Triple Best Of на Best Of – 3CD, во избежание путаницы я все же оставил в названии темы оригинальное название альбома и постер с оригинальным подзаголовком. Вместе с тем сканы (в т.ч. матриц) сделаны именно с печатного материала и дисков, произведенных в Польше.
Альбом представляет собой далеко не первый сборник Ижлена, с практически полной дискографией и биографией которого можно ознакомиться здесь. На трекере же есть еще несколько других раздач Жака Ижлена, в т.ч. в формате lossless. Oсновным достоинством этой раздачи является не столько собрание в одном альбоме его лучших произведений, хотя здесь есть не появлявшиеся ранее на дисках Ижлена L'hélicon (avec Izia Higelin) и особенно D'ailleurs (аvec Areski et Brigitte Fontaine), сколько то обстоятельство, что это, по сути, всего лишь вторая раздача на трекере Ижлена, оформленная на основе его оригинальных дисков (первая, кстати, тоже сборник, который состоит из двух дисков).
Tracklist:
01. Tiens, j'ai dit tiens [04:34]
02. L'homme oiseau [09:20]
03. Mona Lisa Klaxon [03:18]
04. Denise [03:04]
05. Lettre à la petite amie de l'ennemi publique #1 [04:08]
06. Ci-gît une star [04:10]
07. Aujourd'hui la crise [04:20]
08. La balade de chez Tao [05:02]
09. Excès de zèle [03:03]
10. L'hélicon (avec Izia Higelin) [02:18]
11. Hold Tight [02:03]
12. Manque de classe [05:59]
13. D'ailleurs (аvec Areski et Brigitte Fontaine) [04:28]
14. L'hiver au lit à Liverpool [02:13]
15. Amor doloroso [04:31]
16. J'ai jamais su [04:43]
17. Les ailes du silence [06:31
Код:
Exact Audio Copy V1.0 beta 2 from 29. April 2011
EAC extraction logfile from 28. December 2011, 19:16
Jacques Higelin / Refugie poetique
Used drive  : MATSHITABD-MLT UJ240AS   Adapter: 0  ID: 0
Read mode               : Secure
Utilize accurate stream : Yes
Defeat audio cache      : Yes
Make use of C2 pointers : No
Read offset correction                      : 103
Overread into Lead-In and Lead-Out          : No
Fill up missing offset samples with silence : Yes
Delete leading and trailing silent blocks   : No
Null samples used in CRC calculations       : Yes
Used interface                              : Native Win32 interface for Win NT & 2000
Gap handling                                : Appended to previous track
Used output format              : User Defined Encoder
Selected bitrate                : 896 kBit/s
Quality                         : High
Add ID3 tag                     : No
Command line compressor         : C:\Program Files (x86)\Exact Audio Copy\Flac\flac.exe
Additional command line options : -8 -V -T "ARTIST=%artist%" -T "TITLE=%title%" -T "ALBUM=%albumtitle%" -T "DATE=%year%" -T "TRACKNUMBER=%tracknr%" -T "GENRE=%genre%" -T "COMMENT=%comment%" %hascover%--picture="%coverfile%"%hascover% %source% -o %dest%
TOC of the extracted CD
     Track |   Start  |  Length  | Start sector | End sector
    ---------------------------------------------------------
        1  |  0:00.00 |  4:34.51 |         0    |    20600
        2  |  4:34.51 |  9:20.46 |     20601    |    62646
        3  | 13:55.22 |  3:18.66 |     62647    |    77562
        4  | 17:14.13 |  3:04.13 |     77563    |    91375
        5  | 20:18.26 |  4:08.40 |     91376    |   110015
        6  | 24:26.66 |  4:10.15 |    110016    |   128780
        7  | 28:37.06 |  4:20.54 |    128781    |   148334
        8  | 32:57.60 |  5:02.58 |    148335    |   171042
        9  | 38:00.43 |  3:03.29 |    171043    |   184796
       10  | 41:03.72 |  2:18.25 |    184797    |   195171
       11  | 43:22.22 |  2:03.51 |    195172    |   204447
       12  | 45:25.73 |  5:59.44 |    204448    |   231416
       13  | 51:25.42 |  4:28.57 |    231417    |   251573
       14  | 55:54.24 |  2:13.53 |    251574    |   261601
       15  | 58:08.02 |  4:31.23 |    261602    |   281949
       16  | 62:39.25 |  4:43.19 |    281950    |   303193
       17  | 67:22.44 |  6:31.34 |    303194    |   332552
Track  1
     Filename D:\Downloads\Jacques Higelin - Refugie poetique - Triple best of - 3CD (2010)\CD1\01 - Tiens, j'ai dit tiens.wav
     Pre-gap length  0:00:02.00
     Peak level 99.9 %
     Extraction speed 0.9 X
     Track quality 100.0 %
     Test CRC BF32C05D
     Copy CRC BF32C05D
     Copy OK
Track  2
     Filename D:\Downloads\Jacques Higelin - Refugie poetique - Triple best of - 3CD (2010)\CD1\02 - L'homme oiseau.wav
     Peak level 98.8 %
     Extraction speed 1.0 X
     Track quality 100.0 %
     Test CRC 2D00ACF0
     Copy CRC 2D00ACF0
     Copy OK
Track  3
     Filename D:\Downloads\Jacques Higelin - Refugie poetique - Triple best of - 3CD (2010)\CD1\03 - Mona Lisa Klaxon.wav
     Peak level 98.8 %
     Extraction speed 0.9 X
     Track quality 99.9 %
     Test CRC E4167453
     Copy CRC E4167453
     Copy OK
Track  4
     Filename D:\Downloads\Jacques Higelin - Refugie poetique - Triple best of - 3CD (2010)\CD1\04 - Denise.wav
     Peak level 98.8 %
     Extraction speed 1.0 X
     Track quality 100.0 %
     Test CRC 727BC12C
     Copy CRC 727BC12C
     Copy OK
Track  5
     Filename D:\Downloads\Jacques Higelin - Refugie poetique - Triple best of - 3CD (2010)\CD1\05 - Lettre a la petite amie de l'ennemi publique #1.wav
     Peak level 98.8 %
     Extraction speed 1.1 X
     Track quality 100.0 %
     Test CRC 5E4F9588
     Copy CRC 5E4F9588
     Copy OK
Track  6
     Filename D:\Downloads\Jacques Higelin - Refugie poetique - Triple best of - 3CD (2010)\CD1\06 - Ci-git une star.wav
     Peak level 98.8 %
     Extraction speed 1.1 X
     Track quality 100.0 %
     Test CRC 01522000
     Copy CRC 01522000
     Copy OK
Track  7
     Filename D:\Downloads\Jacques Higelin - Refugie poetique - Triple best of - 3CD (2010)\CD1\07 - Aujourd'hui la crise.wav
     Peak level 98.8 %
     Extraction speed 1.1 X
     Track quality 100.0 %
     Test CRC 87E8B4D7
     Copy CRC 87E8B4D7
     Copy OK
Track  8
     Filename D:\Downloads\Jacques Higelin - Refugie poetique - Triple best of - 3CD (2010)\CD1\08 - La balade de chez Tao.wav
     Peak level 98.8 %
     Extraction speed 1.1 X
     Track quality 99.9 %
     Test CRC D6334D75
     Copy CRC D6334D75
     Copy OK
Track  9
     Filename D:\Downloads\Jacques Higelin - Refugie poetique - Triple best of - 3CD (2010)\CD1\09 - Exces de zele.wav
     Peak level 98.8 %
     Extraction speed 1.1 X
     Track quality 100.0 %
     Test CRC 2170EB29
     Copy CRC 2170EB29
     Copy OK
Track 10
     Filename D:\Downloads\Jacques Higelin - Refugie poetique - Triple best of - 3CD (2010)\CD1\10 - L'helicon (avec Izia Higelin).wav
     Peak level 100.0 %
     Extraction speed 1.1 X
     Track quality 100.0 %
     Test CRC 13CEE845
     Copy CRC 13CEE845
     Copy OK
Track 11
     Filename D:\Downloads\Jacques Higelin - Refugie poetique - Triple best of - 3CD (2010)\CD1\11 - Hold Tight.wav
     Peak level 89.6 %
     Extraction speed 1.0 X
     Track quality 100.0 %
     Test CRC 13555F66
     Copy CRC 13555F66
     Copy OK
Track 12
     Filename D:\Downloads\Jacques Higelin - Refugie poetique - Triple best of - 3CD (2010)\CD1\12 - Manque de classe.wav
     Peak level 98.8 %
     Extraction speed 1.3 X
     Track quality 100.0 %
     Test CRC D66FAE37
     Copy CRC D66FAE37
     Copy OK
Track 13
     Filename D:\Downloads\Jacques Higelin - Refugie poetique - Triple best of - 3CD (2010)\CD1\13 - D'ailleurs.wav
     Peak level 100.0 %
     Extraction speed 1.2 X
     Track quality 100.0 %
     Test CRC 6B71E732
     Copy CRC 6B71E732
     Copy OK
Track 14
     Filename D:\Downloads\Jacques Higelin - Refugie poetique - Triple best of - 3CD (2010)\CD1\14 - L'hiver au lit a Liverpool.wav
     Peak level 94.4 %
     Extraction speed 1.3 X
     Track quality 100.0 %
     Test CRC FFB3F001
     Copy CRC FFB3F001
     Copy OK
Track 15
     Filename D:\Downloads\Jacques Higelin - Refugie poetique - Triple best of - 3CD (2010)\CD1\15 - Amor doloroso.wav
     Peak level 98.8 %
     Extraction speed 1.7 X
     Track quality 100.0 %
     Test CRC 928E1C53
     Copy CRC 928E1C53
     Copy OK
Track 16
     Filename D:\Downloads\Jacques Higelin - Refugie poetique - Triple best of - 3CD (2010)\CD1\16 - J'ai jamais su.wav
     Peak level 99.8 %
     Extraction speed 1.6 X
     Track quality 100.0 %
     Test CRC 48514D9E
     Copy CRC 48514D9E
     Copy OK
Track 17
     Filename D:\Downloads\Jacques Higelin - Refugie poetique - Triple best of - 3CD (2010)\CD1\17 - Les ailes du silence.wav
     Peak level 98.8 %
     Extraction speed 1.6 X
     Track quality 99.9 %
     Test CRC D0481F0A
     Copy CRC D0481F0A
     Copy OK
No errors occurred
End of status report
Код:
REM GENRE Pop-Rock
REM DATE 2010
REM DISCID FE115211
REM COMMENT "ExactAudioCopy v1.0b2"
PERFORMER "Jacques Higelin"
TITLE "Refugie poetique"
FILE "01 - Tiens, j'ai dit tiens.wav" WAVE
  TRACK 01 AUDIO
    TITLE "Tiens, j'ai dit tiens"
    PERFORMER "Jacques Higelin"
    FLAGS DCP
    INDEX 01 00:00:00
FILE "02 - L'homme oiseau.wav" WAVE
  TRACK 02 AUDIO
    TITLE "L'homme oiseau"
    PERFORMER "Jacques Higelin"
    FLAGS DCP
    INDEX 01 00:00:00
FILE "03 - Mona Lisa Klaxon.wav" WAVE
  TRACK 03 AUDIO
    TITLE "Mona Lisa Klaxon"
    PERFORMER "Jacques Higelin"
    FLAGS DCP
    INDEX 01 00:00:00
FILE "04 - Denise.wav" WAVE
  TRACK 04 AUDIO
    TITLE "Denise"
    PERFORMER "Jacques Higelin"
    FLAGS DCP
    INDEX 01 00:00:00
FILE "05 - Lettre a la petite amie de l'ennemi publique #1.wav" WAVE
  TRACK 05 AUDIO
    TITLE "Lettre a la petite amie de l'ennemi publique #1"
    PERFORMER "Jacques Higelin"
    FLAGS DCP
    INDEX 01 00:00:00
FILE "06 - Ci-git une star.wav" WAVE
  TRACK 06 AUDIO
    TITLE "Ci-git une star"
    PERFORMER "Jacques Higelin"
    FLAGS DCP
    INDEX 01 00:00:00
FILE "07 - Aujourd'hui la crise.wav" WAVE
  TRACK 07 AUDIO
    TITLE "Aujourd'hui la crise"
    PERFORMER "Jacques Higelin"
    FLAGS DCP
    INDEX 01 00:00:00
FILE "08 - La balade de chez Tao.wav" WAVE
  TRACK 08 AUDIO
    TITLE "La balade de chez Tao"
    PERFORMER "Jacques Higelin"
    FLAGS DCP
    INDEX 01 00:00:00
FILE "09 - Exces de zele.wav" WAVE
  TRACK 09 AUDIO
    TITLE "Exces de zele"
    PERFORMER "Jacques Higelin"
    FLAGS DCP
    INDEX 01 00:00:00
FILE "10 - L'helicon (avec Izia Higelin).wav" WAVE
  TRACK 10 AUDIO
    TITLE "L'helicon (avec Izia Higelin)"
    PERFORMER "Jacques Higelin"
    FLAGS DCP
    INDEX 01 00:00:00
FILE "11 - Hold Tight.wav" WAVE
  TRACK 11 AUDIO
    TITLE "Hold Tight"
    PERFORMER "Jacques Higelin"
    FLAGS DCP
    INDEX 01 00:00:00
FILE "12 - Manque de classe.wav" WAVE
  TRACK 12 AUDIO
    TITLE "Manque de classe"
    PERFORMER "Jacques Higelin"
    FLAGS DCP
    INDEX 01 00:00:00
FILE "13 - D'ailleurs.wav" WAVE
  TRACK 13 AUDIO
    TITLE "D'ailleurs"
    PERFORMER "Jacques Higelin"
    FLAGS DCP
    INDEX 01 00:00:00
FILE "14 - L'hiver au lit a Liverpool.wav" WAVE
  TRACK 14 AUDIO
    TITLE "L'hiver au lit a Liverpool"
    PERFORMER "Jacques Higelin"
    FLAGS DCP
    INDEX 01 00:00:00
FILE "15 - Amor doloroso.wav" WAVE
  TRACK 15 AUDIO
    TITLE "Amor doloroso"
    PERFORMER "Jacques Higelin"
    FLAGS DCP
    INDEX 01 00:00:00
FILE "16 - J'ai jamais su.wav" WAVE
  TRACK 16 AUDIO
    TITLE "J'ai jamais su"
    PERFORMER "Jacques Higelin"
    FLAGS DCP
    INDEX 01 00:00:00
FILE "17 - Les ailes du silence.wav" WAVE
  TRACK 17 AUDIO
    TITLE "Les ailes du silence"
    PERFORMER "Jacques Higelin"
    FLAGS DCP
    INDEX 01 00:00:00
Код:
AUDIOCHECKER v2.0 beta (build 457) - by Dester - opdester@freemail.hu
~~~~~~~~~~~~~~~~~~~~~~~~~~~~~~~~~~
-=== DO NOT EDIT THIS FILE! ===-
Path: ...\CD1
01 -=- 01 - Tiens, j'ai dit tiens.flac -=- CDDA (100%)
02 -=- 02 - L'homme oiseau.flac -=- CDDA (42%)
03 -=- 03 - Mona Lisa Klaxon.flac -=- CDDA (100%)
04 -=- 04 - Denise.flac -=- CDDA (100%)
05 -=- 05 - Lettre a la petite amie de l'ennemi publique #1.flac -=- MPEG (95%)
06 -=- 06 - Ci-git une star.flac -=- CDDA (100%)
07 -=- 07 - Aujourd'hui la crise.flac -=- CDDA (100%)
08 -=- 08 - La balade de chez Tao.flac -=- CDDA (100%)
09 -=- 09 - Exces de zele.flac -=- CDDA (100%)
10 -=- 10 - L'helicon (avec Izia Higelin).flac -=- CDDA (100%)
11 -=- 11 - Hold Tight.flac -=- CDDA (100%)
12 -=- 12 - Manque de classe.flac -=- CDDA (99%)
13 -=- 13 - D'ailleurs.flac -=- CDDA (100%)
14 -=- 14 - L'hiver au lit a Liverpool.flac -=- CDDA (100%)
15 -=- 15 - Amor doloroso.flac -=- CDDA (100%)
16 -=- 16 - J'ai jamais su.flac -=- CDDA (100%)
17 -=- 17 - Les ailes du silence.flac -=- CDDA (100%)
Summary 90,94% CDDA
29773988
Tracklist:
01. Champagne [04:32]
02. Pars [03:48]
03. Est-ce que ma guitare est un fusil? [05:10]
04. Tombé du ciel [04:46]
05. Coup de lune [04:11]
06. Slim Black Boogie [04:19]
07. Crocodaïl [04:39]
08. L... comme beauté [05:03]
09. Tête en l'air [03:36]
10. Cigarette [04:20]
11. Le berceau de la vie [04:35]
12. Cet enfant que je t'avais fait (avec Brigitte Fontaine) [04:26]
13. La rousse au chocolat [03:42]
14. Tom Bonbadilom [04:04]
15. Queue de paon [05:19]
16. Ballade pour Izia [07:25]
Код:
Exact Audio Copy V1.0 beta 2 from 29. April 2011
EAC extraction logfile from 29. December 2011, 21:16
Jacques Higelin / Refugie poetique
Used drive  : MATSHITABD-MLT UJ240AS   Adapter: 0  ID: 0
Read mode               : Secure
Utilize accurate stream : Yes
Defeat audio cache      : Yes
Make use of C2 pointers : No
Read offset correction                      : 103
Overread into Lead-In and Lead-Out          : No
Fill up missing offset samples with silence : Yes
Delete leading and trailing silent blocks   : No
Null samples used in CRC calculations       : Yes
Used interface                              : Native Win32 interface for Win NT & 2000
Gap handling                                : Appended to previous track
Used output format              : User Defined Encoder
Selected bitrate                : 896 kBit/s
Quality                         : High
Add ID3 tag                     : No
Command line compressor         : C:\Program Files (x86)\Exact Audio Copy\Flac\flac.exe
Additional command line options : -8 -V -T "ARTIST=%artist%" -T "TITLE=%title%" -T "ALBUM=%albumtitle%" -T "DATE=%year%" -T "TRACKNUMBER=%tracknr%" -T "GENRE=%genre%" -T "COMMENT=%comment%" %hascover%--picture="%coverfile%"%hascover% %source% -o %dest%
TOC of the extracted CD
     Track |   Start  |  Length  | Start sector | End sector
    ---------------------------------------------------------
        1  |  0:00.00 |  4:32.15 |         0    |    20414
        2  |  4:32.15 |  3:48.41 |     20415    |    37555
        3  |  8:20.56 |  5:10.19 |     37556    |    60824
        4  | 13:31.00 |  4:46.45 |     60825    |    82319
        5  | 18:17.45 |  4:11.51 |     82320    |   101195
        6  | 22:29.21 |  4:19.61 |    101196    |   120681
        7  | 26:49.07 |  4:39.13 |    120682    |   141619
        8  | 31:28.20 |  5:03.36 |    141620    |   164380
        9  | 36:31.56 |  3:36.61 |    164381    |   180641
       10  | 40:08.42 |  4:20.51 |    180642    |   200192
       11  | 44:29.18 |  4:35.40 |    200193    |   220857
       12  | 49:04.58 |  4:26.57 |    220858    |   240864
       13  | 53:31.40 |  3:42.31 |    240865    |   257545
       14  | 57:13.71 |  4:04.33 |    257546    |   275878
       15  | 61:18.29 |  5:19.34 |    275879    |   299837
       16  | 66:37.63 |  7:25.63 |    299838    |   333275
Track  1
     Filename D:\Downloads\Jacques Higelin - Refugie poetique - Triple best of - 3CD (2010)\CD2\01 - Champagne.wav
     Pre-gap length  0:00:02.00
     Peak level 98.8 %
     Extraction speed 1.5 X
     Track quality 100.0 %
     Test CRC 1F281744
     Copy CRC 1F281744
     Copy OK
Track  2
     Filename D:\Downloads\Jacques Higelin - Refugie poetique - Triple best of - 3CD (2010)\CD2\02 - Pars.wav
     Peak level 98.8 %
     Extraction speed 1.5 X
     Track quality 100.0 %
     Test CRC 3B941E63
     Copy CRC 3B941E63
     Copy OK
Track  3
     Filename D:\Downloads\Jacques Higelin - Refugie poetique - Triple best of - 3CD (2010)\CD2\03 - Est-ce que ma guitare est un fusil.wav
     Peak level 98.8 %
     Extraction speed 1.7 X
     Track quality 100.0 %
     Test CRC F49C5098
     Copy CRC F49C5098
     Copy OK
Track  4
     Filename D:\Downloads\Jacques Higelin - Refugie poetique - Triple best of - 3CD (2010)\CD2\04 - Tombe du ciel.wav
     Peak level 98.8 %
     Extraction speed 1.7 X
     Track quality 100.0 %
     Test CRC B0402FB7
     Copy CRC B0402FB7
     Copy OK
Track  5
     Filename D:\Downloads\Jacques Higelin - Refugie poetique - Triple best of - 3CD (2010)\CD2\05 - Coup de lune.wav
     Peak level 98.8 %
     Extraction speed 1.6 X
     Track quality 99.9 %
     Test CRC 30CFF9CF
     Copy CRC 30CFF9CF
     Copy OK
Track  6
     Filename D:\Downloads\Jacques Higelin - Refugie poetique - Triple best of - 3CD (2010)\CD2\06 - Slim Black Boogie.wav
     Peak level 98.8 %
     Extraction speed 1.8 X
     Track quality 100.0 %
     Test CRC 933218FC
     Copy CRC 933218FC
     Copy OK
Track  7
     Filename D:\Downloads\Jacques Higelin - Refugie poetique - Triple best of - 3CD (2010)\CD2\07 - Crocodail.wav
     Peak level 98.8 %
     Extraction speed 1.7 X
     Track quality 99.9 %
     Test CRC 295F6356
     Copy CRC 295F6356
     Copy OK
Track  8
     Filename D:\Downloads\Jacques Higelin - Refugie poetique - Triple best of - 3CD (2010)\CD2\08 - L... comme beaute.wav
     Peak level 98.8 %
     Extraction speed 2.0 X
     Track quality 100.0 %
     Test CRC F3686090
     Copy CRC F3686090
     Copy OK
Track  9
     Filename D:\Downloads\Jacques Higelin - Refugie poetique - Triple best of - 3CD (2010)\CD2\09 - Tete en l'air.wav
     Peak level 98.8 %
     Extraction speed 1.7 X
     Track quality 99.9 %
     Test CRC 57C1F39D
     Copy CRC 57C1F39D
     Copy OK
Track 10
     Filename D:\Downloads\Jacques Higelin - Refugie poetique - Triple best of - 3CD (2010)\CD2\10 - Cigarette.wav
     Peak level 93.3 %
     Extraction speed 2.0 X
     Track quality 100.0 %
     Test CRC 4B8F6DD8
     Copy CRC 4B8F6DD8
     Copy OK
Track 11
     Filename D:\Downloads\Jacques Higelin - Refugie poetique - Triple best of - 3CD (2010)\CD2\11 - Le berceau de la vie.wav
     Peak level 98.8 %
     Extraction speed 1.8 X
     Track quality 99.9 %
     Test CRC BFCD7E5A
     Copy CRC BFCD7E5A
     Copy OK
Track 12
     Filename D:\Downloads\Jacques Higelin - Refugie poetique - Triple best of - 3CD (2010)\CD2\12 - Cet enfant que je t'avais fait (avec Brigitte Fontaine).wav
     Peak level 97.7 %
     Extraction speed 2.0 X
     Track quality 100.0 %
     Test CRC E70D3E30
     Copy CRC E70D3E30
     Copy OK
Track 13
     Filename D:\Downloads\Jacques Higelin - Refugie poetique - Triple best of - 3CD (2010)\CD2\13 - La rousse au chocolat.wav
     Peak level 93.3 %
     Extraction speed 1.8 X
     Track quality 99.9 %
     Test CRC 1957651F
     Copy CRC 1957651F
     Copy OK
Track 14
     Filename D:\Downloads\Jacques Higelin - Refugie poetique - Triple best of - 3CD (2010)\CD2\14 - Tom Bonbadilom.wav
     Peak level 98.8 %
     Extraction speed 2.1 X
     Track quality 100.0 %
     Test CRC 25354AB2
     Copy CRC 25354AB2
     Copy OK
Track 15
     Filename D:\Downloads\Jacques Higelin - Refugie poetique - Triple best of - 3CD (2010)\CD2\15 - Queue de paon.wav
     Peak level 98.8 %
     Extraction speed 2.2 X
     Track quality 100.0 %
     Test CRC CE47163E
     Copy CRC CE47163E
     Copy OK
Track 16
     Filename D:\Downloads\Jacques Higelin - Refugie poetique - Triple best of - 3CD (2010)\CD2\16 - Ballade pour Izia.wav
     Peak level 93.3 %
     Extraction speed 2.1 X
     Track quality 99.9 %
     Test CRC CF2ED6BA
     Copy CRC CF2ED6BA
     Copy OK
No errors occurred
End of status report
Код:
REM GENRE Pop-Rock
REM DATE 2010
REM DISCID DC115B10
REM COMMENT "ExactAudioCopy v1.0b2"
PERFORMER "Jacques Higelin"
TITLE "Refugie poetique"
FILE "01 - Champagne.wav" WAVE
  TRACK 01 AUDIO
    TITLE "Champagne"
    PERFORMER "Jacques Higelin"
    FLAGS DCP
    INDEX 01 00:00:00
FILE "02 - Pars.wav" WAVE
  TRACK 02 AUDIO
    TITLE "Pars"
    PERFORMER "Jacques Higelin"
    FLAGS DCP
    INDEX 01 00:00:00
FILE "03 - Est-ce que ma guitare est un fusil.wav" WAVE
  TRACK 03 AUDIO
    TITLE "Est-ce que ma guitare est un fusil?"
    PERFORMER "Jacques Higelin"
    FLAGS DCP
    INDEX 01 00:00:00
FILE "04 - Tombe du ciel.wav" WAVE
  TRACK 04 AUDIO
    TITLE "Tombe du ciel"
    PERFORMER "Jacques Higelin"
    FLAGS DCP
    INDEX 01 00:00:00
FILE "05 - Coup de lune.wav" WAVE
  TRACK 05 AUDIO
    TITLE "Coup de lune"
    PERFORMER "Jacques Higelin"
    FLAGS DCP
    INDEX 01 00:00:00
FILE "06 - Slim Black Boogie.wav" WAVE
  TRACK 06 AUDIO
    TITLE "Slim Black Boogie"
    PERFORMER "Jacques Higelin"
    FLAGS DCP
    INDEX 01 00:00:00
FILE "07 - Crocodail.wav" WAVE
  TRACK 07 AUDIO
    TITLE "Crocodail"
    PERFORMER "Jacques Higelin"
    FLAGS DCP
    INDEX 01 00:00:00
FILE "08 - L... comme beaute.wav" WAVE
  TRACK 08 AUDIO
    TITLE "L... comme beaute"
    PERFORMER "Jacques Higelin"
    FLAGS DCP
    INDEX 01 00:00:00
FILE "09 - Tete en l'air.wav" WAVE
  TRACK 09 AUDIO
    TITLE "Tete en l'air"
    PERFORMER "Jacques Higelin"
    FLAGS DCP
    INDEX 01 00:00:00
FILE "10 - Cigarette.wav" WAVE
  TRACK 10 AUDIO
    TITLE "Cigarette"
    PERFORMER "Jacques Higelin"
    FLAGS DCP
    INDEX 01 00:00:00
FILE "11 - Le berceau de la vie.wav" WAVE
  TRACK 11 AUDIO
    TITLE "Le berceau de la vie"
    PERFORMER "Jacques Higelin"
    FLAGS DCP
    INDEX 01 00:00:00
FILE "12 - Cet enfant que je t'avais fait (avec Brigitte Fontaine).wav" WAVE
  TRACK 12 AUDIO
    TITLE "Cet enfant que je t'avais fait (avec Brigitte Fontaine)"
    PERFORMER "Jacques Higelin"
    FLAGS DCP
    INDEX 01 00:00:00
FILE "13 - La rousse au chocolat.wav" WAVE
  TRACK 13 AUDIO
    TITLE "La rousse au chocolat"
    PERFORMER "Jacques Higelin"
    FLAGS DCP
    INDEX 01 00:00:00
FILE "14 - Tom Bonbadilom.wav" WAVE
  TRACK 14 AUDIO
    TITLE "Tom Bonbadilom"
    PERFORMER "Jacques Higelin"
    FLAGS DCP
    INDEX 01 00:00:00
FILE "15 - Queue de paon.wav" WAVE
  TRACK 15 AUDIO
    TITLE "Queue de paon"
    PERFORMER "Jacques Higelin"
    FLAGS DCP
    INDEX 01 00:00:00
FILE "16 - Ballade pour Izia.wav" WAVE
  TRACK 16 AUDIO
    TITLE "Ballade pour Izia"
    PERFORMER "Jacques Higelin"
    FLAGS DCP
    INDEX 01 00:00:00
Код:
AUDIOCHECKER v2.0 beta (build 457) - by Dester - opdester@freemail.hu
~~~~~~~~~~~~~~~~~~~~~~~~~~~~~~~~~~
-=== DO NOT EDIT THIS FILE! ===-
Path: ...\CD2
01 -=- 01 - Champagne.flac -=- CDDA (100%)
02 -=- 02 - Pars.flac -=- MPEG (95%)
03 -=- 03 - Est-ce que ma guitare est un fusil.flac -=- CDDA (87%)
04 -=- 04 - Tombe du ciel.flac -=- CDDA (99%)
05 -=- 05 - Coup de lune.flac -=- CDDA (100%)
06 -=- 06 - Slim Black Boogie.flac -=- CDDA (100%)
07 -=- 07 - Crocodail.flac -=- CDDA (100%)
08 -=- 08 - L... comme beaute.flac -=- CDDA (100%)
09 -=- 09 - Tete en l'air.flac -=- CDDA (100%)
10 -=- 10 - Cigarette.flac -=- CDDA (100%)
11 -=- 11 - Le berceau de la vie.flac -=- CDDA (100%)
12 -=- 12 - Cet enfant que je t'avais fait (avec Brigitte Fontaine).flac -=- CDDA (100%)
13 -=- 13 - La rousse au chocolat.flac -=- CDDA (100%)
14 -=- 14 - Tom Bonbadilom.flac -=- CDDA (100%)
15 -=- 15 - Queue de paon.flac -=- CDDA (100%)
16 -=- 16 - Ballade pour Izia.flac -=- CDDA (100%)
Summary 93,19% CDDA
63829396
Tracklist:
01. J'suis qu'un grain de poussière [04:03]
02. L'ange et le salaud [03:12]
03. Irradié [04:38]
04. Beau, beau ou laid [03:37]
05. Adolescent [03:42]
06. Parc Montsouris (à mon père) [05:19]
07. Ce qui est dit doit être fait [04:23]
08. La fille au cœur d'acier [04:05]
09. Chanson [04:43]
10. Mamy [03:16]
11. La croisade des enfants [04:10]
12. Coup de foudre [03:49]
13. Je ne peux plus dire je t'aime [04:26]
14. Alertez les bébés [10:09]
15. Adios [04:01]
Код:
Exact Audio Copy V1.0 beta 2 from 29. April 2011
EAC extraction logfile from 30. December 2011, 10:48
Jacques Higelin / Refugie poetique
Used drive  : MATSHITABD-MLT UJ240AS   Adapter: 0  ID: 0
Read mode               : Secure
Utilize accurate stream : Yes
Defeat audio cache      : Yes
Make use of C2 pointers : No
Read offset correction                      : 103
Overread into Lead-In and Lead-Out          : No
Fill up missing offset samples with silence : Yes
Delete leading and trailing silent blocks   : No
Null samples used in CRC calculations       : Yes
Used interface                              : Native Win32 interface for Win NT & 2000
Gap handling                                : Appended to previous track
Used output format              : User Defined Encoder
Selected bitrate                : 896 kBit/s
Quality                         : High
Add ID3 tag                     : No
Command line compressor         : C:\Program Files (x86)\Exact Audio Copy\Flac\flac.exe
Additional command line options : -8 -V -T "ARTIST=%artist%" -T "TITLE=%title%" -T "ALBUM=%albumtitle%" -T "DATE=%year%" -T "TRACKNUMBER=%tracknr%" -T "GENRE=%genre%" -T "COMMENT=%comment%" %hascover%--picture="%coverfile%"%hascover% %source% -o %dest%
TOC of the extracted CD
     Track |   Start  |  Length  | Start sector | End sector
    ---------------------------------------------------------
        1  |  0:00.00 |  4:03.74 |         0    |    18298
        2  |  4:03.74 |  3:12.31 |     18299    |    32729
        3  |  7:16.30 |  4:38.53 |     32730    |    53632
        4  | 11:55.08 |  3:37.55 |     53633    |    69962
        5  | 15:32.63 |  3:42.01 |     69963    |    86613
        6  | 19:14.64 |  5:19.10 |     86614    |   110548
        7  | 24:33.74 |  4:23.33 |    110549    |   130306
        8  | 28:57.32 |  4:05.11 |    130307    |   148692
        9  | 33:02.43 |  4:43.40 |    148693    |   169957
       10  | 37:46.08 |  3:16.59 |    169958    |   184716
       11  | 41:02.67 |  4:10.45 |    184717    |   203511
       12  | 45:13.37 |  3:49.53 |    203512    |   220739
       13  | 49:03.15 |  4:26.07 |    220740    |   240696
       14  | 53:29.22 | 10:09.43 |    240697    |   286414
       15  | 63:38.65 |  4:01.34 |    286415    |   304523
Track  1
     Filename D:\Downloads\Jacques Higelin - Refugie poetique - Triple best of - 3CD (2010)\CD3\01 - J'suis qu'un grain de poussiere.wav
     Pre-gap length  0:00:02.00
     Peak level 95.5 %
     Extraction speed 1.2 X
     Track quality 99.9 %
     Test CRC CC7E4712
     Copy CRC CC7E4712
     Copy OK
Track  2
     Filename D:\Downloads\Jacques Higelin - Refugie poetique - Triple best of - 3CD (2010)\CD3\02 - L'ange et le salaud.wav
     Peak level 98.8 %
     Extraction speed 1.5 X
     Track quality 100.0 %
     Test CRC F21B360C
     Copy CRC F21B360C
     Copy OK
Track  3
     Filename D:\Downloads\Jacques Higelin - Refugie poetique - Triple best of - 3CD (2010)\CD3\03 - Irradie.wav
     Peak level 98.8 %
     Extraction speed 1.6 X
     Track quality 100.0 %
     Test CRC C1393C72
     Copy CRC C1393C72
     Copy OK
Track  4
     Filename D:\Downloads\Jacques Higelin - Refugie poetique - Triple best of - 3CD (2010)\CD3\04 - Beau, beau ou laid.wav
     Pre-gap length  0:00:00.09
     Peak level 98.8 %
     Extraction speed 1.6 X
     Track quality 100.0 %
     Test CRC DA17EFB1
     Copy CRC DA17EFB1
     Copy OK
Track  5
     Filename D:\Downloads\Jacques Higelin - Refugie poetique - Triple best of - 3CD (2010)\CD3\05 - Adolescent.wav
     Pre-gap length  0:00:01.31
     Peak level 98.8 %
     Extraction speed 1.7 X
     Track quality 100.0 %
     Test CRC B60F5F67
     Copy CRC B60F5F67
     Copy OK
Track  6
     Filename D:\Downloads\Jacques Higelin - Refugie poetique - Triple best of - 3CD (2010)\CD3\06 - Parc Montsouris (a mon pere).wav
     Peak level 98.6 %
     Extraction speed 1.8 X
     Track quality 100.0 %
     Test CRC 372EBDDB
     Copy CRC 372EBDDB
     Copy OK
Track  7
     Filename D:\Downloads\Jacques Higelin - Refugie poetique - Triple best of - 3CD (2010)\CD3\07 - Ce qui est dit doit etre fait.wav
     Peak level 98.8 %
     Extraction speed 1.8 X
     Track quality 100.0 %
     Test CRC 8A8EB949
     Copy CRC 8A8EB949
     Copy OK
Track  8
     Filename D:\Downloads\Jacques Higelin - Refugie poetique - Triple best of - 3CD (2010)\CD3\08 - La fille au coeur d'acier.wav
     Peak level 98.8 %
     Extraction speed 1.9 X
     Track quality 100.0 %
     Test CRC 82BBA60D
     Copy CRC 82BBA60D
     Copy OK
Track  9
     Filename D:\Downloads\Jacques Higelin - Refugie poetique - Triple best of - 3CD (2010)\CD3\09 - Chanson.wav
     Peak level 98.8 %
     Extraction speed 1.7 X
     Track quality 99.9 %
     Test CRC EC165EAC
     Copy CRC EC165EAC
     Copy OK
Track 10
     Filename D:\Downloads\Jacques Higelin - Refugie poetique - Triple best of - 3CD (2010)\CD3\10 - Mamy.wav
     Peak level 98.8 %
     Extraction speed 1.9 X
     Track quality 100.0 %
     Test CRC 0E20D204
     Copy CRC 0E20D204
     Copy OK
Track 11
     Filename D:\Downloads\Jacques Higelin - Refugie poetique - Triple best of - 3CD (2010)\CD3\11 - La croisade des enfants.wav
     Peak level 98.8 %
     Extraction speed 2.0 X
     Track quality 100.0 %
     Test CRC 313EDDFA
     Copy CRC 313EDDFA
     Copy OK
Track 12
     Filename D:\Downloads\Jacques Higelin - Refugie poetique - Triple best of - 3CD (2010)\CD3\12 - Coup de foudre.wav
     Peak level 99.8 %
     Extraction speed 1.7 X
     Track quality 99.9 %
     Test CRC 61CB797C
     Copy CRC 61CB797C
     Copy OK
Track 13
     Filename D:\Downloads\Jacques Higelin - Refugie poetique - Triple best of - 3CD (2010)\CD3\13 - Je ne peux plus dire je t'aime.wav
     Pre-gap length  0:00:00.22
     Peak level 90.6 %
     Extraction speed 2.0 X
     Track quality 100.0 %
     Test CRC 86C28F3A
     Copy CRC 86C28F3A
     Copy OK
Track 14
     Filename D:\Downloads\Jacques Higelin - Refugie poetique - Triple best of - 3CD (2010)\CD3\14 - Alertez les bebes.wav
     Pre-gap length  0:00:01.13
     Peak level 98.8 %
     Extraction speed 2.1 X
     Track quality 99.9 %
     Test CRC 342F1920
     Copy CRC 342F1920
     Copy OK
Track 15
     Filename D:\Downloads\Jacques Higelin - Refugie poetique - Triple best of - 3CD (2010)\CD3\15 - Adios.wav
     Peak level 98.8 %
     Extraction speed 2.1 X
     Track quality 100.0 %
     Test CRC E52751B3
     Copy CRC E52751B3
     Copy OK
No errors occurred
End of status report
Код:
REM GENRE Pop-Rock
REM DATE 2010
REM DISCID DC0FDC0F
REM COMMENT "ExactAudioCopy v1.0b2"
PERFORMER "Jacques Higelin"
TITLE "Refugie poetique"
FILE "01 - J'suis qu'un grain de poussiere.wav" WAVE
  TRACK 01 AUDIO
    TITLE "J'suis qu'un grain de poussiere"
    PERFORMER "Jacques Higelin"
    FLAGS DCP
    INDEX 01 00:00:00
FILE "02 - L'ange et le salaud.wav" WAVE
  TRACK 02 AUDIO
    TITLE "L'ange et le salaud"
    PERFORMER "Jacques Higelin"
    FLAGS DCP
    INDEX 01 00:00:00
FILE "03 - Irradie.wav" WAVE
  TRACK 03 AUDIO
    TITLE "Irradie"
    PERFORMER "Jacques Higelin"
    FLAGS DCP
    INDEX 01 00:00:00
  TRACK 04 AUDIO
    TITLE "Beau, beau ou laid"
    PERFORMER "Jacques Higelin"
    FLAGS DCP
    INDEX 00 04:38:44
FILE "04 - Beau, beau ou laid.wav" WAVE
    INDEX 01 00:00:00
  TRACK 05 AUDIO
    TITLE "Adolescent"
    PERFORMER "Jacques Higelin"
    FLAGS DCP
    INDEX 00 03:36:24
FILE "05 - Adolescent.wav" WAVE
    INDEX 01 00:00:00
FILE "06 - Parc Montsouris (a mon pere).wav" WAVE
  TRACK 06 AUDIO
    TITLE "Parc Montsouris (a mon pere)"
    PERFORMER "Jacques Higelin"
    FLAGS DCP
    INDEX 01 00:00:00
FILE "07 - Ce qui est dit doit etre fait.wav" WAVE
  TRACK 07 AUDIO
    TITLE "Ce qui est dit doit etre fait"
    PERFORMER "Jacques Higelin"
    FLAGS DCP
    INDEX 01 00:00:00
FILE "08 - La fille au coeur d'acier.wav" WAVE
  TRACK 08 AUDIO
    TITLE "La fille au coeur d'acier"
    PERFORMER "Jacques Higelin"
    FLAGS DCP
    INDEX 01 00:00:00
FILE "09 - Chanson.wav" WAVE
  TRACK 09 AUDIO
    TITLE "Chanson"
    PERFORMER "Jacques Higelin"
    FLAGS DCP
    INDEX 01 00:00:00
FILE "10 - Mamy.wav" WAVE
  TRACK 10 AUDIO
    TITLE "Mamy"
    PERFORMER "Jacques Higelin"
    FLAGS DCP
    INDEX 01 00:00:00
FILE "11 - La croisade des enfants.wav" WAVE
  TRACK 11 AUDIO
    TITLE "La croisade des enfants"
    PERFORMER "Jacques Higelin"
    FLAGS DCP
    INDEX 01 00:00:00
FILE "12 - Coup de foudre.wav" WAVE
  TRACK 12 AUDIO
    TITLE "Coup de foudre"
    PERFORMER "Jacques Higelin"
    FLAGS DCP
    INDEX 01 00:00:00
  TRACK 13 AUDIO
    TITLE "Je ne peux plus dire je t'aime"
    PERFORMER "Jacques Higelin"
    FLAGS DCP
    INDEX 00 03:49:31
FILE "13 - Je ne peux plus dire je t'aime.wav" WAVE
    INDEX 01 00:00:00
  TRACK 14 AUDIO
    TITLE "Alertez les bebes"
    PERFORMER "Jacques Higelin"
    FLAGS DCP
    INDEX 00 04:24:69
FILE "14 - Alertez les bebes.wav" WAVE
    INDEX 01 00:00:00
FILE "15 - Adios.wav" WAVE
  TRACK 15 AUDIO
    TITLE "Adios"
    PERFORMER "Jacques Higelin"
    FLAGS DCP
    INDEX 01 00:00:00
Код:
AUDIOCHECKER v2.0 beta (build 457) - by Dester - opdester@freemail.hu
~~~~~~~~~~~~~~~~~~~~~~~~~~~~~~~~~~
-=== DO NOT EDIT THIS FILE! ===-
Path: ...\CD3
01 -=- 01 - J'suis qu'un grain de poussiere.flac -=- MPEG (79%)
02 -=- 02 - L'ange et le salaud.flac -=- CDDA (100%)
03 -=- 03 - Irradie.flac -=- CDDA (100%)
04 -=- 04 - Beau, beau ou laid.flac -=- CDDA (100%)
05 -=- 05 - Adolescent.flac -=- CDDA (100%)
06 -=- 06 - Parc Montsouris (a mon pere).flac -=- CDDA (94%)
07 -=- 07 - Ce qui est dit doit etre fait.flac -=- CDDA (99%)
08 -=- 08 - La fille au coeur d'acier.flac -=- CDDA (100%)
09 -=- 09 - Chanson.flac -=- CDDA (100%)
10 -=- 10 - Mamy.flac -=- CDDA (100%)
11 -=- 11 - La croisade des enfants.flac -=- CDDA (100%)
12 -=- 12 - Coup de foudre.flac -=- CDDA (100%)
13 -=- 13 - Je ne peux plus dire je t'aime.flac -=- CDDA (100%)
14 -=- 14 - Alertez les bebes.flac -=- CDDA (100%)
15 -=- 15 - Adios.flac -=- CDDA (100%)
Summary 94,27% CDDA
257061940
Помимо этой раздачи, у меня на форуме есть несколько других французских раздач:
Collection noire Master Série – Part 1: Barbara, Gérard Blanchard, Graeme Allwright, Guy Marchand, Hervé Vilard, Marie-Paule Belle, Michel Delpech, Patrick Juvet, Sacha Distel, William Sheller
Collection noire Master Série – Part 2: Antoine, Claude François, Daniel Balavoine, Jean Ferrat, Jean-Luc Lahaye, Juliette Gréco, Les Chaussettes Noires, Mouloudji, Serge Gainsbourg, Vince Taylor
Collection noire Master Série – Part 3: Georges Brassens, Henri Tachan, Jean-Michel Caradec, Johnny Hallyday, Maxime Le Forestier, Paul Personne, Renaud, Serge Lama, Serge Reggiani, Yves Montand
Collection noire Master Série – Part 4: Alain Bashung, Christophe, Daniel Guichard, Enrico Macias, François Feldman, Frida Boccara, Jacques Brel, Jane Birkin, Mike Brant, Yves Simon
Collection noire Master Série – Part 5: Alain Barrière, Alan Stivell, Bernard Lavilliers, Claude Nougaro, Georges Chelon, Hugues Aufray, Mélina Mercouri, Mort Shuman, Nana Mouskouri, Nicoletta
Collection noire Master Série – Part 6: Catherine Ribeiro + Alpes, Catherine Sauvage, Félix Leclerc, Francis Lalanne, François Valéry, Herbert Léonard, Jean Yanne, Marie Myriam, Pia Colombo, Rika Zaraï
Collection noire Master Série – Part 7: Jacques Yvart, Jo Lemaire, Marie Laforêt, Maurice Fanon, Nicole Rieu, Pierre Vassiliu, Poppys, Régine, The Platters, Tri Yann
Collection noire Master Série – Part 8: Dalida, Diane Dufresne, Edith Piaf, Henri Salvador, James Brown, Jean Guidoni, Jean-Jacques Lafon, Los Incas, Monty, Stone & Charden
Collection noire Master Série – Part 9: Caterina Valente, Charles Dumont, Georges Moustaki, Marcel Zanini, Michele Torr, Barbara Vol.2, Catherine Sauvage Vol.2, Felix Leclerc Vol.2, Mort Shuman Vol.2, Mouloudji Vol. 2, Sacha Distel Vol.2
Collection noire Master Série – Part 10 - Bonus: Léo Ferré, Nino Ferrer, Fernand Raynaud (texte), Guy Bedos (texte), Raymond Devos (texte)
Кроме этой серии, есть также Клод Франсуа (Claude François), Жак Ижлен (Jacques Higelin), Серж Лама (Serge Lama), Жан Ферра (Jean Ferrat), Жан-Роже Коссимон (Jean-Roger Caussimon), Жюльен Клер (Julien Clerc), Кристоф (Christophe), Барбара (Barbara), Клод Нугарo (Claude Nougaro), Жак Брель (Jacques Brel), Лео Ферре (Léo Ferré), Мишель Польнарефф (Michel Polnareff), Мишель Фюген (Michel Fugain), Мишель Сарду (Michel Sardou), Даниэль Балавуан (Daniel Balavoine), Саша Дистель (Sacha Distel), Нана Мускури (Nana Mouskouri), Жан-Жак Гольдман (Jean-Jacques Goldman), Патрик Брюэль (Patrick Bruel), Патриция Карли (Patricia Carli), Нино Феррер (Nino Ferrer), Пьер Вассилиу (Pierre Vassiliu), Шарль Дюмон (Charles Dumont), Диана Телл (Diane Tell), Мари Мириам (Marie Myriam), Ромен Дидье (Romain Didier), Мишель Дельпеш (Michel Delpech) (mp3), Анри Ташан (Henri Tachan) (mp3), Ришар Готенер (Richard Gotainer), Жерар Ленорман (Gérard Lenorman), Филипп Лавиль (Philippe Lavil), Линда де Сюза (Linda de Suza), Патрик Абриаль (Patrick Abrial), Жорж Шелон (Georges Chelon), Жан-Пьер Ферлан (Jean-Pierre Ferland), Мишель Torr (Michèle Torr), Дидье Барбеливьен (Didier Barbelivien), Николета (Nicoletta) и Ив Симон (Yves Simon).
Правила, инструкции, FAQ!!!
Торрент  Добавлен [01 янв 2020, 23:03] Скачать торрент Магнет ссылка
Скачать торрент
[ Размер 17.62 КБ / Просмотров 5 ]

Статус
Проверен 
 
Размер  1.34 ГБ
Приватный: Нет (DHT включён)
.torrent скачан  0
 


     Отправить личное сообщение
   
Страница 1 из 1
Показать сообщения за:  Поле сортировки  
Начать новую тему Ответить на тему


Сейчас этот форум просматривают: нет зарегистрированных пользователей и гости: 0


Вы не можете начинать темы
Вы не можете отвечать на сообщения
Вы не можете редактировать свои сообщения
Вы не можете удалять свои сообщения
Вы не можете добавлять вложения

Перейти:  
cron