Начать новую тему Ответить на тему
Статистика раздачи
Размер: 328.64 МБ | Добавлен: 26 мар 2019, 19:12 | Скачали: 0
Сидеров: 0  [0 байт/сек]    Личеров: 0  [0 байт/сек]
Пред. тема | След. тема 

Автор
Сообщение

СообщениеДобавлено: 26 мар 2019, 19:12 

Ответить с цитатой 

Jackson Howard / Just For The Mystery
Жанр: Pop Rock
Носитель: CD
Год издания: 2017
Страна исполнителя (группы): USA
Аудиокодек: FLAC (*.flac)
Тип рипа: tracks+.cue
Битрейт аудио: lossless
Продолжительность: 52:41
Источник (релизер): jonesy11
Наличие сканов в содержимом раздачи: нет
Треклист:
1. Just for the Mystery (04:17)
2. A Place in This World (03:29)
3. Run With Me (05:21)
4. Hideaway (feat. Mandy Cook) (03:50)
5. The Battle of Evermore (feat. Rachel Horter) (04:01)
6. Surround You (04:25)
7. Driftwood (04:04)
8. This Town (03:42)
9. Dizzy (04:53)
10. If I Fall (04:21)
11. You Are More (03:34)
12. Tribute (03:39)
13. Unbelievable (03:05)
Код:
Exact Audio Copy V1.3 from 2. September 2016
EAC extraction logfile from 10. June 2017, 14:37
Jackson Howard / Just For The Mystery
Used drive  : PLDS    DVD-RW DS8A9SH   Adapter: 1  ID: 0
Read mode               : Secure
Utilize accurate stream : Yes
Defeat audio cache      : Yes
Make use of C2 pointers : No
Read offset correction                      : 6
Overread into Lead-In and Lead-Out          : No
Fill up missing offset samples with silence : Yes
Delete leading and trailing silent blocks   : No
Null samples used in CRC calculations       : Yes
Used interface                              : Native Win32 interface for Win NT & 2000
Gap handling                                : Appended to previous track
Used output format              : User Defined Encoder
Selected bitrate                : 128 kBit/s
Quality                         : High
Add ID3 tag                     : No
Command line compressor         : C:\Program Files (x86)\Exact Audio Copy\Flac\flac.exe
Additional command line options : -8 -V -T "ARTIST=%artist%" -T "TITLE=%title%" -T "ALBUM=%albumtitle%" -T "DATE=%year%" -T "TRACKNUMBER=%tracknr%" -T "GENRE=%genre%" -T "PERFORMER=%albuminterpret%" -T "COMPOSER=%composer%" %haslyrics%--tag-from-file=LYRICS="%lyricsfile%"%haslyrics% -T "ALBUMARTIST=%albumartist%" -T "DISCNUMBER=%cdnumber%" -T "TOTALDISCS=%totalcds%" -T "TOTALTRACKS=%numtracks%" -T "COMMENT=%comment%" %source% -o %dest%
TOC of the extracted CD
     Track |   Start  |  Length  | Start sector | End sector
    ---------------------------------------------------------
        1  |  0:00.00 |  4:19.74 |         0    |    19498
        2  |  4:19.74 |  3:31.21 |     19499    |    35344
        3  |  7:51.20 |  5:23.60 |     35345    |    59629
        4  | 13:15.05 |  3:52.16 |     59630    |    77045
        5  | 17:07.21 |  4:03.71 |     77046    |    95341
        6  | 21:11.17 |  4:27.36 |     95342    |   115402
        7  | 25:38.53 |  4:06.49 |    115403    |   133901
        8  | 29:45.27 |  3:44.51 |    133902    |   150752
        9  | 33:30.03 |  4:55.48 |    150753    |   172925
       10  | 38:25.51 |  4:23.67 |    172926    |   192717
       11  | 42:49.43 |  3:36.57 |    192718    |   208974
       12  | 46:26.25 |  3:41.57 |    208975    |   225606
       13  | 50:08.07 |  3:05.64 |    225607    |   239545
Track  1
     Filename C:\#EAC Rips\01 Just For The Mystery.wav
     Pre-gap length  0:00:02.00
     Peak level 95.2 %
     Extraction speed 1.8 X
     Track quality 100.0 %
     Test CRC E0FE1CFE
     Copy CRC E0FE1CFE
     Track not present in AccurateRip database
     Copy OK
None of the tracks are present in the AccurateRip database
No errors occurred
End of status report
==== Log checksum 1DC94541FC3DCB62402F6803E1E74D00A86ACB74E478B885A37FE6A2B5547424 ====
------------------------------------------------------------
Exact Audio Copy V1.3 from 2. September 2016
EAC extraction logfile from 10. June 2017, 15:23
Jackson Howard / Just For The Mystery
Used drive  : PLDS    DVD-RW DS8A9SH   Adapter: 1  ID: 0
Read mode               : Secure
Utilize accurate stream : Yes
Defeat audio cache      : Yes
Make use of C2 pointers : No
Read offset correction                      : 6
Overread into Lead-In and Lead-Out          : No
Fill up missing offset samples with silence : Yes
Delete leading and trailing silent blocks   : No
Null samples used in CRC calculations       : Yes
Used interface                              : Native Win32 interface for Win NT & 2000
Gap handling                                : Appended to previous track
Used output format              : User Defined Encoder
Selected bitrate                : 128 kBit/s
Quality                         : High
Add ID3 tag                     : No
Command line compressor         : C:\Program Files (x86)\Exact Audio Copy\Flac\flac.exe
Additional command line options : -8 -V -T "ARTIST=%artist%" -T "TITLE=%title%" -T "ALBUM=%albumtitle%" -T "DATE=%year%" -T "TRACKNUMBER=%tracknr%" -T "GENRE=%genre%" -T "PERFORMER=%albuminterpret%" -T "COMPOSER=%composer%" %haslyrics%--tag-from-file=LYRICS="%lyricsfile%"%haslyrics% -T "ALBUMARTIST=%albumartist%" -T "DISCNUMBER=%cdnumber%" -T "TOTALDISCS=%totalcds%" -T "TOTALTRACKS=%numtracks%" -T "COMMENT=%comment%" %source% -o %dest%
TOC of the extracted CD
     Track |   Start  |  Length  | Start sector | End sector
    ---------------------------------------------------------
        1  |  0:00.00 |  4:19.74 |         0    |    19498
        2  |  4:19.74 |  3:31.21 |     19499    |    35344
        3  |  7:51.20 |  5:23.60 |     35345    |    59629
        4  | 13:15.05 |  3:52.16 |     59630    |    77045
        5  | 17:07.21 |  4:03.71 |     77046    |    95341
        6  | 21:11.17 |  4:27.36 |     95342    |   115402
        7  | 25:38.53 |  4:06.49 |    115403    |   133901
        8  | 29:45.27 |  3:44.51 |    133902    |   150752
        9  | 33:30.03 |  4:55.48 |    150753    |   172925
       10  | 38:25.51 |  4:23.67 |    172926    |   192717
       11  | 42:49.43 |  3:36.57 |    192718    |   208974
       12  | 46:26.25 |  3:41.57 |    208975    |   225606
       13  | 50:08.07 |  3:05.64 |    225607    |   239545
Track  1
     Filename C:\#EAC Rips\01 Just For The Mystery.wav
     Pre-gap length  0:00:02.00
     Peak level 95.2 %
     Extraction speed 1.8 X
     Track quality 100.0 %
     Test CRC E0FE1CFE
     Copy CRC E0FE1CFE
     Track not present in AccurateRip database
     Copy OK
Track  2
     Filename C:\#EAC Rips\02 A Place In This World.wav
     Pre-gap length  0:00:02.00
     Peak level 95.2 %
     Extraction speed 1.9 X
     Track quality 100.0 %
     Test CRC 0A844C24
     Copy CRC 0A844C24
     Track not present in AccurateRip database
     Copy OK
Track  3
     Filename C:\#EAC Rips\03 Run With Me.wav
     Pre-gap length  0:00:02.00
     Peak level 95.2 %
     Extraction speed 2.3 X
     Track quality 100.0 %
     Test CRC 511C2B0A
     Copy CRC 511C2B0A
     Track not present in AccurateRip database
     Copy OK
Track  4
     Filename C:\#EAC Rips\04 Hideaway (Featuring Mandy Cook).wav
     Pre-gap length  0:00:02.00
     Peak level 95.2 %
     Extraction speed 2.4 X
     Track quality 100.0 %
     Test CRC 6A9F279E
     Copy CRC 6A9F279E
     Track not present in AccurateRip database
     Copy OK
Track  5
     Filename C:\#EAC Rips\05 The Battle Of Evermore (Featuring Rachel Horter).wav
     Pre-gap length  0:00:02.00
     Peak level 95.2 %
     Extraction speed 2.5 X
     Track quality 100.0 %
     Test CRC B0C2869D
     Copy CRC B0C2869D
     Track not present in AccurateRip database
     Copy OK
Track  6
     Filename C:\#EAC Rips\06 Surround You.wav
     Pre-gap length  0:00:02.00
     Peak level 95.2 %
     Extraction speed 2.7 X
     Track quality 100.0 %
     Test CRC 4A156A71
     Copy CRC 4A156A71
     Track not present in AccurateRip database
     Copy OK
Track  7
     Filename C:\#EAC Rips\07 Driftwood.wav
     Pre-gap length  0:00:02.00
     Peak level 89.3 %
     Extraction speed 2.2 X
     Track quality 99.9 %
     Test CRC 5223F61B
     Copy CRC 5223F61B
     Track not present in AccurateRip database
     Copy OK
Track  8
     Filename C:\#EAC Rips\08 This Town.wav
     Pre-gap length  0:00:02.00
     Peak level 95.2 %
     Extraction speed 2.9 X
     Track quality 100.0 %
     Test CRC 09477189
     Copy CRC 09477189
     Track not present in AccurateRip database
     Copy OK
Track  9
     Filename C:\#EAC Rips\09 Dizzy.wav
     Pre-gap length  0:00:02.00
     Peak level 95.2 %
     Extraction speed 3.1 X
     Track quality 100.0 %
     Test CRC 6AA9CF71
     Copy CRC 6AA9CF71
     Track not present in AccurateRip database
     Copy OK
Track 10
     Filename C:\#EAC Rips\10 If I Fall.wav
     Pre-gap length  0:00:02.00
     Peak level 95.2 %
     Extraction speed 3.2 X
     Track quality 100.0 %
     Test CRC 77A7F839
     Copy CRC 77A7F839
     Track not present in AccurateRip database
     Copy OK
Track 11
     Filename C:\#EAC Rips\11 You Are More.wav
     Pre-gap length  0:00:02.00
     Peak level 82.4 %
     Extraction speed 2.5 X
     Track quality 99.9 %
     Test CRC 8B51ED16
     Copy CRC 8B51ED16
     Track not present in AccurateRip database
     Copy OK
Track 12
     Filename C:\#EAC Rips\12 Tribute.wav
     Pre-gap length  0:00:02.00
     Peak level 95.2 %
     Extraction speed 2.6 X
     Track quality 99.9 %
     Test CRC 575EC848
     Copy CRC 575EC848
     Track not present in AccurateRip database
     Copy OK
Track 13
     Filename C:\#EAC Rips\13 Unbelievable.wav
     Pre-gap length  0:00:02.00
     Peak level 95.2 %
     Extraction speed 3.3 X
     Track quality 100.0 %
     Test CRC 9222AC89
     Copy CRC 9222AC89
     Track not present in AccurateRip database
     Copy OK
None of the tracks are present in the AccurateRip database
No errors occurred
End of status report
---- CUETools DB Plugin V2.1.6
[CTDB TOCID: 9TI1hf_vF36.FlreSfKI4wNaa8E-] disk not present in database
Submit result: 9TI1hf_vF36.FlreSfKI4wNaa8E- has been uploaded
==== Log checksum F533153EC7C7192FB3428FC86424F9EFEC37CD2CD56C1F5AAB6242FE91CFA73A ====
Код:
REM GENRE Singer/Songwriter
REM DATE 2017
REM DISCID A70C790D
REM COMMENT "ExactAudioCopy v1.3"
PERFORMER "Jackson Howard"
TITLE "Just For The Mystery"
REM COMPOSER ""
FILE "01 Just For The Mystery.wav" WAVE
  TRACK 01 AUDIO
    TITLE "Just For The Mystery"
    PERFORMER "Jackson Howard"
    REM COMPOSER ""
    INDEX 01 00:00:00
  TRACK 02 AUDIO
    TITLE "A Place In This World"
    PERFORMER "Jackson Howard"
    REM COMPOSER ""
    INDEX 00 04:17:74
FILE "02 A Place In This World.wav" WAVE
    INDEX 01 00:00:00
  TRACK 03 AUDIO
    TITLE "Run With Me"
    PERFORMER "Jackson Howard"
    REM COMPOSER ""
    INDEX 00 03:29:21
FILE "03 Run With Me.wav" WAVE
    INDEX 01 00:00:00
  TRACK 04 AUDIO
    TITLE "Hideaway (Featuring Mandy Cook)"
    PERFORMER "Jackson Howard"
    REM COMPOSER ""
    INDEX 00 05:21:60
FILE "04 Hideaway (Featuring Mandy Cook).wav" WAVE
    INDEX 01 00:00:00
  TRACK 05 AUDIO
    TITLE "The Battle Of Evermore (Featuring Rachel Horter)"
    PERFORMER "Jackson Howard"
    REM COMPOSER ""
    INDEX 00 03:50:16
FILE "05 The Battle Of Evermore (Featuring Rachel Horter).wav" WAVE
    INDEX 01 00:00:00
  TRACK 06 AUDIO
    TITLE "Surround You"
    PERFORMER "Jackson Howard"
    REM COMPOSER ""
    INDEX 00 04:01:71
FILE "06 Surround You.wav" WAVE
    INDEX 01 00:00:00
  TRACK 07 AUDIO
    TITLE "Driftwood"
    PERFORMER "Jackson Howard"
    REM COMPOSER ""
    INDEX 00 04:25:36
FILE "07 Driftwood.wav" WAVE
    INDEX 01 00:00:00
  TRACK 08 AUDIO
    TITLE "This Town"
    PERFORMER "Jackson Howard"
    REM COMPOSER ""
    INDEX 00 04:04:49
FILE "08 This Town.wav" WAVE
    INDEX 01 00:00:00
  TRACK 09 AUDIO
    TITLE "Dizzy"
    PERFORMER "Jackson Howard"
    REM COMPOSER ""
    INDEX 00 03:42:51
FILE "09 Dizzy.wav" WAVE
    INDEX 01 00:00:00
  TRACK 10 AUDIO
    TITLE "If I Fall"
    PERFORMER "Jackson Howard"
    REM COMPOSER ""
    INDEX 00 04:53:48
FILE "10 If I Fall.wav" WAVE
    INDEX 01 00:00:00
  TRACK 11 AUDIO
    TITLE "You Are More"
    PERFORMER "Jackson Howard"
    REM COMPOSER ""
    INDEX 00 04:21:67
FILE "11 You Are More.wav" WAVE
    INDEX 01 00:00:00
  TRACK 12 AUDIO
    TITLE "Tribute"
    PERFORMER "Jackson Howard"
    REM COMPOSER ""
    INDEX 00 03:34:57
FILE "12 Tribute.wav" WAVE
    INDEX 01 00:00:00
  TRACK 13 AUDIO
    TITLE "Unbelievable"
    PERFORMER "Jackson Howard"
    REM COMPOSER ""
    INDEX 00 03:39:57
FILE "13 Unbelievable.wav" WAVE
    INDEX 01 00:00:00
Правила, инструкции, FAQ!!!
Торрент  Добавлен [26 мар 2019, 19:12] Скачать торрент Магнет ссылка
Скачать торрент
[ Размер 27.07 КБ / Просмотров 0 ]

Статус
Проверен 
 
Размер  328.64 МБ
Приватный: Нет (DHT включён)
.torrent скачан  0
 


     Отправить личное сообщение
   
Страница 1 из 1
Показать сообщения за:  Поле сортировки  
Начать новую тему Ответить на тему


Сейчас этот форум просматривают: нет зарегистрированных пользователей и гости: 0


Вы не можете начинать темы
Вы не можете отвечать на сообщения
Вы не можете редактировать свои сообщения
Вы не можете удалять свои сообщения
Вы не можете добавлять вложения

Перейти:  
cron