Начать новую тему Ответить на тему
Статистика раздачи
Размер: 271.82 МБ | Добавлен: 26 мар 2019, 18:38 | Скачали: 0
Сидеров: 0  [0 байт/сек]    Личеров: 0  [0 байт/сек]
Пред. тема | След. тема 

Автор
Сообщение

СообщениеДобавлено: 26 мар 2019, 18:38 

Ответить с цитатой 

Jackdaw4 / The Eternal Struggle for Justice
Жанр: Pop-Rock
Страна-производитель диска: USA
Год издания: 2010
Страна: USA
Аудиокодек: FLAC (*.flac)
Тип рипа: tracks+.cue
Битрейт аудио: lossless
Продолжительность: 00:40:03
Источник (релизер): What.cd
Наличие сканов в содержимом раздачи: нет
Треклист:
1. The Eternal Struggle for Justice
2. Everyone Becomes the Road They Take
3. Wire to the Wire
4. We Sold It All
5. Waiting to Die
6. Someone Who Cares
7. Wonderful
8. Pornography
9. The Great Unknown
10. Baby I’m a Killer
Код:
Exact Audio Copy V0.99 prebeta 5 from 4. May 2009
EAC extraction logfile from 7. July 2010, 12:54
Jackdaw4 / The Eternal Struggle for Justice
Used drive  : TSSTcorpCD/DVDW SH-S183A   Adapter: 2  ID: 0
Read mode               : Secure
Utilize accurate stream : Yes
Defeat audio cache      : Yes
Make use of C2 pointers : No
Read offset correction                      : 6
Overread into Lead-In and Lead-Out          : No
Fill up missing offset samples with silence : Yes
Delete leading and trailing silent blocks   : No
Null samples used in CRC calculations       : Yes
Used interface                              : Installed external ASPI interface
Gap handling                                : Appended to previous track
Used output format              : User Defined Encoder
Selected bitrate                : 128 kBit/s
Quality                         : High
Add ID3 tag                     : No
Command line compressor         : C:\Program Files\Exact Audio Copy\Flac\flac.exe
Additional command line options : -V -8 -T "artist=%a" -T "title=%t" -T "album=%g" -T "date=%y" -T "tracknumber=%n" -T "genre=%m" %s
TOC of the extracted CD
     Track |   Start  |  Length  | Start sector | End sector
    ---------------------------------------------------------
        1  |  0:00.00 |  4:15.11 |         0    |    19135
        2  |  4:15.11 |  3:54.44 |     19136    |    36729
        3  |  8:09.55 |  3:31.37 |     36730    |    52591
        4  | 11:41.17 |  5:07.26 |     52592    |    75642
        5  | 16:48.43 |  3:46.53 |     75643    |    92645
        6  | 20:35.21 |  3:13.56 |     92646    |   107176
        7  | 23:49.02 |  4:00.03 |    107177    |   125179
        8  | 27:49.05 |  4:40.31 |    125180    |   146210
        9  | 32:29.36 |  3:57.61 |    146211    |   164046
       10  | 36:27.22 |  3:36.06 |    164047    |   180252
Track  1
     Filename C:\EAC Rips\Jackdaw4 - The Eternal Struggle for Justice (2010)\01 - The Eternal Struggle for Justice.wav
     Pre-gap length  0:00:02.00
     Peak level 99.9 %
     Track quality 100.0 %
     Test CRC A0AD602D
     Copy CRC A0AD602D
     Track not present in AccurateRip database
     Copy OK
Track  2
     Filename C:\EAC Rips\Jackdaw4 - The Eternal Struggle for Justice (2010)\02 - Everyone Becomes the Road They Take.wav
     Peak level 99.9 %
     Track quality 100.0 %
     Test CRC 84CFD1C4
     Copy CRC 84CFD1C4
     Track not present in AccurateRip database
     Copy OK
Track  3
     Filename C:\EAC Rips\Jackdaw4 - The Eternal Struggle for Justice (2010)\03 - Wire to the Wire.wav
     Pre-gap length  0:00:01.89
     Peak level 99.9 %
     Track quality 99.9 %
     Test CRC 62BF31C3
     Copy CRC 62BF31C3
     Track not present in AccurateRip database
     Copy OK
Track  4
     Filename C:\EAC Rips\Jackdaw4 - The Eternal Struggle for Justice (2010)\04 - We Sold It All.wav
     Pre-gap length  0:00:02.20
     Peak level 99.9 %
     Track quality 100.0 %
     Test CRC CD7B391A
     Copy CRC CD7B391A
     Track not present in AccurateRip database
     Copy OK
Track  5
     Filename C:\EAC Rips\Jackdaw4 - The Eternal Struggle for Justice (2010)\05 - Waiting to Die.wav
     Pre-gap length  0:00:02.82
     Peak level 99.8 %
     Track quality 100.0 %
     Test CRC 4F7000D6
     Copy CRC 4F7000D6
     Track not present in AccurateRip database
     Copy OK
Track  6
     Filename C:\EAC Rips\Jackdaw4 - The Eternal Struggle for Justice (2010)\06 - Someone Who Cares.wav
     Pre-gap length  0:00:02.29
     Peak level 99.9 %
     Track quality 100.0 %
     Test CRC A143D2DF
     Copy CRC A143D2DF
     Track not present in AccurateRip database
     Copy OK
Track  7
     Filename C:\EAC Rips\Jackdaw4 - The Eternal Struggle for Justice (2010)\07 - Wonderful.wav
     Pre-gap length  0:00:03.09
     Peak level 99.9 %
     Track quality 100.0 %
     Test CRC 84248345
     Copy CRC 84248345
     Track not present in AccurateRip database
     Copy OK
Track  8
     Filename C:\EAC Rips\Jackdaw4 - The Eternal Struggle for Justice (2010)\08 - Pornography.wav
     Peak level 99.9 %
     Track quality 100.0 %
     Test CRC BEA27905
     Copy CRC BEA27905
     Track not present in AccurateRip database
     Copy OK
Track  9
     Filename C:\EAC Rips\Jackdaw4 - The Eternal Struggle for Justice (2010)\09 - The Great Unknown.wav
     Pre-gap length  0:00:00.65
     Peak level 99.9 %
     Track quality 100.0 %
     Test CRC 0101A8E7
     Copy CRC 0101A8E7
     Track not present in AccurateRip database
     Copy OK
Track 10
     Filename C:\EAC Rips\Jackdaw4 - The Eternal Struggle for Justice (2010)\10 - Baby I'm a Killer.wav
     Peak level 99.9 %
     Track quality 100.0 %
     Test CRC 87DF3FDC
     Copy CRC 87DF3FDC
     Track not present in AccurateRip database
     Copy OK
None of the tracks are present in the AccurateRip database
No errors occurred
End of status report
Код:
REM GENRE Rock
REM DATE 2010
REM DISCID 7309630A
REM COMMENT "ExactAudioCopy v0.99pb5"
FILE "01 - The Eternal Struggle for Justice.wav" WAVE
  TRACK 01 AUDIO
    FLAGS DCP
    INDEX 01 00:00:00
FILE "02 - Everyone Becomes the Road They Take.wav" WAVE
  TRACK 02 AUDIO
    FLAGS DCP
    INDEX 01 00:00:00
  TRACK 03 AUDIO
    FLAGS DCP
    INDEX 00 03:52:52
FILE "03 - Wire to the Wire.wav" WAVE
    INDEX 01 00:00:00
  TRACK 04 AUDIO
    FLAGS DCP
    INDEX 00 03:29:22
FILE "04 - We Sold It All.wav" WAVE
    INDEX 01 00:00:00
  TRACK 05 AUDIO
    FLAGS DCP
    INDEX 00 05:04:39
FILE "05 - Waiting to Die.wav" WAVE
    INDEX 01 00:00:00
  TRACK 06 AUDIO
    FLAGS DCP
    INDEX 00 03:44:31
FILE "06 - Someone Who Cares.wav" WAVE
    INDEX 01 00:00:00
  TRACK 07 AUDIO
    FLAGS DCP
    INDEX 00 03:10:49
FILE "07 - Wonderful.wav" WAVE
    INDEX 01 00:00:00
FILE "08 - Pornography.wav" WAVE
  TRACK 08 AUDIO
    FLAGS DCP
    INDEX 01 00:00:00
  TRACK 09 AUDIO
    FLAGS DCP
    INDEX 00 04:39:57
FILE "09 - The Great Unknown.wav" WAVE
    INDEX 01 00:00:00
FILE "10 - Baby I'm a Killer.wav" WAVE
  TRACK 10 AUDIO
    FLAGS DCP
    INDEX 01 00:00:00
Правила, инструкции, FAQ!!!
Торрент  Добавлен [26 мар 2019, 18:38] Скачать торрент Магнет ссылка
Скачать торрент
[ Размер 11.9 КБ / Просмотров 1 ]

Статус
Проверен 
 
Размер  271.82 МБ
Приватный: Нет (DHT включён)
.torrent скачан  0
 


     Отправить личное сообщение
   
Страница 1 из 1
Показать сообщения за:  Поле сортировки  
Начать новую тему Ответить на тему


Сейчас этот форум просматривают: нет зарегистрированных пользователей и гости: 0


Вы не можете начинать темы
Вы не можете отвечать на сообщения
Вы не можете редактировать свои сообщения
Вы не можете удалять свои сообщения
Вы не можете добавлять вложения

Перейти:  
cron