Начать новую тему Ответить на тему
Статистика раздачи
Размер: 269.01 МБ | Добавлен: 26 мар 2019, 18:53 | Скачали: 0
Сидеров: 0  [0 байт/сек]    Личеров: 0  [0 байт/сек]
Пред. тема | След. тема 

Автор
Сообщение

СообщениеДобавлено: 26 мар 2019, 18:53 

Ответить с цитатой 

Jackdaw 4 / Bipolar Diversions
Жанр: Pop Rock
Носитель: CD
Страна-производитель диска (релиза): UK
Год издания: 2007
Издатель (лейбл): 369 Music
Номер по каталогу: 369CD0010
Аудиокодек: FLAC (*.flac)
Тип рипа: tracks+.cue
Битрейт аудио: lossless
Продолжительность: 0:38:42.
Источник (релизер): clustert
Наличие сканов в содержимом раздачи: да
Треклист:
01. SOOMA (All This Vision) [0:03:17.26]
02. Frobisher's Last Stand [0:04:06.52]
03. Jesus Wants My Soul Back [0:03:11.61]
04. Bipolar Diversions [0:03:58.44]
05. My Little Gangsta [0:04:22.24]
06. Heimlich's Manoeuvres [0:04:27.61]
07. All Around The World [0:03:12.41]
08. Illuminati [0:04:44.11]
09. End Of The Party [0:03:53.70]
10. Sleep [0:03:27.10]
Код:
Exact Audio Copy V1.0 beta 3 from 29. August 2011
Отчёт EAC об извлечении, выполненном 4. ноября 2017, 20:12
Jackdaw 4 / Bipolar Diversions
Дисковод: ASUS    DRW-1814BLT   Adapter: 4  ID: 0
Режим чтения                 : Достоверность
Использование точного потока : Да
Отключение кэша аудио        : Да
Использование указателей C2  : Нет
Коррекция смещения при чтении                     : 6
Способность читать области Lead-in и Lead-out     : Нет
Заполнение пропущенных сэмплов тишиной            : Да
Удаление блоков с тишиной в начале и конце        : Нет
При вычислениях CRC использовались нулевые сэмплы : Да
Интерфейс                                         : Встроенный Win32-интерфейс для Win NT/2000
Обработка зазоров                                 : Добавлено к предыдущему треку
Выходной формат          : Пользовательский кодировщик
Выбранный битрейт        : 128 kBit/s
Качество                 : Высокий
Добавление ID3-тега      : Нет
Утилита сжатия           : C:\Program Files\Exact Audio Copy\Flac\flac.exe
Дополнительные параметры :  -V -8 -T "Genre=%genre%" -T "Artist=%artist%" -T "Title=%title%" -T "Album=%albumtitle%" -T "Date=%year%" -T "Tracknumber=%tracknr%" -T "Comment=EAC1.0b2 FLAC -8" %source%
TOC извлечённого CD
     Трек |   Старт  | Длительность | Начальный сектор | Конечный сектор
    ---------------------------------------------------------------------
       1  |  0:00.00 |    3:17.26   |           0      |      14800
       2  |  3:17.26 |    4:06.52   |       14801      |      33302
       3  |  7:24.03 |    3:11.61   |       33303      |      47688
       4  | 10:35.64 |    3:58.44   |       47689      |      65582
       5  | 14:34.33 |    4:22.24   |       65583      |      85256
       6  | 18:56.57 |    4:27.61   |       85257      |     105342
       7  | 23:24.43 |    3:12.41   |      105343      |     119783
       8  | 26:37.09 |    4:44.11   |      119784      |     141094
       9  | 31:21.20 |    3:53.70   |      141095      |     158639
      10  | 35:15.15 |    3:27.10   |      158640      |     174174
Трек  1
     Имя файла R:\Раздача 75\Jackdaw 4 - 2007 - Bipolar Diversions\01 SOOMA (All This Vision) .wav
     Длина предзазора  0:00:02.00
     Пиковый уровень 99.9 %
     Скорость извлечения 5.0 X
     Качество трека 100.0 %
     CRC теста BB4D4351
     CRC копии BB4D4351
     Точное извлечение (достоверность 3)  [303AE210]  (AR v2)
     Копирование... OK
Трек  2
     Имя файла R:\Раздача 75\Jackdaw 4 - 2007 - Bipolar Diversions\02 Frobisher's Last Stand .wav
     Длина предзазора  0:00:00.40
     Пиковый уровень 99.9 %
     Скорость извлечения 5.6 X
     Качество трека 100.0 %
     CRC теста 95A73396
     CRC копии 95A73396
     Точное извлечение (достоверность 3)  [B985F5FA]  (AR v2)
     Копирование... OK
Трек  3
     Имя файла R:\Раздача 75\Jackdaw 4 - 2007 - Bipolar Diversions\03 Jesus Wants My Soul Back .wav
     Пиковый уровень 99.9 %
     Скорость извлечения 5.9 X
     Качество трека 100.0 %
     CRC теста DE8E1531
     CRC копии DE8E1531
     Точное извлечение (достоверность 3)  [A1DCD93B]  (AR v2)
     Копирование... OK
Трек  4
     Имя файла R:\Раздача 75\Jackdaw 4 - 2007 - Bipolar Diversions\04 Bipolar Diversions .wav
     Пиковый уровень 99.9 %
     Скорость извлечения 6.5 X
     Качество трека 100.0 %
     CRC теста DFC29E77
     CRC копии DFC29E77
     Точное извлечение (достоверность 3)  [D89715C4]  (AR v2)
     Копирование... OK
Трек  5
     Имя файла R:\Раздача 75\Jackdaw 4 - 2007 - Bipolar Diversions\05 My Little Gangsta .wav
     Пиковый уровень 99.9 %
     Скорость извлечения 7.1 X
     Качество трека 100.0 %
     CRC теста 18D8BA8F
     CRC копии 18D8BA8F
     Точное извлечение (достоверность 3)  [C2A8A747]  (AR v2)
     Копирование... OK
Трек  6
     Имя файла R:\Раздача 75\Jackdaw 4 - 2007 - Bipolar Diversions\06 Heimlich's Manoeuvres .wav
     Длина предзазора  0:00:00.04
     Пиковый уровень 99.9 %
     Скорость извлечения 7.5 X
     Качество трека 100.0 %
     CRC теста 21043B6E
     CRC копии 21043B6E
     Точное извлечение (достоверность 3)  [C7B9DA9B]  (AR v2)
     Копирование... OK
Трек  7
     Имя файла R:\Раздача 75\Jackdaw 4 - 2007 - Bipolar Diversions\07 All Around The World .wav
     Длина предзазора  0:00:01.33
     Пиковый уровень 99.9 %
     Скорость извлечения 5.4 X
     Качество трека 99.9 %
     CRC теста D916BC51
     CRC копии D916BC51
     Точное извлечение (достоверность 3)  [6B9ECB61]  (AR v2)
     Копирование... OK
Трек  8
     Имя файла R:\Раздача 75\Jackdaw 4 - 2007 - Bipolar Diversions\08 Illuminati .wav
     Пиковый уровень 99.9 %
     Скорость извлечения 8.2 X
     Качество трека 100.0 %
     CRC теста 3BD6CBE8
     CRC копии 3BD6CBE8
     Точное извлечение (достоверность 3)  [46E536AF]  (AR v2)
     Копирование... OK
Трек  9
     Имя файла R:\Раздача 75\Jackdaw 4 - 2007 - Bipolar Diversions\09 End Of The Party .wav
     Длина предзазора  0:00:01.17
     Пиковый уровень 98.5 %
     Скорость извлечения 8.4 X
     Качество трека 100.0 %
     CRC теста 787A31E6
     CRC копии 787A31E6
     Точное извлечение (достоверность 3)  [0D0466EE]  (AR v2)
     Копирование... OK
Трек 10
     Имя файла R:\Раздача 75\Jackdaw 4 - 2007 - Bipolar Diversions\10 Sleep .wav
     Длина предзазора  0:00:00.46
     Пиковый уровень 99.9 %
     Скорость извлечения 6.2 X
     Качество трека 99.9 %
     CRC теста 4BCFD095
     CRC копии 4BCFD095
     Точное извлечение (достоверность 3)  [373E4883]  (AR v2)
     Копирование... OK
Все треки извлечены точно
Ошибок не произошло
Конец отчёта
==== Контрольная сумма отчёта 0A6F1C032493E2AA8634CA7DA3E4B5F1BDCA049C376802261E7B917C57181678 ====
Код:
REM GENRE Rock
REM DATE 2007
REM DISCID 9709120A
REM COMMENT "ExactAudioCopy v1.0b3"
PERFORMER "Jackdaw 4"
TITLE "Bipolar Diversions"
FILE "01 SOOMA (All This Vision) .wav" WAVE
  TRACK 01 AUDIO
    TITLE "SOOMA (All This Vision)"
    PERFORMER "Jackdaw 4"
    INDEX 01 00:00:00
  TRACK 02 AUDIO
    TITLE "Frobisher's Last Stand"
    PERFORMER "Jackdaw 4"
    INDEX 00 03:16:61
FILE "02 Frobisher's Last Stand .wav" WAVE
    INDEX 01 00:00:00
FILE "03 Jesus Wants My Soul Back .wav" WAVE
  TRACK 03 AUDIO
    TITLE "Jesus Wants My Soul Back"
    PERFORMER "Jackdaw 4"
    INDEX 01 00:00:00
FILE "04 Bipolar Diversions .wav" WAVE
  TRACK 04 AUDIO
    TITLE "Bipolar Diversions"
    PERFORMER "Jackdaw 4"
    INDEX 01 00:00:00
FILE "05 My Little Gangsta .wav" WAVE
  TRACK 05 AUDIO
    TITLE "My Little Gangsta"
    PERFORMER "Jackdaw 4"
    INDEX 01 00:00:00
  TRACK 06 AUDIO
    TITLE "Heimlich's Manoeuvres"
    PERFORMER "Jackdaw 4"
    INDEX 00 04:22:20
FILE "06 Heimlich's Manoeuvres .wav" WAVE
    INDEX 01 00:00:00
  TRACK 07 AUDIO
    TITLE "All Around The World"
    PERFORMER "Jackdaw 4"
    INDEX 00 04:26:28
FILE "07 All Around The World .wav" WAVE
    INDEX 01 00:00:00
FILE "08 Illuminati .wav" WAVE
  TRACK 08 AUDIO
    TITLE "Illuminati"
    PERFORMER "Jackdaw 4"
    INDEX 01 00:00:00
  TRACK 09 AUDIO
    TITLE "End Of The Party"
    PERFORMER "Jackdaw 4"
    INDEX 00 04:42:69
FILE "09 End Of The Party .wav" WAVE
    INDEX 01 00:00:00
  TRACK 10 AUDIO
    TITLE "Sleep"
    PERFORMER "Jackdaw 4"
    INDEX 00 03:53:24
FILE "10 Sleep .wav" WAVE
    INDEX 01 00:00:00
Правила, инструкции, FAQ!!!
Торрент  Добавлен [26 мар 2019, 18:53] Скачать торрент Магнет ссылка
Скачать торрент
[ Размер 12.22 КБ / Просмотров 0 ]

Статус
Проверен 
 
Размер  269.01 МБ
Приватный: Нет (DHT включён)
.torrent скачан  0
 


     Отправить личное сообщение
   
Страница 1 из 1
Показать сообщения за:  Поле сортировки  
Начать новую тему Ответить на тему


Сейчас этот форум просматривают: нет зарегистрированных пользователей и гости: 0


Вы не можете начинать темы
Вы не можете отвечать на сообщения
Вы не можете редактировать свои сообщения
Вы не можете удалять свои сообщения
Вы не можете добавлять вложения

Перейти:  
cron