Начать новую тему Ответить на тему
Статистика раздачи
Размер: 2.49 ГБ | Добавлен: 02 авг 2020, 21:09 | Скачали: 0
Сидеров: 2  [0 байт/сек]    Личеров: 1  [0 байт/сек]
Пред. тема | След. тема 

Автор
Сообщение

СообщениеДобавлено: 28 апр 2020, 19:49 

Ответить с цитатой 

Izhar Ashdot - Collection - 7 альбомов - 1995-2013


#777
Гитарист, композитор, певец, продюсер и один из основателей и бессменных членов T-Slam, находящийся на израильской сцене с 1973 по сегодняшний день. Кроме сольной работы, он продюсировал звездные записи Офры Хазы и многих других локальных звезд. С 1992 по 2012 он выпустил 12 сольных альбомов
Страна исполнителя: Israel
Жанр: Pop Rock || Язык: Hebrew || Аудио кодек: FLAC || Тип рипа: (tracks + .cue) || Битрейт аудио: lossless || Включает: Full artwork || Общая длительность: 5:36:50 || Источник : Моя коллекция
25/07/2020 - יזהר אשדות - הלילות שלנו - 2007
#777
Жанр: Pop rock
Носитель: CD (Live)
Год издания оригинала: 1995
Страна-производитель диска (релиза): Israel
Издатель (лейбл): NMC Music Ltd.
Номер по каталогу: 20167-2
Дата / место записи: At The Hard Rock Café, Tel Aviv, 22.1.95
Трэклист:
1. מלך שלך (יזהר אשדות) - 4:56 - Твой король
2. מה תאמרי (שמוליק צ'יזיק / יזהר אשדות) - 3:20 - Что скажешь?
3. בכל פאם שאני מתאהב [בך מחדש] (אלונה קמחי / יזהר אשדות) - 4:03 - Каждый раз, когда я влюбляюсь в тебя снова
4. יש לך אותי (צוף פילוסוף / יזהר אשדות) - 5:11 - У тебя есть я
5. תן לי קצת ממך (יעקוב גלעד / יזהר אשדות) - 3:58 - Дай мне немного от тебя
6. זריחה על המדבר (אלונה קמחי / יזהר אשדות) - 3:51 - Восход солнца в пустыне
7. צילו של יום קייץ (אלונה קמחי / יזהר אשדות) - 5:07 - Тень летнего дня
8. התחלות (צוף פילוסוף / יזהר אשדות) - 4:29 - Начинания
9. נועה של הים (אלונה קמחי / יזהר אשדות) - 2:45 - Ноа
10. הבלדה על .... (אלונה קמחי / יזהר אשדות) - 3:34 - Баллада о….
11. איש השוקולד (אלונה קמחי / יזהר אשדות) - 3:29 - Шоколадный Человек
12. הגשם ירד (דן תורן / יזהר אשדות) - 4:52 - Шел дождь
Код:
Exact Audio Copy V1.3 from 2. September 2016
EAC extraction logfile from 5. November 2018, 13:37
יזהר אשדות / ההופעה בהארד רוק קפה
Used drive  : HL-DT-STDVDRAM GH24NSB0   Adapter: 1  ID: 0
Read mode               : Secure
Utilize accurate stream : Yes
Defeat audio cache      : Yes
Make use of C2 pointers : No
Read offset correction                      : 6
Overread into Lead-In and Lead-Out          : No
Fill up missing offset samples with silence : Yes
Delete leading and trailing silent blocks   : No
Null samples used in CRC calculations       : Yes
Used interface                              : Native Win32 interface for Win NT & 2000
Gap handling                                : Appended to previous track
Used output format              : User Defined Encoder
Selected bitrate                : 1024 kBit/s
Quality                         : High
Add ID3 tag                     : No
Command line compressor         : C:\Program Files (x86)\Exact Audio Copy\FLAC\FLAC.EXE
Additional command line options : -V -8 -T "Genre=%genre%" -T "Artist=%artist%" -T "Title=%title%" -T "Album=%albumtitle%" -T "Date=%year%" -T "Tracknumber=%tracknr%" -T "Comment=%comment%" %source%
TOC of the extracted CD
     Track |   Start  |  Length  | Start sector | End sector
    ---------------------------------------------------------
        1  |  0:00.00 |  4:56.48 |         0    |    22247
        2  |  4:56.48 |  3:20.50 |     22248    |    37297
        3  |  8:17.23 |  4:03.42 |     37298    |    55564
        4  | 12:20.65 |  5:11.58 |     55565    |    78947
        5  | 17:32.48 |  3:58.10 |     78948    |    96807
        6  | 21:30.58 |  3:51.69 |     96808    |   114201
        7  | 25:22.52 |  5:07.21 |    114202    |   137247
        8  | 30:29.73 |  4:29.08 |    137248    |   157430
        9  | 34:59.06 |  2:45.72 |    157431    |   169877
       10  | 37:45.03 |  3:34.74 |    169878    |   186001
       11  | 41:20.02 |  3:29.07 |    186002    |   201683
       12  | 44:49.09 |  4:52.13 |    201684    |   223596
Track  1
     Filename D:\Music\MG rips\יזהר אשדות - ההופעה בהארד רוק קפה - 1995\01 - מלך שלך.wav
     Pre-gap length  0:00:02.00
     Peak level 94.4 %
     Extraction speed 1.1 X
     Track quality 100.0 %
     Test CRC 6B44001B
     Copy CRC 6B44001B
     Cannot be verified as accurate (confidence 2)  [54E3995F], AccurateRip returned [A7BA1044]  (AR v2)
     Copy OK
Track  2
     Filename D:\Music\MG rips\יזהר אשדות - ההופעה בהארד רוק קפה - 1995\02 - מה תאמרי.wav
     Peak level 94.4 %
     Extraction speed 1.1 X
     Track quality 100.0 %
     Test CRC F6F60B7F
     Copy CRC F6F60B7F
     Cannot be verified as accurate (confidence 2)  [34BFB794], AccurateRip returned [B57CAC3F]  (AR v2)
     Copy OK
Track  3
     Filename D:\Music\MG rips\יזהר אשדות - ההופעה בהארד רוק קפה - 1995\03 - בכל פעם אני מתאהב בך מחדש.wav
     Peak level 94.4 %
     Extraction speed 1.2 X
     Track quality 100.0 %
     Test CRC 1EF15809
     Copy CRC 1EF15809
     Cannot be verified as accurate (confidence 2)  [D3029CA4], AccurateRip returned [52ACED86]  (AR v2)
     Copy OK
Track  4
     Filename D:\Music\MG rips\יזהר אשדות - ההופעה בהארד רוק קפה - 1995\04 - יש לך אותי.wav
     Peak level 94.4 %
     Extraction speed 1.3 X
     Track quality 99.9 %
     Test CRC 67C3DC69
     Copy CRC 67C3DC69
     Cannot be verified as accurate (confidence 2)  [FFFB5710], AccurateRip returned [978A4CB7]  (AR v2)
     Copy OK
Track  5
     Filename D:\Music\MG rips\יזהר אשדות - ההופעה בהארד רוק קפה - 1995\05 - תן לי קצת ממך.wav
     Peak level 94.4 %
     Extraction speed 1.5 X
     Track quality 100.0 %
     Test CRC 950C85E0
     Copy CRC 950C85E0
     Cannot be verified as accurate (confidence 2)  [CDF3C245], AccurateRip returned [B1A8962B]  (AR v2)
     Copy OK
Track  6
     Filename D:\Music\MG rips\יזהר אשדות - ההופעה בהארד רוק קפה - 1995\06 - זריחה במדבר.wav
     Peak level 94.4 %
     Extraction speed 1.6 X
     Track quality 100.0 %
     Test CRC 18AA426C
     Copy CRC 18AA426C
     Cannot be verified as accurate (confidence 2)  [89353790], AccurateRip returned [856A86B8]  (AR v2)
     Copy OK
Track  7
     Filename D:\Music\MG rips\יזהר אשדות - ההופעה בהארד רוק קפה - 1995\07 - צילו של יום קיץ.wav
     Peak level 94.4 %
     Extraction speed 1.7 X
     Track quality 100.0 %
     Test CRC EFBD1709
     Copy CRC EFBD1709
     Cannot be verified as accurate (confidence 2)  [6E61F436], AccurateRip returned [153BE397]  (AR v2)
     Copy OK
Track  8
     Filename D:\Music\MG rips\יזהר אשדות - ההופעה בהארד רוק קפה - 1995\08 - התחלות.wav
     Peak level 94.4 %
     Extraction speed 1.8 X
     Track quality 100.0 %
     Test CRC DCF54066
     Copy CRC DCF54066
     Cannot be verified as accurate (confidence 2)  [1DA3B5E2], AccurateRip returned [EED0AB8D]  (AR v2)
     Copy OK
Track  9
     Filename D:\Music\MG rips\יזהר אשדות - ההופעה בהארד רוק קפה - 1995\09 - נועה של הים.wav
     Peak level 85.7 %
     Extraction speed 1.7 X
     Track quality 100.0 %
     Test CRC 56E42D06
     Copy CRC 56E42D06
     Cannot be verified as accurate (confidence 2)  [B8A1D96D], AccurateRip returned [0C5FBE7C]  (AR v2)
     Copy OK
Track 10
     Filename D:\Music\MG rips\יזהר אשדות - ההופעה בהארד רוק קפה - 1995\10 - הבלדה על....wav
     Peak level 94.4 %
     Extraction speed 1.8 X
     Track quality 100.0 %
     Test CRC 1BD99973
     Copy CRC 1BD99973
     Cannot be verified as accurate (confidence 2)  [FA008C4B], AccurateRip returned [168D6AF3]  (AR v2)
     Copy OK
Track 11
     Filename D:\Music\MG rips\יזהר אשדות - ההופעה בהארד רוק קפה - 1995\11 - איש השוקולד.wav
     Peak level 94.4 %
     Extraction speed 1.9 X
     Track quality 100.0 %
     Test CRC BB691A5A
     Copy CRC BB691A5A
     Cannot be verified as accurate (confidence 2)  [4E73397E], AccurateRip returned [C35A17B3]  (AR v2)
     Copy OK
Track 12
     Filename D:\Music\MG rips\יזהר אשדות - ההופעה בהארד רוק קפה - 1995\12 - הגשם ירד.wav
     Peak level 94.4 %
     Extraction speed 1.8 X
     Track quality 99.9 %
     Test CRC 39093529
     Copy CRC 39093529
     Cannot be verified as accurate (confidence 2)  [D2E621A8], AccurateRip returned [FBAD8991]  (AR v2)
     Copy OK
No tracks could be verified as accurate
You may have a different pressing from the one(s) in the database
No errors occurred
End of status report
==== Log checksum 6C804039B5703D0DD0A2F089B6E37F8C8E20B0327DAEE9D1FB17521147A2CE6A ====
Код:
REM GENRE Rock
REM DATE 1995
REM DISCID A00BA50C
REM COMMENT "ExactAudioCopy v1.3"
PERFORMER "יזהר אשדות"
TITLE "ההופעה בהארד רוק קפה"
REM COMPOSER ""
FILE "01 - מלך שלך.wav" WAVE
  TRACK 01 AUDIO
    TITLE "מלך שלך"
    PERFORMER "יזהר אשדות"
    REM COMPOSER ""
    FLAGS DCP
    INDEX 01 00:00:00
FILE "02 - מה תאמרי.wav" WAVE
  TRACK 02 AUDIO
    TITLE "מה תאמרי"
    PERFORMER "יזהר אשדות"
    REM COMPOSER ""
    FLAGS DCP
    INDEX 01 00:00:00
FILE "03 - בכל פעם אני מתאהב בך מחדש.wav" WAVE
  TRACK 03 AUDIO
    TITLE "בכל פעם אני מתאהב בך מחדש"
    PERFORMER "יזהר אשדות"
    REM COMPOSER ""
    FLAGS DCP
    INDEX 01 00:00:00
FILE "04 - יש לך אותי.wav" WAVE
  TRACK 04 AUDIO
    TITLE "יש לך אותי"
    PERFORMER "יזהר אשדות"
    REM COMPOSER ""
    FLAGS DCP
    INDEX 01 00:00:00
FILE "05 - תן לי קצת ממך.wav" WAVE
  TRACK 05 AUDIO
    TITLE "תן לי קצת ממך"
    PERFORMER "יזהר אשדות"
    REM COMPOSER ""
    FLAGS DCP
    INDEX 01 00:00:00
FILE "06 - זריחה במדבר.wav" WAVE
  TRACK 06 AUDIO
    TITLE "זריחה במדבר"
    PERFORMER "יזהר אשדות"
    REM COMPOSER ""
    FLAGS DCP
    INDEX 01 00:00:00
FILE "07 - צילו של יום קיץ.wav" WAVE
  TRACK 07 AUDIO
    TITLE "צילו של יום קיץ"
    PERFORMER "יזהר אשדות"
    REM COMPOSER ""
    FLAGS DCP
    INDEX 01 00:00:00
FILE "08 - התחלות.wav" WAVE
  TRACK 08 AUDIO
    TITLE "התחלות"
    PERFORMER "יזהר אשדות"
    REM COMPOSER ""
    FLAGS DCP
    INDEX 01 00:00:00
FILE "09 - נועה של הים.wav" WAVE
  TRACK 09 AUDIO
    TITLE "נועה של הים"
    PERFORMER "יזהר אשדות"
    REM COMPOSER ""
    FLAGS DCP
    INDEX 01 00:00:00
FILE "10 - הבלדה על....wav" WAVE
  TRACK 10 AUDIO
    TITLE "הבלדה על..."
    PERFORMER "יזהר אשדות"
    REM COMPOSER ""
    FLAGS DCP
    INDEX 01 00:00:00
FILE "11 - איש השוקולד.wav" WAVE
  TRACK 11 AUDIO
    TITLE "איש השוקולד"
    PERFORMER "יזהר אשדות"
    REM COMPOSER ""
    FLAGS DCP
    INDEX 01 00:00:00
FILE "12 - הגשם ירד.wav" WAVE
  TRACK 12 AUDIO
    TITLE "הגשם ירד"
    PERFORMER "יזהר אשדות"
    REM COMPOSER ""
    FLAGS DCP
    INDEX 01 00:00:00
Код:
[CUETools log; Date: 12/30/2019 6:20:06 AM; Version: 2.1.5]
[CTDB TOCID: FrWaZTTHfQZsxbJOFZKCzzirh84-] found.
Track | CTDB Status
  1   | (15/17) Accurately ripped
  2   | (15/17) Accurately ripped
  3   | (14/17) Accurately ripped
  4   | (14/17) Accurately ripped
  5   | (14/17) Accurately ripped
  6   | (15/17) Accurately ripped
  7   | (15/17) Accurately ripped
  8   | (15/17) Accurately ripped
  9   | (15/17) Accurately ripped
 10   | (15/17) Accurately ripped
 11   | (15/17) Accurately ripped
 12   | (15/17) Accurately ripped
[AccurateRip ID: 001698cd-00d1a8ff-a00ba50c] found.
Track   [  CRC   |   V2   ] Status
 01     [a7e0cf0d|54e3995f] (0+0/4) No match
 02     [223ba51f|34bfb794] (0+0/4) No match
 03     [3407653d|d3029ca4] (0+0/2) No match
 04     [d179c33b|fffb5710] (0+0/2) No match
 05     [381d3386|cdf3c245] (0+0/2) No match
 06     [c743ad89|89353790] (0+0/4) No match
 07     [3328fbc1|6e61f436] (0+0/4) No match
 08     [90b10163|1da3b5e2] (0+0/4) No match
 09     [f15893ad|b8a1d96d] (0+0/4) No match
 10     [65a89232|fa008c4b] (0+0/4) No match
 11     [bfbf1d95|4e73397e] (0+0/4) No match
 12     [cd86a7f9|d2e621a8] (0+0/2) No match
Offsetted by 109:
 01     [d05e6859] (0/4) No match (V2 was not tested)
 02     [abf123db] (0/4) No match (V2 was not tested)
 03     [10b6784c] (0/2) No match (V2 was not tested)
 04     [5d44431f] (0/2) No match (V2 was not tested)
 05     [a7eca9a1] (0/2) No match (V2 was not tested)
 06     [ce215a48] (0/4) No match (V2 was not tested)
 07     [d52ab5cc] (0/4) No match (V2 was not tested)
 08     [7212bf5f] (0/4) No match (V2 was not tested)
 09     [40159f2d] (0/4) No match (V2 was not tested)
 10     [87a4c4ab] (0/4) No match (V2 was not tested)
 11     [37e7ac4c] (0/4) No match (V2 was not tested)
 12     [5804abd6] (0/2) No match (V2 was not tested)
Offsetted by 110:
 01     [9d962b86] (0/4) No match (V2 was not tested)
 02     [4e597958] (0/4) No match (V2 was not tested)
 03     [aaba3f4e] (0/2) No match (V2 was not tested)
 04     [7371491a] (0/2) No match (V2 was not tested)
 05     [1000efed] (0/2) No match (V2 was not tested)
 06     [97cdf593] (0/4) No match (V2 was not tested)
 07     [dc7c5b13] (0/4) No match (V2 was not tested)
 08     [c4c1581d] (0/4) No match (V2 was not tested)
 09     [c536fd5a] (0/4) No match (V2 was not tested)
 10     [4f5d40a6] (0/4) No match (V2 was not tested)
 11     [294a8a58] (0/4) No match (V2 was not tested)
 12     [f8fe5d1b] (0/2) No match (V2 was not tested)
Track Peak [ CRC32  ] [W/O NULL] [  LOG   ]
 --   94.4 [31F5E4D7] [D89F8B87]
 01   94.4 [6B44001B] [B7751045]   CRC32
 02   94.4 [F6F60B7F] [19FA5098]   CRC32
 03   94.4 [1EF15809] [5C50031C]   CRC32
 04   94.4 [67C3DC69] [8680872C]   CRC32
 05   94.4 [950C85E0] [F8A71A95]   CRC32
 06   94.4 [18AA426C] [0A6F3CE1]   CRC32
 07   94.4 [EFBD1709] [3A90AFD5]   CRC32
 08   94.4 [DCF54066] [E73FB8CE]   CRC32
 09   85.7 [56E42D06] [90B3B1AD]   CRC32
 10   94.4 [1BD99973] [28F59D55]   CRC32
 11   94.4 [BB691A5A] [3AEBAC03]   CRC32
 12   94.4 [39093529] [FA247F18]   CRC32
Код:
     Track |   Start  |  Length  | Start sector | End sector
    ---------------------------------------------------------
        1  |  0:00.00 |  4:56.48 |         0    |    22247
        2  |  4:56.48 |  3:20.50 |     22248    |    37297
        3  |  8:17.23 |  4:03.42 |     37298    |    55564
        4  | 12:20.65 |  5:11.58 |     55565    |    78947
        5  | 17:32.48 |  3:58.10 |     78948    |    96807
        6  | 21:30.58 |  3:51.69 |     96808    |   114201
        7  | 25:22.52 |  5:07.21 |    114202    |   137247
        8  | 30:29.73 |  4:29.08 |    137248    |   157430
        9  | 34:59.06 |  2:45.72 |    157431    |   169877
       10  | 37:45.03 |  3:34.74 |    169878    |   186001
       11  | 41:20.02 |  3:29.07 |    186002    |   201683
       12  | 44:49.09 |  4:52.13 |    201684    |   223596
Код:
foobar2000 1.3.10 / Замер динамического диапазона (DR) 1.1.1
Дата отчёта:  2018-12-18 20:19:15
--------------------------------------------------------------------------------
Анализ:   יזהר אשדות / ההופעה בהארד רוק קפה
--------------------------------------------------------------------------------
DR         Пики         RMS           Продолжительность трека
--------------------------------------------------------------------------------
DR8       -0.50 дБ    -9.76 дБ      4:57 01-מלך שלך
DR7       -0.50 дБ    -9.09 дБ      3:21 02-מה תאמרי
DR6       -0.50 дБ    -7.69 дБ      4:04 03-בכל פעם אני מתאהב בך מחדש
DR7       -0.50 дБ    -9.63 дБ      5:12 04-יש לך אותי
DR7       -0.50 дБ    -9.21 дБ      3:58 05-תן לי קצת ממך
DR6       -0.50 дБ    -8.04 дБ      3:52 06-זריחה במדבר
DR6       -0.50 дБ    -8.16 дБ      5:07 07-צילו של יום קיץ
DR6       -0.50 дБ    -8.04 дБ      4:29 08-התחלות
DR10      -1.34 дБ   -13.39 дБ      2:46 09-נועה של הים
DR7       -0.50 дБ    -9.64 дБ      3:35 10-הבלדה על...
DR8       -0.50 дБ    -9.31 дБ      3:29 11-איש השוקולד
DR6       -0.50 дБ    -8.95 дБ      4:52 12-הגשם ירד
--------------------------------------------------------------------------------
Количество треков: 12
Реальные значения DR: DR7
Частота:   44100 Гц
Каналов:   2
Разрядность:   16
Битрейт:   1002 кбит/с
Кодек:   FLAC
================================================================================
Izhar Ashdot (יזהר אשדות) - Vocals, Guitars, Arrangements, Producer
Tzuf Pilosoff (צוף פילוסוף) - Bass, Voices, Arrangements
Ran Efron (דן עפרון) - Keyboards, Voices, Arrangements
Eran Porat (ערן פורת) - Drums, Percussion, Arrangements
With Guests:
Corinne Allal (קורין אלאל) - Vocals, Guitars on 5
Mishel Amar (מישל עמר) - Percussion on 7 & 12
Tal Bergman (טל ברגמן) - Drums on 3

#777Жанр: Rock, Pop
Дата записи: live in "Mofet" Hall, Rishon Le Tzion, 1996
Год издания оригинала: 1996
Страна - производитель диска: Israel
Издатель (лейбл): NMC
Номер по каталогу: 0-991000-2
Тип: CD, EP, Live
Трэклист:
1 הלילות שלנו 8:10 Наша ночь
2 הירושימה שלי 7:45 Моя Хорсима
3 ככלות הכל והתמונה 7:10 Все и картина
Код:
Exact Audio Copy V1.3 from 2. September 2016
EAC extraction logfile from 23. March 2018, 21:11
יזהר אשדות ולהקתו / בתוך לילה שלך
Used drive  : HL-DT-STDVDRAM GH24NSB0   Adapter: 1  ID: 0
Read mode               : Secure
Utilize accurate stream : Yes
Defeat audio cache      : Yes
Make use of C2 pointers : No
Read offset correction                      : 6
Overread into Lead-In and Lead-Out          : No
Fill up missing offset samples with silence : Yes
Delete leading and trailing silent blocks   : No
Null samples used in CRC calculations       : Yes
Used interface                              : Native Win32 interface for Win NT & 2000
Gap handling                                : Appended to previous track
Used output format              : User Defined Encoder
Selected bitrate                : 1024 kBit/s
Quality                         : High
Add ID3 tag                     : No
Command line compressor         : C:\Program Files (x86)\Exact Audio Copy\FLAC\FLAC.EXE
Additional command line options : -V -8 -T "Genre=%genre%" -T "Artist=%artist%" -T "Title=%title%" -T "Album=%albumtitle%" -T "Date=%year%" -T "Tracknumber=%tracknr%" -T "Comment=%comment%" %source%
TOC of the extracted CD
     Track |   Start  |  Length  | Start sector | End sector
    ---------------------------------------------------------
        1  |  0:00.00 |  8:16.47 |         0    |    37246
        2  |  8:16.47 |  7:52.51 |     37247    |    72697
        3  | 16:09.23 |  7:41.03 |     72698    |   107275
Track  1
     Filename D:\Music\MG rips\יזהר אשדות ולהקתו - בתוך לילה שלך - 1996\01 - הלילות שלנו.wav
     Pre-gap length  0:00:02.00
     Peak level 94.4 %
     Extraction speed 1.2 X
     Track quality 100.0 %
     Test CRC D28761F4
     Copy CRC D28761F4
     Accurately ripped (confidence 1)  [ACF12F6D]  (AR v2)
     Copy OK
Track  2
     Filename D:\Music\MG rips\יזהר אשדות ולהקתו - בתוך לילה שלך - 1996\02 - הירושימה שלי.wav
     Peak level 94.4 %
     Extraction speed 1.4 X
     Track quality 100.0 %
     Test CRC C911CFA7
     Copy CRC C911CFA7
     Accurately ripped (confidence 1)  [3FC886D6]  (AR v2)
     Copy OK
Track  3
     Filename D:\Music\MG rips\יזהר אשדות ולהקתו - בתוך לילה שלך - 1996\03 - ככלות הכל והתמונה.wav
     Peak level 100.0 %
     Extraction speed 1.6 X
     Track quality 100.0 %
     Test CRC 0CD8E65D
     Copy CRC 0CD8E65D
     Accurately ripped (confidence 1)  [A64867E2]  (AR v2)
     Copy OK
All tracks accurately ripped
No errors occurred
End of status report
==== Log checksum EC3F6FD7655FC096FA9985D919C922D8C19FB262940729F27818EC9D45A33323 ====
Код:
REM GENRE rock
REM DATE 1996
REM DISCID 28059603
REM COMMENT "ExactAudioCopy v1.3"
PERFORMER "יזהר אשדות ולהקתו"
TITLE "בתוך לילה שלך"
REM COMPOSER ""
FILE "01 - הלילות שלנו.wav" WAVE
  TRACK 01 AUDIO
    TITLE "הלילות שלנו"
    PERFORMER "יזהר אשדות ולהקתו"
    REM COMPOSER ""
    FLAGS DCP
    INDEX 01 00:00:00
FILE "02 - הירושימה שלי.wav" WAVE
  TRACK 02 AUDIO
    TITLE "הירושימה שלי"
    PERFORMER "יזהר אשדות ולהקתו"
    REM COMPOSER ""
    FLAGS DCP
    INDEX 01 00:00:00
FILE "03 - ככלות הכל והתמונה.wav" WAVE
  TRACK 03 AUDIO
    TITLE "ככלות הכל והתמונה"
    PERFORMER "יזהר אשדות ולהקתו"
    REM COMPOSER ""
    FLAGS DCP
    INDEX 01 00:00:00
Код:
[CUETools log; Date: 12/30/2019 6:20:11 AM; Version: 2.1.5]
[CTDB TOCID: 4DpKMjxz3UtQWy_nOzA4CjvWN00-] disk not present in database.
[AccurateRip ID: 00035085-000b031d-28059603] found.
Track   [  CRC   |   V2   ] Status
 01     [003b9485|acf12f6d] (0+1/1) Accurately ripped
 02     [e5dab990|3fc886d6] (0+1/1) Accurately ripped
 03     [9371ae07|a64867e2] (0+1/1) Accurately ripped
Track Peak [ CRC32  ] [W/O NULL] [  LOG   ]
 --  100.0 [49B099D1] [FB9359C5]
 01   94.4 [D28761F4] [8FFB138D]   CRC32
 02   94.4 [C911CFA7] [36D6F03F]   CRC32
 03  100.0 [0CD8E65D] [1C0BD13E]   CRC32
Код:
     Track |   Start  |  Length  | Start sector | End sector
    ---------------------------------------------------------
        1  |  0:00.00 |  8:16.47 |         0    |    37246
        2  |  8:16.47 |  7:52.51 |     37247    |    72697
        3  | 16:09.23 |  7:41.03 |     72698    |   107275
Код:
foobar2000 1.3.3 / Dynamic Range Meter 1.1.1
log date: 2020-03-19 14:33:49
--------------------------------------------------------------------------------
Analyzed: יזהר אשדות ולהקתו / בתוך לילה שלך
--------------------------------------------------------------------------------
DR         Peak         RMS     Duration Track
--------------------------------------------------------------------------------
DR9       -0.50 dB   -11.94 dB      8:17 01-הלילות שלנו
DR9       -0.50 dB   -11.56 dB      7:53 02-הירושימה שלי
DR7        0.00 dB   -11.07 dB      7:41 03-ככלות הכל והתמונה
--------------------------------------------------------------------------------
Number of tracks:  3
Official DR value: DR8
Samplerate:        44100 Hz
Channels:          2
Bits per sample:   16
Bitrate:           823 kbps
Codec:             FLAC
================================================================================
Bass, Backing Vocals – Tzif Philosof
Drums – Eran Porat
Guitar, Vocals – Izhar Ashdot
Keyboards, Backing Vocals – Ran Efron

#777Жанр:
Дата записи:
Язык:
Год издания оригинала:
Год переиздания:
Страна - производитель диска:
Издатель (лейбл): NMC Music Ltd.
Номер по каталогу: 20435-2
Тип:
Трэклист:
1 למה לא Почему бы и нет?
2 לילה מה בל Какая ночь
3 זמן קסם Время волшебства
4 אור משוגע Сумасшедший свет
5 שירת הדולפין Пение дельфинов
6 ישראלינה Израэлина
7 שה לה לה Ша Ла Ла
8 הי את Эй ты
9 סתיו אנגלי Английская осень
10 אוטוסטרדת הכאב Автострада боли
Код:
Exact Audio Copy V1.3 from 2. September 2016
EAC extraction logfile from 13. July 2019, 13:15
יזהר אשדות / זמן קסם
Used drive  : HL-DT-STDVDRAM GSA-T50N   Adapter: 1  ID: 0
Read mode               : Secure
Utilize accurate stream : Yes
Defeat audio cache      : Yes
Make use of C2 pointers : No
Read offset correction                      : 667
Overread into Lead-In and Lead-Out          : No
Fill up missing offset samples with silence : Yes
Delete leading and trailing silent blocks   : No
Null samples used in CRC calculations       : Yes
Used interface                              : Native Win32 interface for Win NT & 2000
Gap handling                                : Appended to previous track
Used output format              : User Defined Encoder
Selected bitrate                : 1024 kBit/s
Quality                         : High
Add ID3 tag                     : No
Command line compressor         : C:\Program Files\Exact Audio Copy\Flac\flac.exe
Additional command line options : -V -8 -T "Genre=%genre%" -T "Artist=%artist%" -T "Title=%title%" -T "Album=%albumtitle%" -T "Date=%year%" -T "Tracknumber=%tracknr%" %source% -o %dest%
TOC of the extracted CD
     Track |   Start  |  Length  | Start sector | End sector
    ---------------------------------------------------------
        1  |  0:00.00 |  5:17.21 |         0    |    23795
        2  |  5:17.21 |  4:30.73 |     23796    |    44118
        3  |  9:48.19 |  5:08.72 |     44119    |    67290
        4  | 14:57.16 |  4:40.53 |     67291    |    88343
        5  | 19:37.69 |  5:22.54 |     88344    |   112547
        6  | 25:00.48 |  4:45.63 |    112548    |   133985
        7  | 29:46.36 |  5:17.70 |    133986    |   157830
        8  | 35:04.31 |  4:05.29 |    157831    |   176234
        9  | 39:09.60 |  5:11.38 |    176235    |   199597
       10  | 44:21.23 |  6:03.56 |    199598    |   226878
Track  1
     Filename C:\music\MG rips\יזהר אשדות - זמן קסם - 1999\01 - למה לא.wav
     Pre-gap length  0:00:02.00
     Peak level 97.7 %
     Extraction speed 2.5 X
     Track quality 100.0 %
     Test CRC 54269EE8
     Copy CRC 54269EE8
     Track not present in AccurateRip database
     Copy OK
Track  2
     Filename C:\music\MG rips\יזהר אשדות - זמן קסם - 1999\02 - לילה מה בל.wav
     Peak level 97.7 %
     Extraction speed 2.8 X
     Track quality 100.0 %
     Test CRC 5C8DA22D
     Copy CRC 5C8DA22D
     Track not present in AccurateRip database
     Copy OK
Track  3
     Filename C:\music\MG rips\יזהר אשדות - זמן קסם - 1999\03 - זמן קסם.wav
     Pre-gap length  0:00:02.00
     Peak level 97.7 %
     Extraction speed 3.1 X
     Track quality 100.0 %
     Test CRC D50CDA36
     Copy CRC D50CDA36
     Track not present in AccurateRip database
     Copy OK
Track  4
     Filename C:\music\MG rips\יזהר אשדות - זמן קסם - 1999\04 - אור משוגע.wav
     Pre-gap length  0:00:02.00
     Peak level 97.7 %
     Extraction speed 3.4 X
     Track quality 100.0 %
     Test CRC C2F7CD51
     Copy CRC C2F7CD51
     Track not present in AccurateRip database
     Copy OK
Track  5
     Filename C:\music\MG rips\יזהר אשדות - זמן קסם - 1999\05 - שירת הדולפין.wav
     Peak level 97.7 %
     Extraction speed 3.4 X
     Track quality 99.9 %
     Test CRC 3E8056ED
     Copy CRC 3E8056ED
     Track not present in AccurateRip database
     Copy OK
Track  6
     Filename C:\music\MG rips\יזהר אשדות - זמן קסם - 1999\06 - ישראלינה.wav
     Pre-gap length  0:00:01.19
     Peak level 97.7 %
     Extraction speed 3.5 X
     Track quality 99.9 %
     Test CRC 9C02166D
     Copy CRC 9C02166D
     Track not present in AccurateRip database
     Copy OK
Track  7
     Filename C:\music\MG rips\יזהר אשדות - זמן קסם - 1999\07 - שה לה לה.wav
     Pre-gap length  0:00:00.40
     Peak level 97.7 %
     Extraction speed 4.1 X
     Track quality 100.0 %
     Test CRC 0944046A
     Copy CRC 0944046A
     Track not present in AccurateRip database
     Copy OK
Track  8
     Filename C:\music\MG rips\יזהר אשדות - זמן קסם - 1999\08 - הי את.wav
     Pre-gap length  0:00:01.09
     Peak level 97.7 %
     Extraction speed 4.2 X
     Track quality 100.0 %
     Test CRC FF0AA851
     Copy CRC FF0AA851
     Track not present in AccurateRip database
     Copy OK
Track  9
     Filename C:\music\MG rips\יזהר אשדות - זמן קסם - 1999\09 - סתיו אנגלי.wav
     Pre-gap length  0:00:00.14
     Peak level 97.7 %
     Extraction speed 4.6 X
     Track quality 100.0 %
     Test CRC 4CE51B8D
     Copy CRC 4CE51B8D
     Track not present in AccurateRip database
     Copy OK
Track 10
     Filename C:\music\MG rips\יזהר אשדות - זמן קסם - 1999\10 - אוטוסטרדת הכאב.wav
     Pre-gap length  0:00:01.11
     Peak level 97.7 %
     Extraction speed 4.8 X
     Track quality 100.0 %
     Test CRC 46D3BBB1
     Copy CRC 46D3BBB1
     Track not present in AccurateRip database
     Copy OK
None of the tracks are present in the AccurateRip database
No errors occurred
End of status report
==== Log checksum 5CB34B4561EB61EDFD78F139AB3B20CA7385AF7A4F4C4A8436188D36D132FEDA ====
Код:
REM GENRE "Rock"
REM DATE 1999
REM DISCID 8E0BD10A
REM COMMENT "ExactAudioCopy v1.3"
PERFORMER "יזהר אשדות"
TITLE "זמן קסם"
REM COMPOSER ""
FILE "01 - למה לא.wav" WAVE
  TRACK 01 AUDIO
    TITLE "למה לא"
    PERFORMER "יזהר אשדות"
    REM COMPOSER ""
    INDEX 01 00:00:00
FILE "02 - לילה מה בל.wav" WAVE
  TRACK 02 AUDIO
    TITLE "לילה מה בל"
    PERFORMER "יזהר אשדות"
    REM COMPOSER ""
    INDEX 01 00:00:00
  TRACK 03 AUDIO
    TITLE "זמן קסם"
    PERFORMER "יזהר אשדות"
    REM COMPOSER ""
    INDEX 00 04:28:73
FILE "03 - זמן קסם.wav" WAVE
    INDEX 01 00:00:00
  TRACK 04 AUDIO
    TITLE "אור משוגע"
    PERFORMER "יזהר אשדות"
    REM COMPOSER ""
    INDEX 00 05:06:72
FILE "04 - אור משוגע.wav" WAVE
    INDEX 01 00:00:00
FILE "05 - שירת הדולפין.wav" WAVE
  TRACK 05 AUDIO
    TITLE "שירת הדולפין"
    PERFORMER "יזהר אשדות"
    REM COMPOSER ""
    INDEX 01 00:00:00
  TRACK 06 AUDIO
    TITLE "ישראלינה"
    PERFORMER "יזהר אשדות"
    REM COMPOSER ""
    INDEX 00 05:21:35
FILE "06 - ישראלינה.wav" WAVE
    INDEX 01 00:00:00
  TRACK 07 AUDIO
    TITLE "שה לה לה"
    PERFORMER "יזהר אשדות"
    REM COMPOSER ""
    INDEX 00 04:45:23
FILE "07 - שה לה לה.wav" WAVE
    INDEX 01 00:00:00
  TRACK 08 AUDIO
    TITLE "הי את"
    PERFORMER "יזהר אשדות"
    REM COMPOSER ""
    INDEX 00 05:16:61
FILE "08 - הי את.wav" WAVE
    INDEX 01 00:00:00
  TRACK 09 AUDIO
    TITLE "סתיו אנגלי"
    PERFORMER "יזהר אשדות"
    REM COMPOSER ""
    INDEX 00 04:05:15
FILE "09 - סתיו אנגלי.wav" WAVE
    INDEX 01 00:00:00
  TRACK 10 AUDIO
    TITLE "אוטוסטרדת הכאב"
    PERFORMER "יזהר אשדות"
    REM COMPOSER ""
    INDEX 00 05:10:27
FILE "10 - אוטוסטרדת הכאב.wav" WAVE
    INDEX 01 00:00:00
Код:
[CUETools log; Date: 8/31/2019 8:09:52 PM; Version: 2.1.5]
[CTDB TOCID: JaEPsLuVHc8_522El3L7jFKPHJs-] found.
Track | CTDB Status
  1   | (1/1) Accurately ripped
  2   | (1/1) Accurately ripped
  3   | (1/1) Accurately ripped
  4   | (1/1) Accurately ripped
  5   | (1/1) Accurately ripped
  6   | (1/1) Accurately ripped
  7   | (1/1) Accurately ripped
  8   | (1/1) Accurately ripped
  9   | (1/1) Accurately ripped
 10   | (1/1) Accurately ripped
[AccurateRip ID: 0012c723-009636d4-8e0bd10a] disk not present in database.
Track Peak [ CRC32  ] [W/O NULL] [  LOG   ]
 --   97.7 [694A77CF] [84EB7654]
 01   97.7 [54269EE8] [EF8665BC]   CRC32
 02   97.7 [5C8DA22D] [016A94AB]   CRC32
 03   97.7 [D50CDA36] [B869708C]   CRC32
 04   97.7 [C2F7CD51] [8B6AC21B]   CRC32
 05   97.7 [3E8056ED] [25020E9D]   CRC32
 06   97.7 [9C02166D] [35DB0357]   CRC32
 07   97.7 [0944046A] [8E63A78E]   CRC32
 08   97.7 [FF0AA851] [EE4F3E14]   CRC32
 09   97.7 [4CE51B8D] [1D5AC791]   CRC32
 10   97.7 [46D3BBB1] [C52D37A7]   CRC32
Код:
     Track |   Start  |  Length  | Start sector | End sector
    ---------------------------------------------------------
        1  |  0:00.00 |  5:17.21 |         0    |    23795
        2  |  5:17.21 |  4:30.73 |     23796    |    44118
        3  |  9:48.19 |  5:08.72 |     44119    |    67290
        4  | 14:57.16 |  4:40.53 |     67291    |    88343
        5  | 19:37.69 |  5:22.54 |     88344    |   112547
        6  | 25:00.48 |  4:45.63 |    112548    |   133985
        7  | 29:46.36 |  5:17.70 |    133986    |   157830
        8  | 35:04.31 |  4:05.29 |    157831    |   176234
        9  | 39:09.60 |  5:11.38 |    176235    |   199597
       10  | 44:21.23 |  6:03.56 |    199598    |   226878
Код:
foobar2000 1.3.3 / Dynamic Range Meter 1.1.1
log date: 2020-03-19 14:33:45
--------------------------------------------------------------------------------
Analyzed: יזהר אשדות / זמן קסם
--------------------------------------------------------------------------------
DR         Peak         RMS     Duration Track
--------------------------------------------------------------------------------
DR9       -0.20 dB   -10.77 dB      5:17 01-למה לא
DR8       -0.20 dB    -9.04 dB      4:31 02-לילה מה בל
DR8       -0.20 dB    -9.64 dB      5:09 03-זמן קסם
DR9       -0.20 dB   -11.37 dB      4:41 04-אור משוגע
DR8       -0.20 dB   -10.23 dB      5:23 05-שירת הדולפין
DR7       -0.20 dB    -8.58 dB      4:46 06-ישראלינה
DR9       -0.20 dB   -10.02 dB      5:18 07-שה לה לה
DR9       -0.20 dB   -10.05 dB      4:05 08-הי את
DR7       -0.20 dB    -9.42 dB      5:12 09-סתיו אנגלי
DR9       -0.20 dB   -10.73 dB      6:04 10-אוטוסטרדת הכאב
--------------------------------------------------------------------------------
Number of tracks:  10
Official DR value: DR8
Samplerate:        44100 Hz
Channels:          2
Bits per sample:   16
Bitrate:           927 kbps
Codec:             FLAC
================================================================================
Tzuf Philosof - Bass (1,5,8,9)
Eran Porat - Drums (1,4,5,8,9), Zimbals (10)
Ran Efron - Keyboards (1,4,5,8,9)
Izhar Ashdot - Guitar (1,2,3,4,5,6,7,8,9,10), Vocals (1,2,3,4,5,6,7,8,9,10), Keyboards (2,3,4,6,7,9,10), Drum Programming (2,3,6,7,10), Bass (2,3,4,6,7,10)
Zohar Fresco - Percussion (1,4,8)
Miki Shaviv - Slide Guitar (1)
Alon Olearchik - Distortion Guitar (1), Synth (7), Organ (7)
Voices - Momi Levi, Dani Shagi (1)
Yehuda Poliker - Guitar (2), Voices (2), Bouzuki (2)
Rona Keynan - Voices (3)
Bary Sakharov - Voices (3,6,7), Guitar (3,6,7), Keyboards (3,6,7)
Moshe Levy - Strings Arrangement (5,8,10)
Hen Shenchar - First Violin (5,8,10)
Nataly Gendelsman - Second Violin (5,8,10)
Karin Zukman - Viola (5,8,10)
Hila Epshtein - Cello (5,8,10)
Uri Miles - Accordion (6,9), Irish Flute (9), Theen Vhistle (9)
Ihud Natan - Theen Vistle (9)
Yonatan Keren - Violin (9)
Avenr Hodorov - Sax & Piano (10)

Правила, инструкции, FAQ!!!
Торрент  Добавлен [02 авг 2020, 21:09] Скачать торрент Магнет ссылка
Скачать торрент
[ Размер 31.18 КБ / Просмотров 1 ]

Статус
Обновлён Admin (02 авг 2020, 21:09)
 
Размер  2.49 ГБ
Приватный: Нет (DHT включён)
.torrent скачан  0
 


     Отправить личное сообщение
   
Страница 1 из 1
Показать сообщения за:  Поле сортировки  
Начать новую тему Ответить на тему


Сейчас этот форум просматривают: нет зарегистрированных пользователей и гости: 0


Вы не можете начинать темы
Вы не можете отвечать на сообщения
Вы не можете редактировать свои сообщения
Вы не можете удалять свои сообщения
Вы не можете добавлять вложения

Перейти:  
cron