Начать новую тему Ответить на тему
Статистика раздачи
Размер: 8.17 ГБ | Добавлен: 21 авг 2020, 20:23 | Скачали: 2
Сидеров: 8  [0 байт/сек]    Личеров: 3  [0 байт/сек]
Пред. тема | След. тема 

Автор
Сообщение

СообщениеДобавлено: 21 авг 2020, 20:23 

Ответить с цитатой 

INXS - коллекция 1981 - 2004 г.г. (25 альбомов)


Жанр: Pop-Rock, New Wave
Носитель: CD
Год издания: 1990 - 2004
Страна исполнителя (группы): Australia
Наличие сканов в содержимом раздачи: да
Albums
#777Страна-производитель диска: EU
Год первого выпуска: 1981
Год настоящего издания: 1989
Издатель (лейбл): Mercury Records
Номер по каталогу: 838 926-2
Format: CD, Album, Reissue
Аудиокодек: FLAC (*.flac)
Тип рипа: image+.cue
Битрейт аудио: lossless
Продолжительность: 00:38:34
Источник (релизер): ed2k (rat)
Треклист:
01. Stay Young (3:27)
02. Horizons (5:13)
03. Big Go Go (3:12)
04. Underneath The Colours (3:58)
05. Fair Weather Ahead (4:20)
06. Night Of Rebellion (3:46)
07. Follow (3:52)
08. Barbarian (2:59)
09. What Would You Do (3:08)
10. Just To Learn Again (4:43)
Код:
EAC extraction logfile from 8. July 2007, 21:14 for CD
INXS / Underneath the Colours
Used drive  : SAMSUNG CD-R/RW SW-248F   Adapter: 0  ID: 0
Read mode   : Secure with NO C2, accurate stream, disable cache
Read offset correction : 97
Overread into Lead-In and Lead-Out : No
Used output format : Internal WAV Routines
                     44.100 Hz; 16 Bit; Stereo
Other options      :
    Fill up missing offset samples with silence : Yes
    Delete leading and trailing silent blocks : No
    Installed external ASPI interface
Range status and errors
Selected range
     Filename E:\INXS - Underneath the Colours.by.rat.eac.ape.covers\INXS - Underneath the Colours.by.rat.eac.ape.covers.wav
     Peak level 100.0 %
     Range quality 100.0 %
     CRC 6FB42D88
     Copy OK
No errors occured
End of status report
Код:
REM GENRE Rock
REM DATE 1991
REM DISCID 6C090A0A
REM COMMENT "ExactAudioCopy v0.95b4"
PERFORMER "INXS"
TITLE "Underneath the Colours"
FILE "INXS - Underneath the Colours.wav" WAVE
  TRACK 01 AUDIO
    TITLE "Stay Young"
    PERFORMER "INXS"
    INDEX 00 00:00:00
    INDEX 01 00:00:32
  TRACK 02 AUDIO
    TITLE "Horizons"
    PERFORMER "INXS"
    INDEX 01 03:25:02
  TRACK 03 AUDIO
    TITLE "Big go go"
    PERFORMER "INXS"
    INDEX 01 08:37:35
  TRACK 04 AUDIO
    TITLE "Underneath the colours"
    PERFORMER "INXS"
    INDEX 01 11:49:27
  TRACK 05 AUDIO
    TITLE "Fair weather ahead"
    PERFORMER "INXS"
    INDEX 01 15:48:45
  TRACK 06 AUDIO
    TITLE "Night of rebellion"
    PERFORMER "INXS"
    INDEX 01 20:03:22
  TRACK 07 AUDIO
    TITLE "Follow"
    PERFORMER "INXS"
    INDEX 01 23:47:27
  TRACK 08 AUDIO
    TITLE "Barbarian"
    PERFORMER "INXS"
    INDEX 01 27:40:25
  TRACK 09 AUDIO
    TITLE "What would you do"
    PERFORMER "INXS"
    INDEX 01 30:40:00
  TRACK 10 AUDIO
    TITLE "Just to learn again"
    PERFORMER "INXS"
    INDEX 01 33:48:22

Michael Hutchence: Lead vocals
Kirk Pengilly: Guitars, Sax and Vocals
Garry Gary: Basses
Jon Farris: Drum, Percussion
Andrew Farriss: Keyboards
Tim Farriss: Guitars
#777Страна-производитель диска: EU
Год первого выпуска: 1982
Год настоящего издания: 1983
Издатель (лейбл): Mercury Records
Номер по каталогу: 812 084-2
Format: CD, Album
Аудиокодек: FLAC (*.flac)
Тип рипа: tracks+.cue
Битрейт аудио: lossless
Продолжительность: 00:35:21
Источник (релизер): losslessclub
Треклист:
01. The One Thing (03:24)
02. To Look At You (03:55)
03. Spy Of Love (03:58)
04. Soul Mistake (02:57)
05. Here Comes (03:00)
06. Black And White (03:40)
07. Golden Playpen (03:03)
08. Jan's Song (03:18)
09. Old World New World (03:38)
10. Don't Change (04:24)
Код:
Exact Audio Copy V1.3 from 2. September 2016
EAC extraction logfile from 27. February 2019, 19:46
INXS / Shabooh Shoobah
Used drive  : ASUS    DRW-24B1ST   i   Adapter: 1  ID: 0
Read mode               : Secure
Utilize accurate stream : Yes
Defeat audio cache      : Yes
Make use of C2 pointers : No
Read offset correction                      : 6
Overread into Lead-In and Lead-Out          : No
Fill up missing offset samples with silence : Yes
Delete leading and trailing silent blocks   : No
Null samples used in CRC calculations       : Yes
Used interface                              : Native Win32 interface for Win NT & 2000
Gap handling                                : Appended to previous track
Used output format              : User Defined Encoder
Selected bitrate                : 128 kBit/s
Quality                         : High
Add ID3 tag                     : No
Command line compressor         : C:\Program Files (x86)\Exact Audio Copy\Flac\flac.exe
Additional command line options : -8 -e -p -V -T "ARTIST=%artist%" -T "TITLE=%title%" -T "ALBUM=%albumtitle%" -T "DATE=%year%" -T "TRACKNUMBER=%tracknr%" -T "GENRE=%genre%" -T "PERFORMER=%albuminterpret%" -T "COMPOSER=%composer%" %haslyrics%--tag-from-file=LYRICS="%lyricsfile%"%haslyrics% -T "ALBUMARTIST=%albumartist%" -T "DISCNUMBER=%cdnumber%" -T "TOTALDISCS=%totalcds%" -T "TOTALTRACKS=%numtracks%" -T "COMMENT=%comment%" %source% -o %dest%
TOC of the extracted CD
     Track |   Start  |  Length  | Start sector | End sector
    ---------------------------------------------------------
        1  |  0:00.32 |  3:24.58 |        32    |    15389
        2  |  3:25.15 |  3:55.37 |     15390    |    33051
        3  |  7:20.52 |  3:58.45 |     33052    |    50946
        4  | 11:19.22 |  2:57.13 |     50947    |    64234
        5  | 14:16.35 |  3:00.37 |     64235    |    77771
        6  | 17:16.72 |  3:40.00 |     77772    |    94271
        7  | 20:56.72 |  3:03.10 |     94272    |   108006
        8  | 24:00.07 |  3:18.53 |    108007    |   122909
        9  | 27:18.60 |  3:38.40 |    122910    |   139299
       10  | 30:57.25 |  4:24.57 |    139300    |   159156
Track  1
     Filename R:\incoming\INXS - Shabooh Shoobah (1982) [FLAC]\01 - The One Thing.wav
     Pre-gap length  0:00:02.32
     Peak level 88.1 %
     Extraction speed 5.6 X
     Track quality 100.0 %
     Test CRC EB7A6C31
     Copy CRC EB7A6C31
     Accurately ripped (confidence 13)  [739D173A]  (AR v2)
     Copy OK
Track  2
     Filename R:\incoming\INXS - Shabooh Shoobah (1982) [FLAC]\02 - To Look At You.wav
     Pre-gap length  0:00:01.20
     Peak level 91.8 %
     Extraction speed 6.2 X
     Track quality 100.0 %
     Test CRC 1EA205BA
     Copy CRC 1EA205BA
     Accurately ripped (confidence 13)  [B1564ADC]  (AR v2)
     Copy OK
Track  3
     Filename R:\incoming\INXS - Shabooh Shoobah (1982) [FLAC]\03 - Spy Of Love.wav
     Pre-gap length  0:00:00.52
     Peak level 84.0 %
     Extraction speed 6.7 X
     Track quality 100.0 %
     Test CRC E0316A51
     Copy CRC E0316A51
     Accurately ripped (confidence 13)  [A540A3E1]  (AR v2)
     Copy OK
Track  4
     Filename R:\incoming\INXS - Shabooh Shoobah (1982) [FLAC]\04 - Soul Mistake.wav
     Pre-gap length  0:00:00.69
     Peak level 93.3 %
     Extraction speed 6.8 X
     Track quality 100.0 %
     Test CRC 63D7AE44
     Copy CRC 63D7AE44
     Accurately ripped (confidence 13)  [DBD2D14B]  (AR v2)
     Copy OK
Track  5
     Filename R:\incoming\INXS - Shabooh Shoobah (1982) [FLAC]\05 - Here Comes.wav
     Pre-gap length  0:00:00.02
     Peak level 87.7 %
     Extraction speed 7.1 X
     Track quality 100.0 %
     Test CRC 8C14252A
     Copy CRC 8C14252A
     Accurately ripped (confidence 13)  [D11FFBC9]  (AR v2)
     Copy OK
Track  6
     Filename R:\incoming\INXS - Shabooh Shoobah (1982) [FLAC]\06 - Black And White.wav
     Pre-gap length  0:00:00.27
     Peak level 89.1 %
     Extraction speed 7.7 X
     Track quality 100.0 %
     Test CRC 70DBA2F7
     Copy CRC 70DBA2F7
     Accurately ripped (confidence 13)  [CB889B48]  (AR v2)
     Copy OK
Track  7
     Filename R:\incoming\INXS - Shabooh Shoobah (1982) [FLAC]\07 - Golden Playpen.wav
     Pre-gap length  0:00:00.02
     Peak level 83.5 %
     Extraction speed 8.0 X
     Track quality 100.0 %
     Test CRC 58C14951
     Copy CRC 58C14951
     Accurately ripped (confidence 13)  [738C6D82]  (AR v2)
     Copy OK
Track  8
     Filename R:\incoming\INXS - Shabooh Shoobah (1982) [FLAC]\08 - Jan's Song.wav
     Pre-gap length  0:00:00.04
     Peak level 85.2 %
     Extraction speed 8.4 X
     Track quality 100.0 %
     Test CRC 91221119
     Copy CRC 91221119
     Accurately ripped (confidence 13)  [92752B8D]  (AR v2)
     Copy OK
Track  9
     Filename R:\incoming\INXS - Shabooh Shoobah (1982) [FLAC]\09 - Old World New World.wav
     Pre-gap length  0:00:00.02
     Peak level 80.2 %
     Extraction speed 8.8 X
     Track quality 100.0 %
     Test CRC 9928D8E3
     Copy CRC 9928D8E3
     Accurately ripped (confidence 13)  [08172770]  (AR v2)
     Copy OK
Track 10
     Filename R:\incoming\INXS - Shabooh Shoobah (1982) [FLAC]\10 - Don't Change.wav
     Pre-gap length  0:00:00.35
     Peak level 85.2 %
     Extraction speed 9.3 X
     Track quality 100.0 %
     Test CRC 3960AD56
     Copy CRC 3960AD56
     Accurately ripped (confidence 13)  [AF1BBE9D]  (AR v2)
     Copy OK
All tracks accurately ripped
No errors occurred
End of status report
---- CUETools DB Plugin V2.1.6
[CTDB TOCID: hBggdXviq3JobrIVkyek3SiJ.fc-] found
Submit result: hBggdXviq3JobrIVkyek3SiJ.fc- has been confirmed
Track | CTDB Status
  1   | (21/22) Accurately ripped
  2   | (21/22) Accurately ripped
  3   | (22/22) Accurately ripped
  4   | (22/22) Accurately ripped
  5   | (22/22) Accurately ripped
  6   | (22/22) Accurately ripped
  7   | (22/22) Accurately ripped
  8   | (22/22) Accurately ripped
  9   | (21/22) Accurately ripped, or (1/22) differs in 24 samples @03:19:10,03:19:43
 10   | (21/22) Accurately ripped, or (1/22) differs in 2965 samples @01:40:00,01:40:51,01:41:43,01:45:26-01:45:27,01:51:46,01:52:55,01:52:72,01:53:64,01:55:15-01:55:16,01:55:32,01:55:65-01:55:66,01:56:25,01:56:41-01:56:42,01:56:58,01:57:00,01:57:17,01:57:50,01:58:58,01:59:68-01:59:69,02:00:60,02:01:02,02:01:18-02:01:19,02:01:52,02:03:04,02:03:21,02:03:37-02:03:38,02:03:54,02:03:70-02:03:71,02:04:13,02:04:47,02:04:63-02:04:64,02:05:05,02:05:22,02:05:39,02:05:55-02:05:56,02:05:72-02:05:73,02:06:14,02:06:30-02:06:31,02:07:56-02:07:57,02:07:73-02:07:74,02:09:08,02:09:59,02:10:00-02:10:01,02:10:16-02:10:17,02:10:33-02:10:34,02:10:68,02:11:26-02:11:27,02:11:42-02:11:43,02:11:60,02:12:19,02:12:36,02:12:53,02:12:69-02:12:70,02:13:11,02:13:28,02:13:45,02:13:62,02:14:03-02:14:04,02:14:20-02:14:21,02:14:53-02:14:54,02:14:70-02:14:71,02:15:13,02:15:30,02:15:46-02:15:47,02:15:63-02:15:64,02:16:05,02:16:22,02:16:56,02:16:73,02:17:31,02:17:48,02:18:07
==== Log checksum B3B730C3BD0CB304467114547EAABB2E28C859EB2DD44CF54472E5A607C4D82B ====
Код:
REM DATE 1982
REM DISCID 82084A0A
REM COMMENT "ExactAudioCopy v1.3"
PERFORMER "INXS"
TITLE "Shabooh Shoobah"
REM COMPOSER ""
FILE "01 - The One Thing.wav" WAVE
  TRACK 01 AUDIO
    TITLE "The One Thing"
    PERFORMER "INXS"
    REM COMPOSER ""
    PREGAP 00:00:32
    INDEX 01 00:00:00
  TRACK 02 AUDIO
    TITLE "To Look At You"
    PERFORMER "INXS"
    REM COMPOSER ""
    INDEX 00 03:23:38
FILE "02 - To Look At You.wav" WAVE
    INDEX 01 00:00:00
  TRACK 03 AUDIO
    TITLE "Spy Of Love"
    PERFORMER "INXS"
    REM COMPOSER ""
    INDEX 00 03:54:60
FILE "03 - Spy Of Love.wav" WAVE
    INDEX 01 00:00:00
  TRACK 04 AUDIO
    TITLE "Soul Mistake"
    PERFORMER "INXS"
    REM COMPOSER ""
    INDEX 00 03:57:51
FILE "04 - Soul Mistake.wav" WAVE
    INDEX 01 00:00:00
  TRACK 05 AUDIO
    TITLE "Here Comes"
    PERFORMER "INXS"
    REM COMPOSER ""
    INDEX 00 02:57:11
FILE "05 - Here Comes.wav" WAVE
    INDEX 01 00:00:00
  TRACK 06 AUDIO
    TITLE "Black And White"
    PERFORMER "INXS"
    REM COMPOSER ""
    INDEX 00 03:00:10
FILE "06 - Black And White.wav" WAVE
    INDEX 01 00:00:00
  TRACK 07 AUDIO
    TITLE "Golden Playpen"
    PERFORMER "INXS"
    REM COMPOSER ""
    INDEX 00 03:39:73
FILE "07 - Golden Playpen.wav" WAVE
    INDEX 01 00:00:00
  TRACK 08 AUDIO
    TITLE "Jan's Song"
    PERFORMER "INXS"
    REM COMPOSER ""
    INDEX 00 03:03:06
FILE "08 - Jan's Song.wav" WAVE
    INDEX 01 00:00:00
  TRACK 09 AUDIO
    TITLE "Old World New World"
    PERFORMER "INXS"
    REM COMPOSER ""
    INDEX 00 03:18:51
FILE "09 - Old World New World.wav" WAVE
    INDEX 01 00:00:00
  TRACK 10 AUDIO
    TITLE "Don't Change"
    PERFORMER "INXS"
    REM COMPOSER ""
    INDEX 00 03:38:05
FILE "10 - Don't Change.wav" WAVE
    INDEX 01 00:00:00
Код:
AUDIOCHECKER v2.0 beta (build 457) - by Dester - opdester@freemail.hu
~~~~~~~~~~~~~~~~~~~~~~~~~~~~~~~~~~
-=== DO NOT EDIT THIS FILE! ===-
Path: ...\1982. INXS - Shabooh Shoobah-
01 -=- 01 - The One Thing.flac -=- CDDA (100%)
02 -=- 02 - To Look At You.flac -=- MPEG (95%)
03 -=- 03 - Spy Of Love.flac -=- CDDA (100%)
04 -=- 04 - Soul Mistake.flac -=- CDDA (100%)
05 -=- 05 - Here Comes.flac -=- CDDA (100%)
06 -=- 06 - Black And White.flac -=- CDDA (100%)
07 -=- 07 - Golden Playpen.flac -=- CDDA (100%)
08 -=- 08 - Jan's Song.flac -=- CDDA (100%)
09 -=- 09 - Old World New World.flac -=- CDDA (99%)
10 -=- 10 - Don't Change.flac -=- CDDA (100%)
Summary 90,40% CDDA
211093012
#777Страна-производитель диска: US (Printed in W. Germany)
Год первого выпуска: 1982
Год настоящего издания: 2004
Издатель (лейбл): ATCO Records
Номер по каталогу: 7 90072-2 /90072-2
Format: CD, Album
Аудиокодек: FLAC (*.flac)
Тип рипа: tracks+.cue
Битрейт аудио: lossless
Продолжительность: 00:35:21
Источник (релизер): losslessclub
Треклист:
01. The One Thing (03:24)
02. To Look At You (03:55)
03. Spy Of Love (03:58)
04. Soul Mistake (02:57)
05. Here Comes (03:00)
06. Black And White (03:40)
07. Golden Playpen (03:03)
08. Jan's Song (03:18)
09. Old World New World (03:38)
10. Don't Change (04:24)
Код:
Exact Audio Copy V0.99 prebeta 4 from 23. January 2008
EAC extraction logfile from 6. October 2009, 13:03
INXS / Shabooh Shoobah
Used drive  : PLEXTOR DVDR   PX-716A   Adapter: 2  ID: 0
Read mode               : Secure
Utilize accurate stream : Yes
Defeat audio cache      : Yes
Make use of C2 pointers : No
Read offset correction                      : 30
Overread into Lead-In and Lead-Out          : No
Fill up missing offset samples with silence : Yes
Delete leading and trailing silent blocks   : No
Null samples used in CRC calculations       : Yes
Used interface                              : Native Win32 interface for Win NT & 2000
Gap handling                                : Appended to previous track
Used output format              : User Defined Encoder
Selected bitrate                : 1024 kBit/s
Quality                         : High
Add ID3 tag                     : Yes
Command line compressor         : C:\Program Files\Exact Audio Copy\FLAC\FLAC.EXE
Additional command line options : -6 -V -T "ARTIST=%a" -T "TITLE=%t" -T "ALBUM=%g" -T "DATE=%y" -T "TRACKNUMBER=%n" -T "GENRE=%m" -T "COMMENT=%e" %s -o %d
TOC of the extracted CD
     Track |   Start  |  Length  | Start sector | End sector
    ---------------------------------------------------------
        1  |  0:00.00 |  3:24.57 |         0    |    15356
        2  |  3:24.57 |  3:55.35 |     15357    |    33016
        3  |  7:20.17 |  3:58.45 |     33017    |    50911
        4  | 11:18.62 |  2:57.15 |     50912    |    64201
        5  | 14:16.02 |  3:00.38 |     64202    |    77739
        6  | 17:16.40 |  3:40.00 |     77740    |    94239
        7  | 20:56.40 |  3:03.10 |     94240    |   107974
        8  | 23:59.50 |  3:19.57 |    107975    |   122956
        9  | 27:19.32 |  3:37.33 |    122957    |   139264
       10  | 30:56.65 |  4:24.60 |    139265    |   159124
Track  1
     Filename C:\Users\Administrator\My Documents\EAC Rips\01. INXS - The One Thing.wav
     Pre-gap length  0:00:02.00
     Peak level 86.1 %
     Track quality 100.0 %
     Test CRC 63D78EC1
     Copy CRC 63D78EC1
     Accurately ripped (confidence 2)  [032E7DC1]
     Copy OK
Track  2
     Filename C:\Users\Administrator\My Documents\EAC Rips\02. INXS - To Look At You.wav
     Pre-gap length  0:00:01.20
     Peak level 89.7 %
     Track quality 100.0 %
     Test CRC A462EC45
     Copy CRC A462EC45
     Accurately ripped (confidence 2)  [835FD598]
     Copy OK
Track  3
     Filename C:\Users\Administrator\My Documents\EAC Rips\03. INXS - Spy of Love.wav
     Pre-gap length  0:00:00.50
     Peak level 82.1 %
     Track quality 100.0 %
     Test CRC 32F42202
     Copy CRC 32F42202
     Accurately ripped (confidence 2)  [40B6B8DC]
     Copy OK
Track  4
     Filename C:\Users\Administrator\My Documents\EAC Rips\04. INXS - Soul Mistake.wav
     Pre-gap length  0:00:00.67
     Peak level 91.2 %
     Track quality 100.0 %
     Test CRC 8C09B0AD
     Copy CRC 8C09B0AD
     Accurately ripped (confidence 2)  [EDEE3ED9]
     Copy OK
Track  5
     Filename C:\Users\Administrator\My Documents\EAC Rips\05. INXS - Here Comes.wav
     Peak level 85.7 %
     Track quality 100.0 %
     Test CRC A47032B3
     Copy CRC A47032B3
     Accurately ripped (confidence 2)  [887F532D]
     Copy OK
Track  6
     Filename C:\Users\Administrator\My Documents\EAC Rips\06. INXS - Black and White.wav
     Pre-gap length  0:00:00.28
     Peak level 91.1 %
     Track quality 100.0 %
     Test CRC 38635AAA
     Copy CRC 38635AAA
     Accurately ripped (confidence 2)  [276049B2]
     Copy OK
Track  7
     Filename C:\Users\Administrator\My Documents\EAC Rips\07. INXS - Golden Playpen.wav
     Peak level 85.5 %
     Track quality 100.0 %
     Test CRC BF9E7230
     Copy CRC BF9E7230
     Accurately ripped (confidence 2)  [19303970]
     Copy OK
Track  8
     Filename C:\Users\Administrator\My Documents\EAC Rips\08. INXS - Jan's Song.wav
     Pre-gap length  0:00:00.08
     Peak level 87.2 %
     Track quality 100.0 %
     Test CRC B8FA1180
     Copy CRC B8FA1180
     Accurately ripped (confidence 2)  [40DC0010]
     Copy OK
Track  9
     Filename C:\Users\Administrator\My Documents\EAC Rips\09. INXS - Old World New World.wav
     Pre-gap length  0:00:01.07
     Peak level 82.0 %
     Track quality 100.0 %
     Test CRC DF23E459
     Copy CRC DF23E459
     Accurately ripped (confidence 2)  [ADE343B6]
     Copy OK
Track 10
     Filename C:\Users\Administrator\My Documents\EAC Rips\10. INXS - Don't Change.wav
     Pre-gap length  0:00:00.33
     Peak level 87.2 %
     Track quality 100.0 %
     Test CRC 54B61831
     Copy CRC 54B61831
     Accurately ripped (confidence 2)  [205F862C]
     Copy OK
All tracks accurately ripped
No errors occurred
End of status report
Код:
REM GENRE Rock
REM DATE 1982
REM DISCID 7F08490A
REM COMMENT "ExactAudioCopy v0.99pb4"
PERFORMER "INXS"
TITLE "Shabooh Shoobah"
FILE "01. INXS - The One Thing.wav" WAVE
  TRACK 01 AUDIO
    TITLE "The One Thing"
    PERFORMER "INXS"
    INDEX 01 00:00:00
  TRACK 02 AUDIO
    TITLE "To Look At You"
    PERFORMER "INXS"
    INDEX 00 03:23:37
FILE "02. INXS - To Look At You.wav" WAVE
    INDEX 01 00:00:00
  TRACK 03 AUDIO
    TITLE "Spy of Love"
    PERFORMER "INXS"
    INDEX 00 03:54:60
FILE "03. INXS - Spy of Love.wav" WAVE
    INDEX 01 00:00:00
  TRACK 04 AUDIO
    TITLE "Soul Mistake"
    PERFORMER "INXS"
    INDEX 00 03:57:53
FILE "04. INXS - Soul Mistake.wav" WAVE
    INDEX 01 00:00:00
FILE "05. INXS - Here Comes.wav" WAVE
  TRACK 05 AUDIO
    TITLE "Here Comes"
    PERFORMER "INXS"
    INDEX 01 00:00:00
  TRACK 06 AUDIO
    TITLE "Black and White"
    PERFORMER "INXS"
    INDEX 00 03:00:10
FILE "06. INXS - Black and White.wav" WAVE
    INDEX 01 00:00:00
FILE "07. INXS - Golden Playpen.wav" WAVE
  TRACK 07 AUDIO
    TITLE "Golden Playpen"
    PERFORMER "INXS"
    INDEX 01 00:00:00
  TRACK 08 AUDIO
    TITLE "Jan's Song"
    PERFORMER "INXS"
    INDEX 00 03:03:02
FILE "08. INXS - Jan's Song.wav" WAVE
    INDEX 01 00:00:00
  TRACK 09 AUDIO
    TITLE "Old World New World"
    PERFORMER "INXS"
    INDEX 00 03:18:50
FILE "09. INXS - Old World New World.wav" WAVE
    INDEX 01 00:00:00
  TRACK 10 AUDIO
    TITLE "Don't Change"
    PERFORMER "INXS"
    INDEX 00 03:37:00
FILE "10. INXS - Don't Change.wav" WAVE
    INDEX 01 00:00:00
Код:
AUDIOCHECKER v2.0 beta (build 457) - by Dester - opdester@freemail.hu
~~~~~~~~~~~~~~~~~~~~~~~~~~~~~~~~~~
-=== DO NOT EDIT THIS FILE! ===-
Path: ...\1982. Shabooh Shoobah {}
01 -=- 01. INXS - The One Thing.flac -=- MPEG (95%)
02 -=- 02. INXS - To Look At You.flac -=- CDDA (100%)
03 -=- 03. INXS - Spy of Love.flac -=- MPEG (95%)
04 -=- 04. INXS - Soul Mistake.flac -=- CDDA (100%)
05 -=- 05. INXS - Here Comes.flac -=- MPEG (95%)
06 -=- 06. INXS - Black and White.flac -=- CDDA (100%)
07 -=- 07. INXS - Golden Playpen.flac -=- CDDA (100%)
08 -=- 08. INXS - Jan's Song.flac -=- CDDA (100%)
09 -=- 09. INXS - Old World New World.flac -=- CDDA (100%)
10 -=- 10. INXS - Don't Change.flac -=- MPEG (79%)
Summary 63,60% CDDA
67972596
#777Страна-производитель диска: US (Printed in U.S.A.)
Год первого выпуска: 1982
Год настоящего издания: 2004
Издатель (лейбл): ATCO Records
Номер по каталогу: 7 90072-2 /90072-2
Format: CD, Album
Аудиокодек: FLAC (*.flac)
Тип рипа: image+.cue
Битрейт аудио: lossless
Продолжительность: 00:35:22
Источник (релизер): ed2k (rat)
Треклист:
01. The One Thing (03:32)
02. To Look At You (03:54)
03. Spy Of Love (03:55)
04. Soul Mistake (02:56)
05. Here Comes (02:59)
06. Black And White (03:39)
07. Golden Playpen (03:02)
08. Jan's Song (03:19)
09. Old World New World (03:37)
10. Don't Change (04:24)
Код:
EAC extraction logfile from 10. June 2007, 20:54 for CD
INXS / Shabooh Shoobah
Used drive  : TSSTcorpCD/DVDW SH-W162L   Adapter: 0  ID: 1
Read mode   : Secure with NO C2, accurate stream, disable cache
Read offset correction : 12
Overread into Lead-In and Lead-Out : No
Used output format : Internal WAV Routines
                     44.100 Hz; 16 Bit; Stereo
Other options      :
    Fill up missing offset samples with silence : Yes
    Delete leading and trailing silent blocks : No
    Installed external ASPI interface
Range status and errors
Selected range
     Filename E:\INXS - Shabooh Shoobah.by.rat.eac-ape-covers\INXS - Shabooh Shoobah.by.rat.eac-ape-covers.wav
     Peak level 93.3 %
     Range quality 99.9 %
     CRC AF0E7B30
     Copy OK
No errors occured
End of status report
Код:
REM GENRE Rock
REM DATE 1982
REM DISCID 82084A0A
REM COMMENT "ExactAudioCopy v0.95b4"
PERFORMER "INXS"
TITLE "Shabooh Shoobah"
FILE "INXS - Shabooh Shoobah.wav" WAVE
  TRACK 01 AUDIO
    TITLE "The One Thing"
    PERFORMER "INXS"
    INDEX 00 00:00:00
    INDEX 01 00:00:33
  TRACK 02 AUDIO
    TITLE "To Look At You"
    PERFORMER "INXS"
    INDEX 00 03:23:70
    INDEX 01 03:25:15
  TRACK 03 AUDIO
    TITLE "Spy of Love"
    PERFORMER "INXS"
    INDEX 00 07:20:00
    INDEX 01 07:20:53
  TRACK 04 AUDIO
    TITLE "Soul Mistake"
    PERFORMER "INXS"
    INDEX 00 11:18:28
    INDEX 01 11:19:23
  TRACK 05 AUDIO
    TITLE "Here Comes"
    PERFORMER "INXS"
    INDEX 00 14:16:33
    INDEX 01 14:16:35
  TRACK 06 AUDIO
    TITLE "Black and White"
    PERFORMER "INXS"
    INDEX 00 17:16:45
    INDEX 01 17:16:73
  TRACK 07 AUDIO
    TITLE "Golden Playpen"
    PERFORMER "INXS"
    INDEX 00 20:56:70
    INDEX 01 20:56:73
  TRACK 08 AUDIO
    TITLE "Jan's Song"
    PERFORMER "INXS"
    INDEX 00 24:00:03
    INDEX 01 24:00:08
  TRACK 09 AUDIO
    TITLE "Old World New World"
    PERFORMER "INXS"
    INDEX 00 27:18:58
    INDEX 01 27:18:60
  TRACK 10 AUDIO
    TITLE "Don't Change"
    PERFORMER "INXS"
    INDEX 00 30:56:65
    INDEX 01 30:57:25

Bass – Garry Gary Beers
Drums, Keyboards – Jon Farriss
Guitar – Tim Farriss
Guitar, Saxophone, Vocals – Kirk Pengilly
Keyboards, Guitar – Andrew Farriss
Vocals – Michael Hutchence
#777Страна-производитель диска: Canada
Год первого выпуска: 1984
Год настоящего издания: 1984
Издатель (лейбл): ATCO Records
Номер по каталогу: CD 90160
Format: CD, Album
Аудиокодек: FLAC (*.flac)
Тип рипа: tracks+.cue
Битрейт аудио: lossless
Продолжительность: 00:42:54
Источник (релизер): losslessclub
Треклист:
1. Original Sin (5:18)
2. Melting In The Sun (3:24)
3. I Send A Message (3:22)
4. Dancing On The Jetty (4:33)
5. The Swing (3:51)
6. Johnson's Aeroplane (3:53)
7. Love Is (What I Say) (3:41)
8. Face The Change (3:33)
9. Burn For You (4:57)
10. All The Voices (6:09)
Код:
Exact Audio Copy V0.99 prebeta 3 from 28. July 2007
EAC extraction logfile from 28. January 2008, 12:17
Inxs / The Swing
Used drive  : PLEXTOR DVDR   PX-716A   Adapter: 2  ID: 0
Read mode               : Secure
Utilize accurate stream : Yes
Defeat audio cache      : Yes
Make use of C2 pointers : No
Read offset correction                      : 30
Overread into Lead-In and Lead-Out          : No
Fill up missing offset samples with silence : Yes
Delete leading and trailing silent blocks   : No
Null samples used in CRC calculations       : Yes
Used interface                              : Native Win32 interface for Win NT & 2000
Gap handling                                : Appended to previous track
Used output format              : User Defined Encoder
Selected bitrate                : 1024 kBit/s
Quality                         : High
Add ID3 tag                     : No
Command line compressor         : C:\Program Files\Exact Audio Copy\Flac\flac.exe
Additional command line options : -6 -V -T "ARTIST=%a" -T "TITLE=%t" -T "ALBUM=%g" -T "DATE=%y" -T "TRACKNUMBER=%n" -T "GENRE=%m" -T "COMMENT=%e" %s -o %d
TOC of the extracted CD
     Track |   Start  |  Length  | Start sector | End sector
    ---------------------------------------------------------
        1  |  0:00.00 |  5:19.40 |         0    |    23964
        2  |  5:19.40 |  3:25.05 |     23965    |    39344
        3  |  8:44.45 |  3:24.30 |     39345    |    54674
        4  | 12:09.00 |  4:34.30 |     54675    |    75254
        5  | 16:43.30 |  3:52.32 |     75255    |    92686
        6  | 20:35.62 |  3:55.18 |     92687    |   110329
        7  | 24:31.05 |  3:42.42 |    110330    |   127021
        8  | 28:13.47 |  3:34.58 |    127022    |   143129
        9  | 31:48.30 |  4:59.02 |    143130    |   165556
       10  | 36:47.32 |  6:07.03 |    165557    |   193084
Track  1
     Filename C:\Documents and Settings\Michael H\My Documents\EAC rips\Inxs - The Swing - 01. Original Sin.wav
     Pre-gap length  0:00:02.00
     Peak level 79.8 %
     Track quality 100.0 %
     Test CRC A934895A
     Copy CRC A934895A
     Cannot be verified as accurate (confidence 3)  [A5104F58], AccurateRip returned [B249264F]
     Copy OK
Track  2
     Filename C:\Documents and Settings\Michael H\My Documents\EAC rips\Inxs - The Swing - 02. Melting In The Sun.wav
     Peak level 85.1 %
     Track quality 100.0 %
     Test CRC E20F80F5
     Copy CRC E20F80F5
     Cannot be verified as accurate (confidence 3)  [60D52963], AccurateRip returned [31A806A8]
     Copy OK
Track  3
     Filename C:\Documents and Settings\Michael H\My Documents\EAC rips\Inxs - The Swing - 03. I Send A Message.wav
     Pre-gap length  0:00:00.60
     Peak level 86.7 %
     Track quality 100.0 %
     Test CRC 433832E7
     Copy CRC 433832E7
     Cannot be verified as accurate (confidence 3)  [13F9D293], AccurateRip returned [F7BEBEDD]
     Copy OK
Track  4
     Filename C:\Documents and Settings\Michael H\My Documents\EAC rips\Inxs - The Swing - 04. Dancing On The Jetty.wav
     Pre-gap length  0:00:00.33
     Peak level 86.3 %
     Track quality 100.0 %
     Test CRC BAF11CB4
     Copy CRC BAF11CB4
     Cannot be verified as accurate (confidence 3)  [ED09ECFA], AccurateRip returned [16D7E67E]
     Copy OK
Track  5
     Filename C:\Documents and Settings\Michael H\My Documents\EAC rips\Inxs - The Swing - 05. The Swing.wav
     Pre-gap length  0:00:00.48
     Peak level 86.3 %
     Track quality 99.9 %
     Test CRC 595A49C2
     Copy CRC 595A49C2
     Cannot be verified as accurate (confidence 3)  [0EC0545F], AccurateRip returned [FCF19CD4]
     Copy OK
Track  6
     Filename C:\Documents and Settings\Michael H\My Documents\EAC rips\Inxs - The Swing - 06. Johnson's Aeroplane.wav
     Pre-gap length  0:00:00.47
     Peak level 78.8 %
     Track quality 100.0 %
     Test CRC 2033AAB6
     Copy CRC 2033AAB6
     Cannot be verified as accurate (confidence 3)  [CA19BE88], AccurateRip returned [B3EE7291]
     Copy OK
Track  7
     Filename C:\Documents and Settings\Michael H\My Documents\EAC rips\Inxs - The Swing - 07. Love Is (What I Say).wav
     Pre-gap length  0:00:00.45
     Peak level 85.4 %
     Track quality 100.0 %
     Test CRC 166309CE
     Copy CRC 166309CE
     Cannot be verified as accurate (confidence 3)  [E0EDA5A1], AccurateRip returned [39C650BD]
     Copy OK
Track  8
     Filename C:\Documents and Settings\Michael H\My Documents\EAC rips\Inxs - The Swing - 08. Face The Change.wav
     Pre-gap length  0:00:00.57
     Peak level 90.4 %
     Track quality 100.0 %
     Test CRC C3F7270C
     Copy CRC C3F7270C
     Cannot be verified as accurate (confidence 3)  [32C5DF41], AccurateRip returned [B519C778]
     Copy OK
Track  9
     Filename C:\Documents and Settings\Michael H\My Documents\EAC rips\Inxs - The Swing - 09. Burn For You.wav
     Peak level 87.0 %
     Track quality 100.0 %
     Test CRC BEFFC745
     Copy CRC BEFFC745
     Cannot be verified as accurate (confidence 3)  [670E78F2], AccurateRip returned [055B9C99]
     Copy OK
Track 10
     Filename C:\Documents and Settings\Michael H\My Documents\EAC rips\Inxs - The Swing - 10. All The Voices.wav
     Peak level 87.3 %
     Track quality 100.0 %
     Test CRC 0E223BD8
     Copy CRC 0E223BD8
     Cannot be verified as accurate (confidence 2)  [4835CFAD], AccurateRip returned [93390CA0]
     Copy OK
No tracks could be verified as accurate
You may have a different pressing from the one(s) in the database
No errors occurred
End of status report
Код:
REM DISCID 6F0A0E0A
REM COMMENT "ExactAudioCopy v0.99pb4"
PERFORMER "Inxs"
TITLE "The Swing"
FILE "01. Original Sin.wav" WAVE
  TRACK 01 AUDIO
    TITLE "Original Sin"
    PERFORMER "Inxs"
    INDEX 01 00:00:00
FILE "02. Melting In The Sun.wav" WAVE
  TRACK 02 AUDIO
    TITLE "Melting In The Sun"
    PERFORMER "Inxs"
    INDEX 01 00:00:00
  TRACK 03 AUDIO
    TITLE "I Send A Message"
    PERFORMER "Inxs"
    INDEX 00 03:24:20
FILE "03. I Send A Message.wav" WAVE
    INDEX 01 00:00:00
  TRACK 04 AUDIO
    TITLE "Dancing On The Jetty"
    PERFORMER "Inxs"
    INDEX 00 03:23:72
FILE "04. Dancing On The Jetty.wav" WAVE
    INDEX 01 00:00:00
  TRACK 05 AUDIO
    TITLE "The Swing"
    PERFORMER "Inxs"
    INDEX 00 04:33:57
FILE "05. The Swing.wav" WAVE
    INDEX 01 00:00:00
  TRACK 06 AUDIO
    TITLE "Johnson's Aeroplane"
    PERFORMER "Inxs"
    INDEX 00 03:51:60
FILE "06. Johnson's Aeroplane.wav" WAVE
    INDEX 01 00:00:00
  TRACK 07 AUDIO
    TITLE "Love Is (What I Say)"
    PERFORMER "Inxs"
    INDEX 00 03:54:48
FILE "07. Love Is (What I Say).wav" WAVE
    INDEX 01 00:00:00
  TRACK 08 AUDIO
    TITLE "Face The Change"
    PERFORMER "Inxs"
    INDEX 00 03:41:60
FILE "08. Face The Change.wav" WAVE
    INDEX 01 00:00:00
FILE "09. Burn For You.wav" WAVE
  TRACK 09 AUDIO
    TITLE "Burn For You"
    PERFORMER "Inxs"
    INDEX 01 00:00:00
FILE "10. All The Voices.wav" WAVE
  TRACK 10 AUDIO
    TITLE "All The Voices"
    PERFORMER "Inxs"
    INDEX 01 00:00:00
Код:
AUDIOCHECKER v2.0 beta (build 457) - by Dester - opdester@freemail.hu
~~~~~~~~~~~~~~~~~~~~~~~~~~~~~~~~~~
-=== DO NOT EDIT THIS FILE! ===-
Path: ...\1984. The Swing losslessclub
01 -=- 01. Original Sin.flac -=- CDDA (100%)
02 -=- 02. Melting In The Sun.flac -=- MPEG (95%)
03 -=- 03. I Send A Message.flac -=- CDDA (100%)
04 -=- 04. Dancing On The Jetty.flac -=- MPEG (95%)
05 -=- 05. The Swing.flac -=- CDDA (100%)
06 -=- 06. Johnson's Aeroplane.flac -=- CDDA (100%)
07 -=- 07. Love Is (What I Say).flac -=- CDDA (85%)
08 -=- 08. Face The Change.flac -=- CDDA (100%)
09 -=- 09. Burn For You.flac -=- CDDA (100%)
10 -=- 10. All The Voices.flac -=- CDDA (100%)
Summary 79,50% CDDA
129444932
#777Страна-производитель диска: EU
Год первого выпуска: 1984
Год настоящего издания: 1985
Издатель (лейбл): ATCO Records
Номер по каталогу: 7 90160-2
Format: CD, Album
Аудиокодек: FLAC (*.flac)
Тип рипа: image+.cue
Битрейт аудио: lossless
Продолжительность: 00:42:52
Источник (релизер): korleon
Треклист:
1. Original Sin (5:18)
2. Melting In The Sun (3:24)
3. I Send A Message (3:22)
4. Dancing On The Jetty (4:33)
5. The Swing (3:51)
6. Johnson's Aeroplane (3:53)
7. Love Is (What I Say) (3:41)
8. Face The Change (3:33)
9. Burn For You (4:57)
10. All The Voices (6:09)
Код:
EAC extraction logfile from 23. September 2007, 20:33 for CD
INXS / The Swing
Used drive  : PLEXTOR DVDR   PX-712A   Adapter: 1  ID: 0
Read mode   : Secure with NO C2, accurate stream, disable cache
Read offset correction : 30
Overread into Lead-In and Lead-Out : Yes
Used output format : Internal WAV Routines
                     44.100 Hz; 16 Bit; Stereo
Other options      :
    Fill up missing offset samples with silence : Yes
    Delete leading and trailing silent blocks : No
    Native Win32 interface for Win NT & 2000
Range status and errors
Selected range
     Filename D:\Audio\INXS\1984 - The Swing\INXS - The Swing.wav
     Peak level 93.9 %
     Range quality 100.0 %
     CRC 86DC30AB
     Copy OK
No errors occured
End of status report
Код:
REM GENRE Rock
REM DATE 1984
REM DISCID 680A0C0A
REM COMMENT "ExactAudioCopy v0.95b4"
PERFORMER "INXS"
TITLE "The Swing"
FILE "INXS - The Swing.wav" WAVE
  TRACK 01 AUDIO
    TITLE "Original Sin"
    PERFORMER "INXS"
    INDEX 00 00:00:00
    INDEX 01 00:00:33
  TRACK 02 AUDIO
    TITLE "Melting In The Sun"
    PERFORMER "INXS"
    INDEX 00 05:19:35
    INDEX 01 05:20:33
  TRACK 03 AUDIO
    TITLE "I Send A Message"
    PERFORMER "INXS"
    INDEX 00 08:45:43
    INDEX 01 08:45:70
  TRACK 04 AUDIO
    TITLE "Dancing On The Jetty"
    PERFORMER "INXS"
    INDEX 01 12:08:18
  TRACK 05 AUDIO
    TITLE "The Swing"
    PERFORMER "INXS"
    INDEX 01 16:41:18
  TRACK 06 AUDIO
    TITLE "Johnson's Aeroplane"
    PERFORMER "INXS"
    INDEX 00 20:32:60
    INDEX 01 20:33:10
  TRACK 07 AUDIO
    TITLE "Love Is (What I Say)"
    PERFORMER "INXS"
    INDEX 00 24:27:22
    INDEX 01 24:28:20
  TRACK 08 AUDIO
    TITLE "Face The Change"
    PERFORMER "INXS"
    INDEX 00 28:10:43
    INDEX 01 28:11:20
  TRACK 09 AUDIO
    TITLE "Burn For You"
    PERFORMER "INXS"
    INDEX 01 31:45:03
  TRACK 10 AUDIO
    TITLE "All The Voices"
    PERFORMER "INXS"
    INDEX 01 36:42:68

Bass – Garry Gary Beers
Drums, Percussion, Vocals – Jon Farriss
Engineer – Nick Launay (tracks: 2 to 10)
Guitar, Bass – Tim Farriss
Guitar, Saxophone, Vocals – Kirk Pengilly
Keyboards, Guitar – Andrew Farriss
Vocals – Michael Hutchence
#777Страна-производитель диска: US
Год первого выпуска: 1985
Год настоящего издания: 1985
Издатель (лейбл): Atlantic
Номер по каталогу: A2-81277
Format: CD, Album, Club Edition
Аудиокодек: FLAC (*.flac)
Тип рипа: image+.cue
Битрейт аудио: lossless
Продолжительность: 00:37:16
Источник (релизер): korleon
Треклист:
01. What You Need (3:33)
02. Listen Like Thieves (3:58)
03. Kiss The Dirt (Falling Down The Mountain) (3:52)
04. Shine Like It Does (3:05)
05. Good + Bad Times (2:46)
06. Biting Bullets (2:47)
07. This Time (3:08)
08. Three Sisters (3:26)
09. Same Direction (4:56)
10. One X One (3:06)
11. Red Red Sun (3:32)
Код:
EAC extraction logfile from 23. September 2007, 21:30 for CD
INXS / Listen Like Thieves
Used drive  : PLEXTOR DVDR   PX-712A   Adapter: 1  ID: 0
Read mode   : Secure with NO C2, accurate stream, disable cache
Read offset correction : 30
Overread into Lead-In and Lead-Out : Yes
Used output format : Internal WAV Routines
                     44.100 Hz; 16 Bit; Stereo
Other options      :
    Fill up missing offset samples with silence : Yes
    Delete leading and trailing silent blocks : No
    Native Win32 interface for Win NT & 2000
Range status and errors
Selected range
     Filename D:\Audio\INXS\1985 - Listen Like Thieves\INXS - Listen Like Thieves.wav
     Peak level 93.3 %
     Range quality 99.9 %
     CRC 8AE7EDE7
     Copy OK
No errors occured
End of status report
Код:
REM GENRE Rock
REM DATE 1985
REM DISCID 8008BC0B
REM COMMENT "ExactAudioCopy v0.95b4"
PERFORMER "INXS"
TITLE "Listen Like Thieves"
FILE "INXS - Listen Like Thieves.wav" WAVE
  TRACK 01 AUDIO
    TITLE "What You Need"
    PERFORMER "INXS"
    INDEX 00 00:00:00
    INDEX 01 00:00:33
  TRACK 02 AUDIO
    TITLE "Listen Like Thieves"
    PERFORMER "INXS"
    INDEX 01 03:36:18
  TRACK 03 AUDIO
    TITLE "Kiss The Dirt (Falling Down The Mountain)"
    PERFORMER "INXS"
    INDEX 00 07:22:60
    INDEX 01 07:24:20
  TRACK 04 AUDIO
    TITLE "Shine Like It Does"
    PERFORMER "INXS"
    INDEX 00 11:18:28
    INDEX 01 11:20:20
  TRACK 05 AUDIO
    TITLE "Good + Bad Times"
    PERFORMER "INXS"
    INDEX 01 14:27:30
  TRACK 06 AUDIO
    TITLE "Biting Bullets"
    PERFORMER "INXS"
    INDEX 00 17:10:43
    INDEX 01 17:11:48
  TRACK 07 AUDIO
    TITLE "This Time"
    PERFORMER "INXS"
    INDEX 01 20:00:70
  TRACK 08 AUDIO
    TITLE "Three Sisters"
    PERFORMER "INXS"
    INDEX 00 23:10:47
    INDEX 01 23:12:20
  TRACK 09 AUDIO
    TITLE "Same Direction"
    PERFORMER "INXS"
    INDEX 00 25:39:30
    INDEX 01 25:39:58
  TRACK 10 AUDIO
    TITLE "One x One"
    PERFORMER "INXS"
    INDEX 00 30:37:61
    INDEX 01 30:38:20
  TRACK 11 AUDIO
    TITLE "Red Red Sun"
    PERFORMER "INXS"
    INDEX 01 33:43:55
#777Страна-производитель диска: US
Год первого выпуска: 1985
Год настоящего издания: 1986
Издатель (лейбл): Atlantic Records
Номер по каталогу: 7 81277-2
Format: CD, Album
Аудиокодек: FLAC (*.flac)
Тип рипа: tracks+.cue
Битрейт аудио: lossless
Продолжительность: 00:37:15
Источник (релизер): losslessclub
Треклист:
01. What You Need (3:35)
02. Listen Like Thieves (3:48)
03. Kiss The Dirt (Falling Down The Mountain) (3:56)
04. Shine Like It Does (3:05)
05. Good + Bad Times (2:46)
06. Biting Bullets (2:49)
07. This Time (3:11)
08. Three Sisters (2:27)
09. Same Direction (4:58)
10. One X One (3:05)
11. Red Red Sun (3:32)
Код:
Exact Audio Copy V0.99 prebeta 3 from 28. July 2007
EAC extraction logfile from 1. April 2008, 14:51
INXS / Listen Like Thieves
Used drive  : PLEXTOR DVDR   PX-716A   Adapter: 2  ID: 0
Read mode               : Secure
Utilize accurate stream : Yes
Defeat audio cache      : Yes
Make use of C2 pointers : No
Read offset correction                      : 30
Overread into Lead-In and Lead-Out          : No
Fill up missing offset samples with silence : Yes
Delete leading and trailing silent blocks   : No
Null samples used in CRC calculations       : Yes
Used interface                              : Native Win32 interface for Win NT & 2000
Gap handling                                : Appended to previous track
Used output format              : User Defined Encoder
Selected bitrate                : 1024 kBit/s
Quality                         : High
Add ID3 tag                     : No
Command line compressor         : C:\Program Files\Exact Audio Copy\Flac\flac.exe
Additional command line options : -6 -V -T "ARTIST=%a" -T "TITLE=%t" -T "ALBUM=%g" -T "DATE=%y" -T "TRACKNUMBER=%n" -T "GENRE=%m" -T "COMMENT=%e" %s -o %d
TOC of the extracted CD
     Track |   Start  |  Length  | Start sector | End sector
    ---------------------------------------------------------
        1  |  0:00.00 |  3:35.72 |         0    |    16196
        2  |  3:35.72 |  3:48.03 |     16197    |    33299
        3  |  7:24.00 |  3:56.00 |     33300    |    50999
        4  | 11:20.00 |  3:05.07 |     51000    |    64881
        5  | 14:25.07 |  2:46.20 |     64882    |    77351
        6  | 17:11.27 |  2:49.23 |     77352    |    90049
        7  | 20:00.50 |  3:11.25 |     90050    |   104399
        8  | 23:12.00 |  2:27.35 |    104400    |   115459
        9  | 25:39.35 |  4:58.37 |    115460    |   137846
       10  | 30:37.72 |  3:05.35 |    137847    |   151756
       11  | 33:43.32 |  3:32.18 |    151757    |   167674
Track  1
     Filename C:\Documents and Settings\Michael H\My Documents\EAC rips\INXS - Listen Like Thieves - 01. What You Need.wav
     Pre-gap length  0:00:02.00
     Peak level 91.2 %
     Track quality 100.0 %
     Test CRC 9304DCEC
     Copy CRC 9304DCEC
     Track not present in AccurateRip database
     Copy OK
Track  2
     Filename C:\Documents and Settings\Michael H\My Documents\EAC rips\INXS - Listen Like Thieves - 02. Listen Like Thieves.wav
     Peak level 86.0 %
     Track quality 100.0 %
     Test CRC 31053151
     Copy CRC 31053151
     Track not present in AccurateRip database
     Copy OK
Track  3
     Filename C:\Documents and Settings\Michael H\My Documents\EAC rips\INXS - Listen Like Thieves - 03. Kiss the Dirt (Falling Down the Mountain).wav
     Pre-gap length  0:00:02.00
     Peak level 79.2 %
     Track quality 100.0 %
     Test CRC 0B782352
     Copy CRC 0B782352
     Track not present in AccurateRip database
     Copy OK
Track  4
     Filename C:\Documents and Settings\Michael H\My Documents\EAC rips\INXS - Listen Like Thieves - 04. Shine Like it Does.wav
     Pre-gap length  0:00:02.10
     Peak level 92.0 %
     Track quality 100.0 %
     Test CRC 1ACA8905
     Copy CRC 1ACA8905
     Track not present in AccurateRip database
     Copy OK
Track  5
     Filename C:\Documents and Settings\Michael H\My Documents\EAC rips\INXS - Listen Like Thieves - 05. Good + Bad Times.wav
     Peak level 84.2 %
     Track quality 100.0 %
     Test CRC 8BE66B23
     Copy CRC 8BE66B23
     Track not present in AccurateRip database
     Copy OK
Track  6
     Filename C:\Documents and Settings\Michael H\My Documents\EAC rips\INXS - Listen Like Thieves - 06. Biting Bullets.wav
     Pre-gap length  0:00:01.25
     Peak level 85.0 %
     Track quality 100.0 %
     Test CRC 51B90C3D
     Copy CRC 51B90C3D
     Track not present in AccurateRip database
     Copy OK
Track  7
     Filename C:\Documents and Settings\Michael H\My Documents\EAC rips\INXS - Listen Like Thieves - 07. This Time.wav
     Peak level 86.0 %
     Track quality 100.0 %
     Test CRC D9A8ED45
     Copy CRC D9A8ED45
     Track not present in AccurateRip database
     Copy OK
Track  8
     Filename C:\Documents and Settings\Michael H\My Documents\EAC rips\INXS - Listen Like Thieves - 08. Three Sisters.wav
     Pre-gap length  0:00:00.73
     Peak level 84.3 %
     Track quality 100.0 %
     Test CRC C1987CCC
     Copy CRC C1987CCC
     Track not present in AccurateRip database
     Copy OK
Track  9
     Filename C:\Documents and Settings\Michael H\My Documents\EAC rips\INXS - Listen Like Thieves - 09. Same Direction.wav
     Pre-gap length  0:00:00.60
     Peak level 88.1 %
     Track quality 100.0 %
     Test CRC B6AF977D
     Copy CRC B6AF977D
     Track not present in AccurateRip database
     Copy OK
Track 10
     Filename C:\Documents and Settings\Michael H\My Documents\EAC rips\INXS - Listen Like Thieves - 10. One x One.wav
     Pre-gap length  0:00:00.70
     Peak level 93.3 %
     Track quality 100.0 %
     Test CRC 03C30807
     Copy CRC 03C30807
     Track not present in AccurateRip database
     Copy OK
Track 11
     Filename C:\Documents and Settings\Michael H\My Documents\EAC rips\INXS - Listen Like Thieves - 11. Red Red Sun.wav
     Peak level 86.7 %
     Track quality 100.0 %
     Test CRC 5D608C8A
     Copy CRC 5D608C8A
     Track not present in AccurateRip database
     Copy OK
None of the tracks are present in the AccurateRip database
No errors occurred
End of status report
Код:
REM GENRE Rock
REM DATE 1985
REM DISCID 8508BB0B
REM COMMENT "ExactAudioCopy v0.99pb4"
PERFORMER "INXS"
TITLE "Listen Like Thieves"
FILE "01. What You Need.wav" WAVE
  TRACK 01 AUDIO
    TITLE "What You Need"
    PERFORMER "INXS"
    INDEX 01 00:00:00
FILE "02. Listen Like Thieves.wav" WAVE
  TRACK 02 AUDIO
    TITLE "Listen Like Thieves"
    PERFORMER "INXS"
    INDEX 01 00:00:00
  TRACK 03 AUDIO
    TITLE "Kiss the Dirt (Falling Down the Mountain)"
    PERFORMER "INXS"
    INDEX 00 03:46:03
FILE "03. Kiss the Dirt (Falling Down the Mountain).wav" WAVE
    INDEX 01 00:00:00
  TRACK 04 AUDIO
    TITLE "Shine Like it Does"
    PERFORMER "INXS"
    INDEX 00 03:53:65
FILE "04. Shine Like it Does.wav" WAVE
    INDEX 01 00:00:00
FILE "05. Good + Bad Times.wav" WAVE
  TRACK 05 AUDIO
    TITLE "Good + Bad Times"
    PERFORMER "INXS"
    INDEX 01 00:00:00
  TRACK 06 AUDIO
    TITLE "Biting Bullets"
    PERFORMER "INXS"
    INDEX 00 02:44:70
FILE "06. Biting Bullets.wav" WAVE
    INDEX 01 00:00:00
FILE "07. This Time.wav" WAVE
  TRACK 07 AUDIO
    TITLE "This Time"
    PERFORMER "INXS"
    INDEX 01 00:00:00
  TRACK 08 AUDIO
    TITLE "Three Sisters"
    PERFORMER "INXS"
    INDEX 00 03:10:27
FILE "08. Three Sisters.wav" WAVE
    INDEX 01 00:00:00
  TRACK 09 AUDIO
    TITLE "Same Direction"
    PERFORMER "INXS"
    INDEX 00 02:26:50
FILE "09. Same Direction.wav" WAVE
    INDEX 01 00:00:00
  TRACK 10 AUDIO
    TITLE "One x One"
    PERFORMER "INXS"
    INDEX 00 04:57:42
FILE "10. One x One.wav" WAVE
    INDEX 01 00:00:00
FILE "11. Red Red Sun.wav" WAVE
  TRACK 11 AUDIO
    TITLE "Red Red Sun"
    PERFORMER "INXS"
    INDEX 01 00:00:00
Код:
AUDIOCHECKER v2.0 beta (build 457) - by Dester - opdester@freemail.hu
~~~~~~~~~~~~~~~~~~~~~~~~~~~~~~~~~~
-=== DO NOT EDIT THIS FILE! ===-
Path: ...\1985 - Listen Like Thieves losslessclub
01 -=- 01. What You Need.flac -=- CDDA (100%)
02 -=- 02. Listen Like Thieves.flac -=- MPEG (95%)
03 -=- 03. Kiss the Dirt (Falling Down the Mountain).flac -=- CDDA (100%)
04 -=- 04. Shine Like it Does.flac -=- CDDA (100%)
05 -=- 05. Good + Bad Times.flac -=- CDDA (100%)
06 -=- 06. Biting Bullets.flac -=- MPEG (73%)
07 -=- 07. This Time.flac -=- MPEG (95%)
08 -=- 08. Three Sisters.flac -=- ERROR
09 -=- 09. Same Direction.flac -=- MPEG (100%)
10 -=- 10. One x One.flac -=- MPEG (98%)
11 -=- 11. Red Red Sun.flac -=- MPEG (100%)
Summary 43,90% CDDA
5024868

Bass – Garry Gary Beers
Drums – Jon Farriss
Guitar, Saxophone, Vocals – Kirk Pengilly
Guitar, Synthesizer – Tim Farriss
Keyboards, Guitar – Andrew Farriss
Vocals – Michael Hutchence
#777Страна-производитель диска:
Год первого выпуска: 1987
Год настоящего издания:
Издатель (лейбл): Mercury Records
Номер по каталогу: 832 721-2
Format: CD, Album
Аудиокодек: FLAC (*.flac)
Тип рипа: tracks+.cue
Битрейт аудио: lossless
Продолжительность: 00:39:54
Источник (релизер): losslessclub
Треклист:
01. Guns In The Sky (2:21)
02. New Sensation (3:40)
03. Devil Inside (5:15)
04. Need You Tonight (3:01)
05. Mediate (2:37)
06. The Loved One (3:36)
07. Wild Life (3:10)
08. Never Tear Us Apart (3:07)
09. Mystify (3:18)
10. Kick (3:14)
11. Calling All Nations (3:04)
12. Tiny Daggers (3:31)
Код:
Exact Audio Copy V0.99 prebeta 3 from 28. July 2007
EAC extraction logfile from 28. January 2008, 13:32
INXS / Kick
Used drive  : PLEXTOR DVDR   PX-716A   Adapter: 2  ID: 0
Read mode               : Secure
Utilize accurate stream : Yes
Defeat audio cache      : Yes
Make use of C2 pointers : No
Read offset correction                      : 30
Overread into Lead-In and Lead-Out          : No
Fill up missing offset samples with silence : Yes
Delete leading and trailing silent blocks   : No
Null samples used in CRC calculations       : Yes
Used interface                              : Native Win32 interface for Win NT & 2000
Gap handling                                : Appended to previous track
Used output format              : User Defined Encoder
Selected bitrate                : 1024 kBit/s
Quality                         : High
Add ID3 tag                     : No
Command line compressor         : C:\Program Files\Exact Audio Copy\Flac\flac.exe
Additional command line options : -6 -V -T "ARTIST=%a" -T "TITLE=%t" -T "ALBUM=%g" -T "DATE=%y" -T "TRACKNUMBER=%n" -T "GENRE=%m" -T "COMMENT=%e" %s -o %d
TOC of the extracted CD
     Track |   Start  |  Length  | Start sector | End sector
    ---------------------------------------------------------
        1  |  0:00.00 |  2:20.65 |         0    |    10564
        2  |  2:20.65 |  3:40.32 |     10565    |    27096
        3  |  6:01.22 |  5:15.43 |     27097    |    50764
        4  | 11:16.65 |  3:01.07 |     50765    |    64346
        5  | 14:17.72 |  2:36.60 |     64347    |    76106
        6  | 16:54.57 |  3:37.33 |     76107    |    92414
        7  | 20:32.15 |  3:10.12 |     92415    |   106676
        8  | 23:42.27 |  3:06.25 |    106677    |   120651
        9  | 26:48.52 |  3:17.70 |    120652    |   135496
       10  | 30:06.47 |  3:13.73 |    135497    |   150044
       11  | 33:20.45 |  3:03.55 |    150045    |   163824
       12  | 36:24.25 |  3:30.12 |    163825    |   179586
Track  1
     Filename C:\Documents and Settings\Michael H\My Documents\EAC rips\INXS - Kick - 01. Guns In The Sky.wav
     Pre-gap length  0:00:02.00
     Peak level 84.6 %
     Track quality 100.0 %
     Test CRC 1091FBB8
     Copy CRC 1091FBB8
     Accurately ripped (confidence 2)  [CB04D81B]
     Copy OK
Track  2
     Filename C:\Documents and Settings\Michael H\My Documents\EAC rips\INXS - Kick - 02. New Sensation.wav
     Peak level 99.7 %
     Track quality 100.0 %
     Test CRC 6E020B3C
     Copy CRC 6E020B3C
     Accurately ripped (confidence 2)  [3C8EB638]
     Copy OK
Track  3
     Filename C:\Documents and Settings\Michael H\My Documents\EAC rips\INXS - Kick - 03. Devil Inside.wav
     Pre-gap length  0:00:01.07
     Peak level 87.7 %
     Track quality 100.0 %
     Test CRC 04CC13F3
     Copy CRC 04CC13F3
     Accurately ripped (confidence 2)  [A98371AF]
     Copy OK
Track  4
     Filename C:\Documents and Settings\Michael H\My Documents\EAC rips\INXS - Kick - 04. Need You Tonight.wav
     Pre-gap length  0:00:03.23
     Peak level 97.1 %
     Track quality 100.0 %
     Test CRC 7BB6B4E9
     Copy CRC 7BB6B4E9
     Accurately ripped (confidence 2)  [11FAA984]
     Copy OK
Track  5
     Filename C:\Documents and Settings\Michael H\My Documents\EAC rips\INXS - Kick - 05. Mediate.wav
     Peak level 87.5 %
     Track quality 100.0 %
     Test CRC EE630839
     Copy CRC EE630839
     Accurately ripped (confidence 2)  [3D189343]
     Copy OK
Track  6
     Filename C:\Documents and Settings\Michael H\My Documents\EAC rips\INXS - Kick - 06. The Loved One.wav
     Pre-gap length  0:00:00.70
     Peak level 90.8 %
     Track quality 100.0 %
     Test CRC 215B254C
     Copy CRC 215B254C
     Accurately ripped (confidence 2)  [B49C66C2]
     Copy OK
Track  7
     Filename C:\Documents and Settings\Michael H\My Documents\EAC rips\INXS - Kick - 07. Wild Life.wav
     Pre-gap length  0:00:01.28
     Peak level 100.0 %
     Track quality 100.0 %
     Test CRC B8376B56
     Copy CRC B8376B56
     Accurately ripped (confidence 2)  [C1E725AC]
     Copy OK
Track  8
     Filename C:\Documents and Settings\Michael H\My Documents\EAC rips\INXS - Kick - 08. Never Tear Us Apart.wav
     Pre-gap length  0:00:01.07
     Peak level 100.0 %
     Track quality 100.0 %
     Test CRC A1E2B6C6
     Copy CRC A1E2B6C6
     Accurately ripped (confidence 2)  [D773F1E4]
     Copy OK
Track  9
     Filename C:\Documents and Settings\Michael H\My Documents\EAC rips\INXS - Kick - 09. Mystify.wav
     Pre-gap length  0:00:02.47
     Peak level 99.5 %
     Track quality 100.0 %
     Test CRC 5FE61EB3
     Copy CRC 5FE61EB3
     Accurately ripped (confidence 2)  [27E943C5]
     Copy OK
Track 10
     Filename C:\Documents and Settings\Michael H\My Documents\EAC rips\INXS - Kick - 10. Kick.wav
     Pre-gap length  0:00:00.72
     Peak level 93.5 %
     Track quality 100.0 %
     Test CRC 335C7F55
     Copy CRC 335C7F55
     Accurately ripped (confidence 2)  [60F223AB]
     Copy OK
Track 11
     Filename C:\Documents and Settings\Michael H\My Documents\EAC rips\INXS - Kick - 11. Calling All Nations.wav
     Pre-gap length  0:00:00.60
     Peak level 100.0 %
     Track quality 100.0 %
     Test CRC 50A5F3AE
     Copy CRC 50A5F3AE
     Accurately ripped (confidence 2)  [DA555038]
     Copy OK
Track 12
     Filename C:\Documents and Settings\Michael H\My Documents\EAC rips\INXS - Kick - 12. Tiny Daggers.wav
     Pre-gap length  0:00:01.03
     Peak level 83.3 %
     Track quality 100.0 %
     Test CRC 0DBA5B6B
     Copy CRC 0DBA5B6B
     Cannot be verified as accurate (confidence 5)  [D15DF771], AccurateRip returned [F30509F2]
     Copy OK
11 track(s) accurately ripped
 1 track(s) could not be verified as accurate
Some tracks could not be verified as accurate
No errors occurred
End of status report
Код:
REM GENRE Rock
REM DATE 1987
REM DISCID 8B095A0C
REM COMMENT "ExactAudioCopy v0.99pb4"
PERFORMER "INXS"
TITLE "Kick"
FILE "01. Guns In The Sky.wav" WAVE
  TRACK 01 AUDIO
    TITLE "Guns In The Sky"
    PERFORMER "INXS"
    INDEX 01 00:00:00
FILE "02. New Sensation.wav" WAVE
  TRACK 02 AUDIO
    TITLE "New Sensation"
    PERFORMER "INXS"
    INDEX 01 00:00:00
  TRACK 03 AUDIO
    TITLE "Devil Inside"
    PERFORMER "INXS"
    INDEX 00 03:39:25
FILE "03. Devil Inside.wav" WAVE
    INDEX 01 00:00:00
  TRACK 04 AUDIO
    TITLE "Need You Tonight"
    PERFORMER "INXS"
    INDEX 00 05:12:20
FILE "04. Need You Tonight.wav" WAVE
    INDEX 01 00:00:00
FILE "05. Mediate.wav" WAVE
  TRACK 05 AUDIO
    TITLE "Mediate"
    PERFORMER "INXS"
    INDEX 01 00:00:00
  TRACK 06 AUDIO
    TITLE "The Loved One"
    PERFORMER "INXS"
    INDEX 00 02:35:65
FILE "06. The Loved One.wav" WAVE
    INDEX 01 00:00:00
  TRACK 07 AUDIO
    TITLE "Wild Life"
    PERFORMER "INXS"
    INDEX 00 03:36:05
FILE "07. Wild Life.wav" WAVE
    INDEX 01 00:00:00
  TRACK 08 AUDIO
    TITLE "Never Tear Us Apart"
    PERFORMER "INXS"
    INDEX 00 03:09:05
FILE "08. Never Tear Us Apart.wav" WAVE
    INDEX 01 00:00:00
  TRACK 09 AUDIO
    TITLE "Mystify"
    PERFORMER "INXS"
    INDEX 00 03:03:53
FILE "09. Mystify.wav" WAVE
    INDEX 01 00:00:00
  TRACK 10 AUDIO
    TITLE "Kick"
    PERFORMER "INXS"
    INDEX 00 03:16:73
FILE "10. Kick.wav" WAVE
    INDEX 01 00:00:00
  TRACK 11 AUDIO
    TITLE "Calling All Nations"
    PERFORMER "INXS"
    INDEX 00 03:13:13
FILE "11. Calling All Nations.wav" WAVE
    INDEX 01 00:00:00
  TRACK 12 AUDIO
    TITLE "Tiny Daggers"
    PERFORMER "INXS"
    INDEX 00 03:02:52
FILE "12. Tiny Daggers.wav" WAVE
    INDEX 01 00:00:00
Код:
AUDIOCHECKER v2.0 beta (build 457) - by Dester - opdester@freemail.hu
~~~~~~~~~~~~~~~~~~~~~~~~~~~~~~~~~~
-=== DO NOT EDIT THIS FILE! ===-
Path: ...\Inxs - Kick 1987
01 -=- 01. Guns In The Sky.flac -=- CDDA (100%)
02 -=- 02. New Sensation.flac -=- MPEG (95%)
03 -=- 03. Devil Inside.flac -=- MPEG (95%)
04 -=- 04. Need You Tonight.flac -=- CDDA (100%)
05 -=- 05. Mediate.flac -=- CDDA (100%)
06 -=- 06. The Loved One.flac -=- CDDA (100%)
07 -=- 07. Wild Life.flac -=- MPEG (95%)
08 -=- 08. Never Tear Us Apart.flac -=- CDDA (100%)
09 -=- 09. Mystify.flac -=- MPEG (95%)
10 -=- 10. Kick.flac -=- MPEG (79%)
11 -=- 11. Calling All Nations.flac -=- CDDA (100%)
12 -=- 12. Tiny Daggers.flac -=- MPEG (79%)
Summary 55,17% CDDA
118837636

Michael Hutchence: lead vocals and backing vocals
Tim Farriss: lead guitar and backing vocals
Kirk Pengilly: saxophone, rhythm guitar and backing vocals
Garry Gary Beers: bass guitars
Jon Farriss: drums, percussion
Andrew Farriss: synthesizers, drum machine, rhythm guitar and backing vocals
#777Страна-производитель диска: Australia
Год первого выпуска: 1990
Год настоящего издания: 1990
Издатель (лейбл): wea
Номер по каталогу: 90317 2497-2 /0044
Format: CD, Album
Аудиокодек: FLAC (*.flac)
Тип рипа: image+.cue
Битрейт аудио: lossless
Продолжительность: 00:41:43
Источник (релизер): ed2k (rat)
Треклист:
01. Suicide Blonde (3:52)
02. Disappear (4:10)
03. The Stairs (4:56)
04. Faith In Each Other (4:09)
05. By My Side (3:07)
06. Lately (3:37)
07. Who Pays The Price (3:37)
08. Know The Difference (3:18)
09. Bitter Tears (3:49)
10. On My Way (2:56)
11. Hear That Sound (4:11)
Код:
EAC extraction logfile from 21. April 2006, 20:00 for CD
INXS / X
Used drive  : SAMSUNG CD-R/RW SW-248F   Adapter: 0  ID: 0
Read mode   : Secure with NO C2, accurate stream, disable cache
Read offset correction : 97
Overread into Lead-In and Lead-Out : No
Used output format : Internal WAV Routines
                     44.100 Hz; 16 Bit; Stereo
Other options      :
    Fill up missing offset samples with silence : Yes
    Delete leading and trailing silent blocks : No
    Installed external ASPI interface
Range status and errors
Selected range
     Filename E:\inxs - x -1990.by rat.(emultrix.com)eac-ape\INXS - X.wav
     Peak level 100.0 %
     Range quality 99.9 %
     CRC 0E92CF36
     Copy OK
No errors occured
End of status report
Код:
REM GENRE Rock
REM DATE 1990
REM DISCID 8809C70B
REM COMMENT "ExactAudioCopy v0.95b3"
PERFORMER "INXS"
TITLE "X"
FILE "INXS - X.wav" WAVE
  TRACK 01 AUDIO
    TITLE "Suicide Blonde"
    PERFORMER "INXS"
    INDEX 01 00:00:00
  TRACK 02 AUDIO
    TITLE "Disappear"
    PERFORMER "INXS"
    INDEX 01 03:52:37
  TRACK 03 AUDIO
    TITLE "The Stairs"
    PERFORMER "INXS"
    INDEX 01 08:03:22
  TRACK 04 AUDIO
    TITLE "Faith In Each Other"
    PERFORMER "INXS"
    INDEX 01 13:00:12
  TRACK 05 AUDIO
    TITLE "By My Side"
    PERFORMER "INXS"
    INDEX 01 17:09:47
  TRACK 06 AUDIO
    TITLE "Lately"
    PERFORMER "INXS"
    INDEX 01 20:16:62
  TRACK 07 AUDIO
    TITLE "Who Pays The Price"
    PERFORMER "INXS"
    INDEX 01 23:54:17
  TRACK 08 AUDIO
    TITLE "Know The Difference"
    PERFORMER "INXS"
    INDEX 01 27:31:70
  TRACK 09 AUDIO
    TITLE "Bitter Tears"
    PERFORMER "INXS"
    INDEX 01 30:50:50
  TRACK 10 AUDIO
    TITLE "On My Way"
    PERFORMER "INXS"
    INDEX 01 34:40:05
  TRACK 11 AUDIO
    TITLE "Hear That Sound"
    PERFORMER "INXS"
    INDEX 01 37:36:10
#777Страна-производитель диска: Germany
Год первого выпуска: 1990
Год настоящего издания: 1990
Издатель (лейбл): Mercury Records
Номер по каталогу: 846 668-2
Format: CD, Album
Аудиокодек: FLAC (*.flac)
Тип рипа: tracks+.cue
Битрейт аудио: lossless
Продолжительность: 00:41:41
Источник (релизер): losslessclub
Треклист:
01. Suicide Blonde (3:52)
02. Disappear (4:10)
03. The Stairs (4:56)
04. Faith In Each Other (4:09)
05. By My Side (3:06)
06. Lately (3:37)
07. Who Pays The Price (3:37)
08. Know The Difference (3:18)
09. Bitter Tears (3:49)
10. On My Way (2:56)
11. Hear That Sound (4:05)
Код:
Exact Audio Copy V0.99 prebeta 3 from 28. July 2007
EAC extraction logfile from 28. January 2008, 14:34
INXS / X
Used drive  : PLEXTOR DVDR   PX-716A   Adapter: 2  ID: 0
Read mode               : Secure
Utilize accurate stream : Yes
Defeat audio cache      : Yes
Make use of C2 pointers : No
Read offset correction                      : 30
Overread into Lead-In and Lead-Out          : No
Fill up missing offset samples with silence : Yes
Delete leading and trailing silent blocks   : No
Null samples used in CRC calculations       : Yes
Used interface                              : Native Win32 interface for Win NT & 2000
Gap handling                                : Appended to previous track
Used output format              : User Defined Encoder
Selected bitrate                : 1024 kBit/s
Quality                         : High
Add ID3 tag                     : No
Command line compressor         : C:\Program Files\Exact Audio Copy\Flac\flac.exe
Additional command line options : -6 -V -T "ARTIST=%a" -T "TITLE=%t" -T "ALBUM=%g" -T "DATE=%y" -T "TRACKNUMBER=%n" -T "GENRE=%m" -T "COMMENT=%e" %s -o %d
TOC of the extracted CD
     Track |   Start  |  Length  | Start sector | End sector
    ---------------------------------------------------------
        1  |  0:00.00 |  3:52.32 |         0    |    17431
        2  |  3:52.32 |  4:10.53 |     17432    |    36234
        3  |  8:03.10 |  4:56.65 |     36235    |    58499
        4  | 13:00.00 |  4:09.37 |     58500    |    77211
        5  | 17:09.37 |  3:06.33 |     77212    |    91194
        6  | 20:15.70 |  3:37.27 |     91195    |   107496
        7  | 23:53.22 |  3:37.53 |    107497    |   123824
        8  | 27:31.00 |  3:18.55 |    123825    |   138729
        9  | 30:49.55 |  3:49.25 |    138730    |   155929
       10  | 34:39.05 |  2:56.10 |    155930    |   169139
       11  | 37:35.15 |  4:05.72 |    169140    |   187586
Track  1
     Filename C:\Documents and Settings\Michael H\My Documents\EAC rips\INXS - X - 01. Suicide Blonde.wav
     Pre-gap length  0:00:02.00
     Peak level 100.0 %
     Track quality 99.9 %
     Test CRC 3C2B6F3D
     Copy CRC 3C2B6F3D
     Accurately ripped (confidence 2)  [98F17321]
     Copy OK
Track  2
     Filename C:\Documents and Settings\Michael H\My Documents\EAC rips\INXS - X - 02. Disappear.wav
     Pre-gap length  0:00:00.35
     Peak level 100.0 %
     Track quality 99.9 %
     Test CRC FCE8560F
     Copy CRC FCE8560F
     Accurately ripped (confidence 2)  [FAEAD0C2]
     Copy OK
Track  3
     Filename C:\Documents and Settings\Michael H\My Documents\EAC rips\INXS - X - 03. The Stairs.wav
     Pre-gap length  0:00:02.13
     Peak level 86.5 %
     Track quality 99.9 %
     Test CRC 5A81E175
     Copy CRC 5A81E175
     Accurately ripped (confidence 2)  [B4828E56]
     Copy OK
Track  4
     Filename C:\Documents and Settings\Michael H\My Documents\EAC rips\INXS - X - 04. Faith In Each Other.wav
     Peak level 88.6 %
     Track quality 100.0 %
     Test CRC 73EC49F9
     Copy CRC 73EC49F9
     Accurately ripped (confidence 2)  [2D38C695]
     Copy OK
Track  5
     Filename C:\Documents and Settings\Michael H\My Documents\EAC rips\INXS - X - 05. By My Side.wav
     Pre-gap length  0:00:00.62
     Peak level 96.2 %
     Track quality 100.0 %
     Test CRC 2F4F88C9
     Copy CRC 2F4F88C9
     Accurately ripped (confidence 2)  [411EFFB1]
     Copy OK
Track  6
     Filename C:\Documents and Settings\Michael H\My Documents\EAC rips\INXS - X - 06. Lately.wav
     Pre-gap length  0:00:00.33
     Peak level 85.1 %
     Track quality 100.0 %
     Test CRC 8C71464C
     Copy CRC 8C71464C
     Accurately ripped (confidence 2)  [9EE3D4DE]
     Copy OK
Track  7
     Filename C:\Documents and Settings\Michael H\My Documents\EAC rips\INXS - X - 07. Who Pays The Price.wav
     Pre-gap length  0:00:00.57
     Peak level 80.4 %
     Track quality 100.0 %
     Test CRC 57362A0E
     Copy CRC 57362A0E
     Accurately ripped (confidence 2)  [692BAD00]
     Copy OK
Track  8
     Filename C:\Documents and Settings\Michael H\My Documents\EAC rips\INXS - X - 08. Know The Difference.wav
     Pre-gap length  0:00:00.13
     Peak level 95.8 %
     Track quality 100.0 %
     Test CRC 83E31489
     Copy CRC 83E31489
     Accurately ripped (confidence 2)  [4D2822C9]
     Copy OK
Track  9
     Filename C:\Documents and Settings\Michael H\My Documents\EAC rips\INXS - X - 09. Bitter Tears.wav
     Pre-gap length  0:00:00.18
     Peak level 90.2 %
     Track quality 100.0 %
     Test CRC 23E1EEE8
     Copy CRC 23E1EEE8
     Accurately ripped (confidence 2)  [787AE6D3]
     Copy OK
Track 10
     Filename C:\Documents and Settings\Michael H\My Documents\EAC rips\INXS - X - 10. On My Way.wav
     Peak level 84.4 %
     Track quality 100.0 %
     Test CRC 5AA52604
     Copy CRC 5AA52604
     Accurately ripped (confidence 2)  [E4C901C6]
     Copy OK
Track 11
     Filename C:\Documents and Settings\Michael H\My Documents\EAC rips\INXS - X - 11. Hear That Sound.wav
     Peak level 89.5 %
     Track quality 100.0 %
     Test CRC FA98E9CB
     Copy CRC FA98E9CB
     Accurately ripped (confidence 2)  [3E7750BE]
     Copy OK
All tracks accurately ripped
No errors occurred
End of status report
Код:
REM GENRE Rock
REM DATE 1990
REM DISCID 8309C50B
REM COMMENT "ExactAudioCopy v0.99pb4"
PERFORMER "INXS"
TITLE "X"
FILE "01. INXS - Suicide Blonde.wav" WAVE
  TRACK 01 AUDIO
    TITLE "Suicide Blonde"
    PERFORMER "INXS"
    INDEX 01 00:00:00
  TRACK 02 AUDIO
    TITLE "Disappear"
    PERFORMER "INXS"
    INDEX 00 03:51:72
FILE "02. INXS - Disappear.wav" WAVE
    INDEX 01 00:00:00
  TRACK 03 AUDIO
    TITLE "The Stairs"
    PERFORMER "INXS"
    INDEX 00 04:08:40
FILE "03. INXS - The Stairs.wav" WAVE
    INDEX 01 00:00:00
FILE "04. INXS - Faith In Each Other.wav" WAVE
  TRACK 04 AUDIO
    TITLE "Faith In Each Other"
    PERFORMER "INXS"
    INDEX 01 00:00:00
  TRACK 05 AUDIO
    TITLE "By My Side"
    PERFORMER "INXS"
    INDEX 00 04:08:50
FILE "05. INXS - By My Side.wav" WAVE
    INDEX 01 00:00:00
  TRACK 06 AUDIO
    TITLE "Lately"
    PERFORMER "INXS"
    INDEX 00 03:06:00
FILE "06. INXS - Lately.wav" WAVE
    INDEX 01 00:00:00
  TRACK 07 AUDIO
    TITLE "Who Pays The Price"
    PERFORMER "INXS"
    INDEX 00 03:36:45
FILE "07. INXS - Who Pays The Price.wav" WAVE
    INDEX 01 00:00:00
  TRACK 08 AUDIO
    TITLE "Know The Difference"
    PERFORMER "INXS"
    INDEX 00 03:37:40
FILE "08. INXS - Know The Difference.wav" WAVE
    INDEX 01 00:00:00
  TRACK 09 AUDIO
    TITLE "Bitter Tears"
    PERFORMER "INXS"
    INDEX 00 03:18:37
FILE "09. INXS - Bitter Tears.wav" WAVE
    INDEX 01 00:00:00
FILE "10. INXS - On My Way.wav" WAVE
  TRACK 10 AUDIO
    TITLE "On My Way"
    PERFORMER "INXS"
    INDEX 01 00:00:00
FILE "11. INXS - Hear That Sound.wav" WAVE
  TRACK 11 AUDIO
    TITLE "Hear That Sound"
    PERFORMER "INXS"
    INDEX 01 00:00:00
Код:
AUDIOCHECKER v2.0 beta (build 457) - by Dester - opdester@freemail.hu
~~~~~~~~~~~~~~~~~~~~~~~~~~~~~~~~~~
-=== DO NOT EDIT THIS FILE! ===-
Path: ...\1990. X {}
01 -=- INXS - X - 01. Suicide Blonde.flac -=- CDDA (100%)
02 -=- INXS - X - 02. Disappear.flac -=- CDDA (100%)
03 -=- INXS - X - 03. The Stairs.flac -=- CDDA (100%)
04 -=- INXS - X - 04. Faith In Each Other.flac -=- MPEG (79%)
05 -=- INXS - X - 05. By My Side.flac -=- CDDA (100%)
06 -=- INXS - X - 06. Lately.flac -=- CDDA (100%)
07 -=- INXS - X - 07. Who Pays The Price.flac -=- CDDA (100%)
08 -=- INXS - X - 08. Know The Difference.flac -=- CDDA (100%)
09 -=- INXS - X - 09. Bitter Tears.flac -=- CDDA (100%)
10 -=- INXS - X - 10. On My Way.flac -=- CDDA (100%)
11 -=- INXS - X - 11. Hear That Sound.flac -=- CDDA (100%)
Summary 92,82% CDDA
34658196
#777Страна-производитель диска: US
Год первого выпуска: 1990
Год настоящего издания: 1990
Издатель (лейбл): Atlantic
Номер по каталогу: 7 82140-2
Format: CD, Album
Аудиокодек: FLAC (*.flac)
Тип рипа: image+.cue
Битрейт аудио: lossless
Продолжительность:
Источник (релизер): ed2k (edenika)
Треклист:
01. Suicide Blonde (3:52)
02. Disappear (4:10)
03. The Stairs (4:56)
04. Faith In Each Other (4:09)
05. By My Side (3:06)
06. Lately (3:37)
07. Who Pays The Price (3:37)
08. Know The Difference (3:18)
09. Bitter Tears (3:49)
10. On My Way (2:56)
11. Hear That Sound (4:05)
Код:
Exact Audio Copy V1.3 from 2. September 2016
EAC extraction logfile from 30. September 2016, 10:19
INXS / X
Used drive  : HL-DT-STDVDRAM GH24NSC0   Adapter: 1  ID: 0
Read mode               : Secure
Utilize accurate stream : Yes
Defeat audio cache      : Yes
Make use of C2 pointers : No
Read offset correction                      : 6
Overread into Lead-In and Lead-Out          : No
Fill up missing offset samples with silence : Yes
Delete leading and trailing silent blocks   : No
Null samples used in CRC calculations       : Yes
Used interface                              : Native Win32 interface for Win NT & 2000
Used output format : Internal WAV Routines
Sample format      : 44.100 Hz; 16 Bit; Stereo
TOC of the extracted CD
     Track |   Start  |  Length  | Start sector | End sector
    ---------------------------------------------------------
        1  |  0:00.32 |  3:52.33 |        32    |    17464
        2  |  3:52.65 |  4:10.52 |     17465    |    36266
        3  |  8:03.42 |  4:56.73 |     36267    |    58539
        4  | 13:00.40 |  4:09.30 |     58540    |    77244
        5  | 17:09.70 |  3:06.32 |     77245    |    91226
        6  | 20:16.27 |  3:37.28 |     91227    |   107529
        7  | 23:53.55 |  3:37.52 |    107530    |   123856
        8  | 27:31.32 |  3:18.55 |    123857    |   138761
        9  | 30:50.12 |  3:49.33 |    138762    |   155969
       10  | 34:39.45 |  2:56.10 |    155970    |   169179
       11  | 37:35.55 |  4:05.65 |    169180    |   187619
Range status and errors
Selected range
     Filename C:\Music CD\INXS - X.wav
     Peak level 100.0 %
     Extraction speed 1.6 X
     Range quality 99.9 %
     Test CRC A35A78C7
     Copy CRC A35A78C7
     Copy OK
No errors occurred
AccurateRip summary
Track  1  accurately ripped (confidence 31)  [08DBFF12]  (AR v2)
Track  2  accurately ripped (confidence 32)  [2AFFA640]  (AR v2)
Track  3  accurately ripped (confidence 31)  [0A8E23D2]  (AR v2)
Track  4  accurately ripped (confidence 32)  [6028F276]  (AR v2)
Track  5  accurately ripped (confidence 32)  [6BAF737F]  (AR v2)
Track  6  accurately ripped (confidence 31)  [2A1DC102]  (AR v2)
Track  7  accurately ripped (confidence 31)  [4FF34C4A]  (AR v2)
Track  8  accurately ripped (confidence 31)  [4C1AC5E7]  (AR v2)
Track  9  accurately ripped (confidence 31)  [EB7DAA8A]  (AR v2)
Track 10  accurately ripped (confidence 32)  [089BE176]  (AR v2)
Track 11  accurately ripped (confidence 32)  [FC4D5423]  (AR v2)
All tracks accurately ripped
End of status report
---- CUETools DB Plugin V2.1.6
[CTDB TOCID: 43iqEcQva4Y7ydZ5DwwAfhgbNlk-] found
Submit result: 43iqEcQva4Y7ydZ5DwwAfhgbNlk- has been confirmed
Track | CTDB Status
  1   | (159/169) Accurately ripped
  2   | (162/169) Accurately ripped
  3   | (163/169) Accurately ripped
  4   | (164/169) Accurately ripped
  5   | (162/169) Accurately ripped
  6   | (163/169) Accurately ripped
  7   | (161/169) Accurately ripped
  8   | (165/169) Accurately ripped
  9   | (159/169) Accurately ripped
 10   | (161/169) Accurately ripped
 11   | (159/169) Accurately ripped
==== Log checksum B037C983A75B20AD4A4E07956296B77F1BF9CEEF3A0B64868C4DD160AE991EF6 ====
Код:
REM GENRE "Rock"
REM DATE 1990
REM DISCID 8509C50B
REM COMMENT "ExactAudioCopy v1.3"
REM ACCURATERIPID 0011c1af-009838f6-8509c50b
REM COMPOSER ""
CATALOG 0075678214028
REM DISCNUMBER 1
REM TOTALDISCS 1
PERFORMER "INXS"
TITLE "X"
FILE "INXS - X.wav" WAVE
  TRACK 01 AUDIO
    TITLE "Suicide Blonde"
    PERFORMER "INXS"
    REM COMPOSER ""
    INDEX 00 00:00:00
    INDEX 01 00:00:32
  TRACK 02 AUDIO
    TITLE "Disappear"
    PERFORMER "INXS"
    REM COMPOSER ""
    INDEX 00 03:52:42
    INDEX 01 03:52:65
  TRACK 03 AUDIO
    TITLE "The Stairs"
    PERFORMER "INXS"
    REM COMPOSER ""
    INDEX 00 08:01:42
    INDEX 01 08:03:42
  TRACK 04 AUDIO
    TITLE "Faith In Each Other"
    PERFORMER "INXS"
    REM COMPOSER ""
    INDEX 01 13:00:40
  TRACK 05 AUDIO
    TITLE "By My Side"
    PERFORMER "INXS"
    REM COMPOSER ""
    INDEX 00 17:09:20
    INDEX 01 17:09:70
  TRACK 06 AUDIO
    TITLE "Lately"
    PERFORMER "INXS"
    REM COMPOSER ""
    INDEX 00 20:16:07
    INDEX 01 20:16:27
  TRACK 07 AUDIO
    TITLE "Who Pays The Price"
    PERFORMER "INXS"
    REM COMPOSER ""
    INDEX 00 23:53:10
    INDEX 01 23:53:55
  TRACK 08 AUDIO
    TITLE "Know The Difference"
    PERFORMER "INXS"
    REM COMPOSER ""
    INDEX 01 27:31:32
  TRACK 09 AUDIO
    TITLE "Bitter Tears"
    PERFORMER "INXS"
    REM COMPOSER ""
    INDEX 00 30:50:07
    INDEX 01 30:50:12
  TRACK 10 AUDIO
    TITLE "On My Way"
    PERFORMER "INXS"
    REM COMPOSER ""
    INDEX 01 34:39:45
  TRACK 11 AUDIO
    TITLE "Hear That Sound"
    PERFORMER "INXS"
    REM COMPOSER ""
    INDEX 01 37:35:55
#777Страна-производитель диска: EU
Год первого выпуска: 1990
Год настоящего издания: 2011
Издатель (лейбл): Universal Music Group International/Petrol Electric
Номер по каталогу: 0602527706412
Format: CD, Album
Аудиокодек: FLAC (*.flac)
Тип рипа: tracks+.cue
Битрейт аудио: lossless
Продолжительность: 00:41:43
Источник (релизер): закрытый трекер
Треклист:
01. Suicide Blonde (3:52)
02. Disappear (4:10)
03. The Stairs (4:56)
04. Faith In Each Other (4:09)
05. By My Side (3:07)
06. Lately (3:37)
07. Who Pays The Price (3:37)
08. Know The Difference (3:18)
09. Bitter Tears (3:49)
10. On My Way (2:56)
11. Hear That Sound (4:11)
Код:
Exact Audio Copy V1.0 beta 3 from 29. August 2011
EAC extraction logfile from 7. March 2013, 10:28
INXS / X [Remastered]
Used drive  : HL-DT-STDVDRAM GH24NS70   Adapter: 3  ID: 1
Read mode               : Secure
Utilize accurate stream : Yes
Defeat audio cache      : Yes
Make use of C2 pointers : No
Read offset correction                      : 667
Overread into Lead-In and Lead-Out          : No
Fill up missing offset samples with silence : Yes
Delete leading and trailing silent blocks   : No
Null samples used in CRC calculations       : Yes
Used interface                              : Native Win32 interface for Win NT & 2000
Gap handling                                : Appended to previous track
Used output format              : User Defined Encoder
Selected bitrate                : 256 kBit/s
Quality                         : High
Add ID3 tag                     : No
Command line compressor         : C:\Program Files (x86)\Exact Audio Copy\Flac\flac.exe
Additional command line options : -8 -V -T "ARTIST=%artist%" -T "TITLE=%title%" -T "ALBUM=%albumtitle%" -T "DATE=%year%" -T "TRACKNUMBER=%tracknr%" -T "TOTALTRACKS=%numtracks%" -T "GENRE=%genre%" -T "ALBUMARTIST=%albumartist%" -T "ALBUM ARTIST=%albumartist%" -T "COMMENT=EAC Secure Mode, Test & Copy, AccurateRip, FLAC -8" %source%
TOC of the extracted CD
     Track |   Start  |  Length  | Start sector | End sector
    ---------------------------------------------------------
        1  |  0:00.00 |  3:53.09 |         0    |    17483
        2  |  3:53.09 |  4:10.50 |     17484    |    36283
        3  |  8:03.59 |  4:56.57 |     36284    |    58540
        4  | 13:00.41 |  4:09.32 |     58541    |    77247
        5  | 17:09.73 |  3:06.31 |     77248    |    91228
        6  | 20:16.29 |  3:37.26 |     91229    |   107529
        7  | 23:53.55 |  3:37.49 |    107530    |   123853
        8  | 27:31.29 |  3:18.44 |    123854    |   138747
        9  | 30:49.73 |  3:49.23 |    138748    |   155945
       10  | 34:39.21 |  2:55.70 |    155946    |   169140
       11  | 37:35.16 |  4:07.71 |    169141    |   187736
Track  1
     Filename D:\Works\EACRips\INXS - X [Remastered] (2011) [FLAC]\01 - Suicide Blonde.wav
     Pre-gap length  0:00:02.00
     Peak level 98.9 %
     Extraction speed 1.0 X
     Track quality 100.0 %
     Test CRC C142354C
     Copy CRC C142354C
     Accurately ripped (confidence 5)  [61978621]  (AR v2)
     Copy OK
Track  2
     Filename D:\Works\EACRips\INXS - X [Remastered] (2011) [FLAC]\02 - Disappear.wav
     Pre-gap length  0:00:00.37
     Peak level 98.8 %
     Extraction speed 1.0 X
     Track quality 99.9 %
     Test CRC DF9FE607
     Copy CRC DF9FE607
     Accurately ripped (confidence 4)  [EA0D28A3]  (AR v2)
     Copy OK
Track  3
     Filename D:\Works\EACRips\INXS - X [Remastered] (2011) [FLAC]\03 - The Stairs.wav
     Pre-gap length  0:00:01.46
     Peak level 98.6 %
     Extraction speed 1.3 X
     Track quality 100.0 %
     Test CRC 1A0849C5
     Copy CRC 1A0849C5
     Accurately ripped (confidence 4)  [AE42DC05]  (AR v2)
     Copy OK
Track  4
     Filename D:\Works\EACRips\INXS - X [Remastered] (2011) [FLAC]\04 - Faith In Each Other.wav
     Pre-gap length  0:00:00.02
     Peak level 98.7 %
     Extraction speed 1.4 X
     Track quality 100.0 %
     Test CRC 4AB85616
     Copy CRC 4AB85616
     Accurately ripped (confidence 4)  [FE758924]  (AR v2)
     Copy OK
Track  5
     Filename D:\Works\EACRips\INXS - X [Remastered] (2011) [FLAC]\05 - By My Side.wav
     Pre-gap length  0:00:01.16
     Peak level 98.8 %
     Extraction speed 1.4 X
     Track quality 100.0 %
     Test CRC 85B6072C
     Copy CRC 85B6072C
     Accurately ripped (confidence 4)  [081B520D]  (AR v2)
     Copy OK
Track  6
     Filename D:\Works\EACRips\INXS - X [Remastered] (2011) [FLAC]\06 - Lately.wav
     Pre-gap length  0:00:00.43
     Peak level 98.8 %
     Extraction speed 1.5 X
     Track quality 100.0 %
     Test CRC E7E2EC56
     Copy CRC E7E2EC56
     Accurately ripped (confidence 4)  [D27B4D9A]  (AR v2)
     Copy OK
Track  7
     Filename D:\Works\EACRips\INXS - X [Remastered] (2011) [FLAC]\07 - Who Pays The Price.wav
     Pre-gap length  0:00:00.31
     Peak level 98.5 %
     Extraction speed 1.6 X
     Track quality 100.0 %
     Test CRC 0C0FC2B1
     Copy CRC 0C0FC2B1
     Accurately ripped (confidence 4)  [A6EE9CA0]  (AR v2)
     Copy OK
Track  8
     Filename D:\Works\EACRips\INXS - X [Remastered] (2011) [FLAC]\08 - Know The Difference.wav
     Pre-gap length  0:00:00.13
     Peak level 98.7 %
     Extraction speed 1.6 X
     Track quality 100.0 %
     Test CRC ABEC3CC2
     Copy CRC ABEC3CC2
     Accurately ripped (confidence 4)  [0DB4D47A]  (AR v2)
     Copy OK
Track  9
     Filename D:\Works\EACRips\INXS - X [Remastered] (2011) [FLAC]\09 - Bitter Tears.wav
     Pre-gap length  0:00:00.73
     Peak level 98.7 %
     Extraction speed 1.7 X
     Track quality 100.0 %
     Test CRC EFF886A3
     Copy CRC EFF886A3
     Accurately ripped (confidence 4)  [A0DF71C9]  (AR v2)
     Copy OK
Track 10
     Filename D:\Works\EACRips\INXS - X [Remastered] (2011) [FLAC]\10 - On My Way.wav
     Peak level 98.5 %
     Extraction speed 1.4 X
     Track quality 99.9 %
     Test CRC 56F9E096
     Copy CRC 56F9E096
     Accurately ripped (confidence 4)  [269F520A]  (AR v2)
     Copy OK
Track 11
     Filename D:\Works\EACRips\INXS - X [Remastered] (2011) [FLAC]\11 - Hear That Sound.wav
     Peak level 98.7 %
     Extraction speed 1.9 X
     Track quality 100.0 %
     Test CRC 2E7F0D13
     Copy CRC 2E7F0D13
     Accurately ripped (confidence 4)  [9B42E853]  (AR v2)
     Copy OK
All tracks accurately ripped
No errors occurred
End of status report
==== Log checksum 43CE2976A8E550B669AC02B7B73B4F9A9B29833212104431BEB52A4E2A0DD8ED ====
Код:
REM GENRE Rock
REM DATE 2011
REM DISCID 8509C70B
REM COMMENT "ExactAudioCopy v1.0b3"
PERFORMER "INXS"
TITLE "X [Remastered]"
FILE "01 - Suicide Blonde.wav" WAVE
  TRACK 01 AUDIO
    TITLE "Suicide Blonde"
    PERFORMER "INXS"
    INDEX 01 00:00:00
  TRACK 02 AUDIO
    TITLE "Disappear"
    PERFORMER "INXS"
    INDEX 00 03:52:47
FILE "02 - Disappear.wav" WAVE
    INDEX 01 00:00:00
  TRACK 03 AUDIO
    TITLE "The Stairs"
    PERFORMER "INXS"
    INDEX 00 04:09:04
FILE "03 - The Stairs.wav" WAVE
    INDEX 01 00:00:00
  TRACK 04 AUDIO
    TITLE "Faith In Each Other"
    PERFORMER "INXS"
    INDEX 00 04:56:55
FILE "04 - Faith In Each Other.wav" WAVE
    INDEX 01 00:00:00
  TRACK 05 AUDIO
    TITLE "By My Side"
    PERFORMER "INXS"
    INDEX 00 04:08:16
FILE "05 - By My Side.wav" WAVE
    INDEX 01 00:00:00
  TRACK 06 AUDIO
    TITLE "Lately"
    PERFORMER "INXS"
    INDEX 00 03:05:63
FILE "06 - Lately.wav" WAVE
    INDEX 01 00:00:00
  TRACK 07 AUDIO
    TITLE "Who Pays The Price"
    PERFORMER "INXS"
    INDEX 00 03:36:70
FILE "07 - Who Pays The Price.wav" WAVE
    INDEX 01 00:00:00
  TRACK 08 AUDIO
    TITLE "Know The Difference"
    PERFORMER "INXS"
    INDEX 00 03:37:36
FILE "08 - Know The Difference.wav" WAVE
    INDEX 01 00:00:00
  TRACK 09 AUDIO
    TITLE "Bitter Tears"
    PERFORMER "INXS"
    INDEX 00 03:17:46
FILE "09 - Bitter Tears.wav" WAVE
    INDEX 01 00:00:00
FILE "10 - On My Way.wav" WAVE
  TRACK 10 AUDIO
    TITLE "On My Way"
    PERFORMER "INXS"
    INDEX 01 00:00:00
FILE "11 - Hear That Sound.wav" WAVE
  TRACK 11 AUDIO
    TITLE "Hear That Sound"
    PERFORMER "INXS"
    INDEX 01 00:00:00
Код:
AUDIOCHECKER v2.0 beta (build 457) - by Dester - opdester@freemail.hu
~~~~~~~~~~~~~~~~~~~~~~~~~~~~~~~~~~
-=== DO NOT EDIT THIS FILE! ===-
Path: ...\INXS - X (1990) [FLAC] [2011 Remastered]
01 -=- 01 - Suicide Blonde.flac -=- CDDA (100%)
02 -=- 02 - Disappear.flac -=- CDDA (99%)
03 -=- 03 - The Stairs.flac -=- CDDA (100%)
04 -=- 04 - Faith In Each Other.flac -=- CDDA (100%)
05 -=- 05 - By My Side.flac -=- CDDA (100%)
06 -=- 06 - Lately.flac -=- CDDA (99%)
07 -=- 07 - Who Pays The Price.flac -=- CDDA (100%)
08 -=- 08 - Know The Difference.flac -=- CDDA (100%)
09 -=- 09 - Bitter Tears.flac -=- CDDA (100%)
10 -=- 10 - On My Way.flac -=- CDDA (100%)
11 -=- 11 - Hear That Sound.flac -=- CDDA (100%)
Summary 99,82% CDDA
176004660

Bass – Garry Gary Beers
Drums – Jon Farriss
Guitar – Andrew Farriss, Kirk Pengilly, Tim Farriss
Keyboards – Andrew Farriss, Jon Farriss
Mastered By [Cut By] – Tim Young
Saxophone – Kirk Pengilly
Vocals – Kirk Pengilly, Michael Hutchence
#777Страна-производитель диска: Australia
Год первого выпуска: 1992
Год настоящего издания: 1992
Издатель (лейбл): EastWest
Номер по каталогу: 450990493-2
Format: CD, Album
Аудиокодек: FLAC (*.flac)
Тип рипа: tracks+.cue
Битрейт аудио: lossless
Продолжительность: 00:45:06
Источник (релизер): losslessclub
Треклист:
01. Questions (2:07)
02. Heaven Sent (3:16)
03. Communication (5:18)
04. Taste It (3:21)
05. Not Enough Time (4:10)
06. All Around (3:18)
07. Baby Don't Cry (4:45)
08. Beautiful Girl (3:27)
09. Wishing Well (3:25)
10. Back on Line (3:12)
11. Strange Desire (4:08)
12. Men and Women (4:33)
Код:
Exact Audio Copy V0.99 prebeta 3 from 28. July 2007
EAC extraction logfile from 28. January 2008, 20:14
INXS / Welcome To Wherever You Are
Used drive  : PLEXTOR DVDR   PX-716A   Adapter: 2  ID: 0
Read mode               : Secure
Utilize accurate stream : Yes
Defeat audio cache      : Yes
Make use of C2 pointers : No
Read offset correction                      : 30
Overread into Lead-In and Lead-Out          : No
Fill up missing offset samples with silence : Yes
Delete leading and trailing silent blocks   : No
Null samples used in CRC calculations       : Yes
Used interface                              : Native Win32 interface for Win NT & 2000
Gap handling                                : Appended to previous track
Used output format              : User Defined Encoder
Selected bitrate                : 1024 kBit/s
Quality                         : High
Add ID3 tag                     : No
Command line compressor         : C:\Program Files\Exact Audio Copy\Flac\flac.exe
Additional command line options : -6 -V -T "ARTIST=%a" -T "TITLE=%t" -T "ALBUM=%g" -T "DATE=%y" -T "TRACKNUMBER=%n" -T "GENRE=%m" -T "COMMENT=%e" %s -o %d
TOC of the extracted CD
     Track |   Start  |  Length  | Start sector | End sector
    ---------------------------------------------------------
        1  |  0:00.00 |  2:07.40 |         0    |     9564
        2  |  2:07.40 |  3:16.22 |      9565    |    24286
        3  |  5:23.62 |  5:18.43 |     24287    |    48179
        4  | 10:42.30 |  3:21.60 |     48180    |    63314
        5  | 14:04.15 |  4:10.47 |     63315    |    82111
        6  | 18:14.62 |  3:18.38 |     82112    |    96999
        7  | 21:33.25 |  4:45.47 |     97000    |   118421
        8  | 26:18.72 |  3:27.40 |    118422    |   133986
        9  | 29:46.37 |  3:25.10 |    133987    |   149371
       10  | 33:11.47 |  3:12.55 |    149372    |   163826
       11  | 36:24.27 |  4:08.40 |    163827    |   182466
       12  | 40:32.67 |  4:33.68 |    182467    |   203009
Track  1
     Filename C:\Documents and Settings\Michael H\My Documents\EAC rips\INXS - Welcome To Wherever You Are - 01. Questions.wav
     Pre-gap length  0:00:02.00
     Peak level 86.5 %
     Track quality 100.0 %
     Test CRC 8E6BB908
     Copy CRC 8E6BB908
     Accurately ripped (confidence 4)  [A4CB71FB]
     Copy OK
Track  2
     Filename C:\Documents and Settings\Michael H\My Documents\EAC rips\INXS - Welcome To Wherever You Are - 02. Heaven Sent.wav
     Peak level 83.4 %
     Track quality 100.0 %
     Test CRC 348C16F2
     Copy CRC 348C16F2
     Accurately ripped (confidence 4)  [12106BCD]
     Copy OK
Track  3
     Filename C:\Documents and Settings\Michael H\My Documents\EAC rips\INXS - Welcome To Wherever You Are - 03. Communication.wav
     Peak level 86.7 %
     Track quality 100.0 %
     Test CRC FCB16348
     Copy CRC FCB16348
     Accurately ripped (confidence 4)  [D8439D9D]
     Copy OK
Track  4
     Filename C:\Documents and Settings\Michael H\My Documents\EAC rips\INXS - Welcome To Wherever You Are - 04. Taste It.wav
     Peak level 88.2 %
     Track quality 100.0 %
     Test CRC 75C91072
     Copy CRC 75C91072
     Accurately ripped (confidence 4)  [3B50F441]
     Copy OK
Track  5
     Filename C:\Documents and Settings\Michael H\My Documents\EAC rips\INXS - Welcome To Wherever You Are - 05. Not Enough Time.wav
     Peak level 88.5 %
     Track quality 100.0 %
     Test CRC EEEBB4C8
     Copy CRC EEEBB4C8
     Accurately ripped (confidence 4)  [EF99E8E6]
     Copy OK
Track  6
     Filename C:\Documents and Settings\Michael H\My Documents\EAC rips\INXS - Welcome To Wherever You Are - 06. All Around.wav
     Peak level 95.5 %
     Track quality 100.0 %
     Test CRC 1C2C1758
     Copy CRC 1C2C1758
     Accurately ripped (confidence 4)  [194F3B7D]
     Copy OK
Track  7
     Filename C:\Documents and Settings\Michael H\My Documents\EAC rips\INXS - Welcome To Wherever You Are - 07. Baby Don't Cry.wav
     Peak level 95.5 %
     Track quality 100.0 %
     Test CRC 60634E4B
     Copy CRC 60634E4B
     Accurately ripped (confidence 3)  [DF809065]
     Copy OK
Track  8
     Filename C:\Documents and Settings\Michael H\My Documents\EAC rips\INXS - Welcome To Wherever You Are - 08. Beautiful Girl.wav
     Peak level 85.7 %
     Track quality 99.9 %
     Test CRC 8AD662A6
     Copy CRC 8AD662A6
     Accurately ripped (confidence 3)  [3E11DEA5]
     Copy OK
Track  9
     Filename C:\Documents and Settings\Michael H\My Documents\EAC rips\INXS - Welcome To Wherever You Are - 09. Wishing Well.wav
     Peak level 88.1 %
     Track quality 100.0 %
     Test CRC 16AE1BAE
     Copy CRC 16AE1BAE
     Accurately ripped (confidence 3)  [080C6E77]
     Copy OK
Track 10
     Filename C:\Documents and Settings\Michael H\My Documents\EAC rips\INXS - Welcome To Wherever You Are - 10. Back On Line.wav
     Pre-gap length  0:00:00.60
     Peak level 91.0 %
     Track quality 100.0 %
     Test CRC 90911DA5
     Copy CRC 90911DA5
     Accurately ripped (confidence 3)  [B4AAACE5]
     Copy OK
Track 11
     Filename C:\Documents and Settings\Michael H\My Documents\EAC rips\INXS - Welcome To Wherever You Are - 11. Strange Desire.wav
     Peak level 90.9 %
     Track quality 100.0 %
     Test CRC 0DD974C3
     Copy CRC 0DD974C3
     Accurately ripped (confidence 4)  [BB2D1906]
     Copy OK
Track 12
     Filename C:\Documents and Settings\Michael H\My Documents\EAC rips\INXS - Welcome To Wherever You Are - 12. Men And Women.wav
     Peak level 86.1 %
     Track quality 100.0 %
     Test CRC 23A43E72
     Copy CRC 23A43E72
     Accurately ripped (confidence 4)  [BA481EEF]
     Copy OK
All tracks accurately ripped
No errors occurred
End of status report
Код:
REM GENRE Alternative
REM DATE 1992
REM DISCID B30A920C
REM COMMENT "ExactAudioCopy v0.99pb4"
PERFORMER "INXS"
TITLE "Welcome To Wherever You Are"
FILE "01. Questions.wav" WAVE
  TRACK 01 AUDIO
    TITLE "Questions"
    PERFORMER "INXS"
    INDEX 01 00:00:00
FILE "02. Heaven Sent.wav" WAVE
  TRACK 02 AUDIO
    TITLE "Heaven Sent"
    PERFORMER "INXS"
    INDEX 01 00:00:00
  TRACK 03 AUDIO
    TITLE "Communication"
    PERFORMER "INXS"
    INDEX 00 03:16:21
FILE "03. Communication.wav" WAVE
    INDEX 01 00:00:00
  TRACK 04 AUDIO
    TITLE "Taste It"
    PERFORMER "INXS"
    INDEX 00 05:18:42
FILE "04. Taste It.wav" WAVE
    INDEX 01 00:00:00
  TRACK 05 AUDIO
    TITLE "Not Enough Time"
    PERFORMER "INXS"
    INDEX 00 03:21:59
FILE "05. Not Enough Time.wav" WAVE
    INDEX 01 00:00:00
  TRACK 06 AUDIO
    TITLE "All Around"
    PERFORMER "INXS"
    INDEX 00 04:10:46
FILE "06. All Around.wav" WAVE
    INDEX 01 00:00:00
  TRACK 07 AUDIO
    TITLE "Baby Don't Cry"
    PERFORMER "INXS"
    INDEX 00 03:18:37
FILE "07. Baby Don't Cry.wav" WAVE
    INDEX 01 00:00:00
  TRACK 08 AUDIO
    TITLE "Beautiful Girl"
    PERFORMER "INXS"
    INDEX 00 04:45:46
FILE "08. Beautiful Girl.wav" WAVE
    INDEX 01 00:00:00
  TRACK 09 AUDIO
    TITLE "Wishing Well"
    PERFORMER "INXS"
    INDEX 00 03:27:39
FILE "09. Wishing Well.wav" WAVE
    INDEX 01 00:00:00
  TRACK 10 AUDIO
    TITLE "Back On Line"
    PERFORMER "INXS"
    INDEX 00 03:24:24
FILE "10. Back On Line.wav" WAVE
    INDEX 01 00:00:00
  TRACK 11 AUDIO
    TITLE "Strange Desire"
    PERFORMER "INXS"
    INDEX 00 03:12:54
FILE "11. Strange Desire.wav" WAVE
    INDEX 01 00:00:00
  TRACK 12 AUDIO
    TITLE "Men And Women"
    PERFORMER "INXS"
    INDEX 00 04:08:39
FILE "12. Men And Women.wav" WAVE
    INDEX 01 00:00:00
Код:
AUDIOCHECKER v2.0 beta (build 457) - by Dester - opdester@freemail.hu
~~~~~~~~~~~~~~~~~~~~~~~~~~~~~~~~~~
-=== DO NOT EDIT THIS FILE! ===-
Path: ...\1992. Welcome To Wherever You Are {}
01 -=- 01. Questions.flac -=- CDDA (100%)
02 -=- 02. Heaven Sent.flac -=- CDDA (100%)
03 -=- 03. Communication.flac -=- CDDA (100%)
04 -=- 04. Taste It.flac -=- CDDA (100%)
05 -=- 05. Not Enough Time.flac -=- CDDA (100%)
06 -=- 06. All Around.flac -=- CDDA (100%)
07 -=- 07. Baby Don't Cry.flac -=- CDDA (100%)
08 -=- 08. Beautiful Girl.flac -=- CDDA (100%)
09 -=- 09. Wishing Well.flac -=- CDDA (100%)
10 -=- 10. Back On Line.flac -=- CDDA (100%)
11 -=- 11. Strange Desire.flac -=- CDDA (100%)
12 -=- 12. Men And Women.flac -=- CDDA (100%)
Summary 100,00% CDDA
228961684
#777Страна-производитель диска: EU
Год первого выпуска: 1992
Год настоящего издания: 1992
Издатель (лейбл): Mercury Records
Номер по каталогу: 512 507-2 /512-507-2
Format: CD, Album
Аудиокодек: FLAC (*.flac)
Тип рипа: image+.cue
Битрейт аудио: lossless
Продолжительность: 00:45:08
Источник (релизер): ed2k (rat)
Треклист:
01. Questions (2:07)
02. Heaven Sent (3:18)
03. Communication (4:49)
04. Taste It (3:18)
05. Not Enough Time (4:13)
06. All Around (3:16)
07. Baby Don't Cry (4:45)
08. Beautiful Girl (3:27)
09. Wishing Well (3:25)
10. Back on Line (3:12)
11. Strange Desire (4:08)
12. Men and Women (4:38)
Код:
EAC extraction logfile from 5. May 2006, 18:22 for CD
INXS / Welcome To Wherever You Are
Used drive  : SAMSUNG CD-R/RW SW-248F   Adapter: 0  ID: 0
Read mode   : Secure with NO C2, accurate stream, disable cache
Read offset correction : 97
Overread into Lead-In and Lead-Out : No
Used output format : Internal WAV Routines
                     44.100 Hz; 16 Bit; Stereo
Other options      :
    Fill up missing offset samples with silence : Yes
    Delete leading and trailing silent blocks : No
    Installed external ASPI interface
Range status and errors
Selected range
     Filename E:\Documents and Settings\rat.TR-G50KCK082Q78\My Documents\INXS - Welcome To Wherever You Are\INXS - Welcome To Wherever You Are.wav
     Peak level 95.5 %
     Range quality 100.0 %
     CRC E4B9E34D
     Copy OK
No errors occured
End of status report
Код:
REM GENRE Rock
REM DATE 1992
REM DISCID B90A940C
REM COMMENT "ExactAudioCopy v0.95b3"
PERFORMER "INXS"
TITLE "Welcome To Wherever You Are"
FILE "INXS - Welcome To Wherever You Are.wav" WAVE
  TRACK 01 AUDIO
    TITLE "Questions"
    PERFORMER "INXS"
    INDEX 00 00:00:00
    INDEX 01 00:00:33
  TRACK 02 AUDIO
    TITLE "Heaven Sent"
    PERFORMER "INXS"
    INDEX 01 02:08:55
  TRACK 03 AUDIO
    TITLE "Communication"
    PERFORMER "INXS"
    INDEX 01 05:25:03
  TRACK 04 AUDIO
    TITLE "Taste It"
    PERFORMER "INXS"
    INDEX 01 10:43:45
  TRACK 05 AUDIO
    TITLE "Not Enough Time"
    PERFORMER "INXS"
    INDEX 01 14:05:30
  TRACK 06 AUDIO
    TITLE "All Around"
    PERFORMER "INXS"
    INDEX 01 18:16:03
  TRACK 07 AUDIO
    TITLE "Baby Don't Cry"
    PERFORMER "INXS"
    INDEX 01 21:34:38
  TRACK 08 AUDIO
    TITLE "Beautiful Girl"
    PERFORMER "INXS"
    INDEX 01 26:20:13
  TRACK 09 AUDIO
    TITLE "Wishing Well"
    PERFORMER "INXS"
    INDEX 01 29:47:53
  TRACK 10 AUDIO
    TITLE "Back On Line"
    PERFORMER "INXS"
    INDEX 00 33:11:73
    INDEX 01 33:12:65
  TRACK 11 AUDIO
    TITLE "Strange Desire"
    PERFORMER "INXS"
    INDEX 01 36:25:43
  TRACK 12 AUDIO
    TITLE "Men And Women"
    PERFORMER "INXS"
    INDEX 01 40:34:08

Michael Hutchence – vocals
Kirk Pengilly – guitar, saxophone, vocals
Garry Gary Beers – bass
Andrew Farriss – keyboards, guitar
Jon Farriss – drums, percussion
Tim Farriss – guitar
11.08.2020 торрент перезалит. Добавлены 23 разных альбомов группы и/или их вариантов.
Правила, инструкции, FAQ!!!
Торрент  Добавлен [21 авг 2020, 20:23] Скачать торрент Магнет ссылка
Скачать торрент
[ Размер 79.9 КБ / Просмотров 42 ]

Статус
Проверен 
 
Размер  8.17 ГБ
Приватный: Нет (DHT включён)
.torrent скачан  2
 


     Отправить личное сообщение
   
Страница 1 из 1
Показать сообщения за:  Поле сортировки  
Начать новую тему Ответить на тему


Сейчас этот форум просматривают: нет зарегистрированных пользователей и гости: 0


Вы не можете начинать темы
Вы не можете отвечать на сообщения
Вы не можете редактировать свои сообщения
Вы не можете удалять свои сообщения
Вы не можете добавлять вложения

Перейти:  
cron