Начать новую тему Ответить на тему
Статистика раздачи
Размер: 283.45 МБ | Добавлен: 26 мар 2019, 19:10 | Скачали: 0
Сидеров: 0  [0 байт/сек]    Личеров: 0  [0 байт/сек]
Пред. тема | След. тема 

Автор
Сообщение

СообщениеДобавлено: 26 мар 2019, 19:10 

Ответить с цитатой 

Tommy Keene - In the Late Bright
Жанр: Pop Rock, Indie Rock
Год выпуска диска: 2009
Производитель диска: US
Аудио кодек: FLAC
Тип рипа: tracks+.cue
Битрейт аудио: lossless
Продолжительность: 38:43
Источник: Другой трекер
Трэклист:
01.Late Bright (2:16)
02.A Secret Life of Stories (3:52)
03.Save This Harmony (4:04)
04.Tomorrow's Gone Tonight (3:06)
05.Goodbye Jane (2:05)
06.Nighttime Crime Scene (4:44)
07.Elevated (4:55)
08.Realize Your Mind (2:52)
09.The Right Time to Fly (2:57)
10.Please Don't Come Around (3:36)
11.Hide Your Eyes (4:16)
Tommy Keene is best known to smart pop obsessives for the superb songwriting that's dominated the handful of great albums he's released since 1984, including Songs from the Film, The Real Underground, and Ten Years After. But Keene has also established himself as a first-class guitarist, having toured as a sideman with the likes of Paul Westerberg and Robert Pollard, and on his 2009 album, In the Late Bright, Keene has given his guitar work a greater prominence than on many of his previous albums. No, In the Late Bright isn't dominated by ten-minute guitar workouts full of Eddie Van Halen style acrobatics (or even the manic soloing Keene used to close out his brilliant cover of Lou Reed's "Kill Your Sons"), but the five-minute instrumental "Elevated" demonstrates how much menace and atmosphere Keene can conjure with his instrument, and the soaring hard rock tone of "The Right Time to Fly" and "Goodbye Jane" find Keene allowing himself a little more room to swagger than usual. And the great guitar work on In the Late Bright is, as usual, in the service of a stack of great songs; his melodies are both hooky and robust, capturing a broad range of deep tonal colors, and with Jon Richardson on drums, this album features some of the most satisfying rock & roll of Keene's long and distinguished career. The big guitars and forceful tone of In the Late Bright are hardly without precedent in Tommy Keene's career — this is one popmeister who's always known how to rock out — but the rich wallop of this disc's best moments make it clear that he isn't slowing down or mellowing with age, and after 2006's fine Crashing the Ether, this shows him continuing to move from strength to strength.
Allmusic review (by Mark Deming)
Код:
X Lossless Decoder version 20090217 (101.1)
XLD extraction logfile from 2009-02-26 17:34:11 -0500
Tommy Keene / In the Late Bright
Used drive : MATSHITA DVD-R   UJ-857E (revision ZF1E)
Use cdparanoia mode     : YES (CDParanoia III 10.2 engine)
Disable audio cache     : OK for the drive with cache less than 2750KB
Make use of C2 pointers : NO
Read offset correction  : 102
Max retry count         : 100
TOC of the extracted CD
     Track |   Start  |  Length  | Start sector | End sector
    ---------------------------------------------------------
        1  | 00:00:00 | 02:15:50 |         0    |    10174
        2  | 02:15:50 | 03:51:57 |     10175    |    27556
        3  | 06:07:32 | 04:03:65 |     27557    |    45846
        4  | 10:11:22 | 03:05:55 |     45847    |    59776
        5  | 13:17:02 | 02:05:35 |     59777    |    69186
        6  | 15:22:37 | 04:44:13 |     69187    |    90499
        7  | 20:06:50 | 04:55:07 |     90500    |   112631
        8  | 25:01:57 | 02:52:03 |    112632    |   125534
        9  | 27:53:60 | 02:57:37 |    125535    |   138846
       10  | 30:51:22 | 03:36:00 |    138847    |   155046
       11  | 34:27:22 | 04:15:70 |    155047    |   174241
All Tracks
    Album gain             : -9.07 dB
    Peak                   : 0.998871
Track 01
    Filename : /Users/skipperry/Desktop/Tommy Keene - In the Late Bright (2009) [FLAC]/01 - Late Bright.flac
    Track gain             : -9.00 dB
    Peak                   : 0.976196
    CRC32 hash (test run)  : 31A8FB63
    CRC32 hash             : 31A8FB63
    CRC32 hash (skip zero) : 9666F544
    AccurateRip signature  : 5F7B5F62
        ->Track not present in AccurateRip database.
    Statistics
        Read error                           : 0
        Skipped (treated as error)           : 0
        Edge jitter error (maybe fixed)      : 0
        Atom jitter error (maybe fixed)      : 0
        Drift error (maybe fixed)            : 0
        Dropped bytes error (maybe fixed)    : 0
        Duplicated bytes error (maybe fixed) : 0
        Inconsistency in error sectors       : 0
Track 02
    Filename : /Users/skipperry/Desktop/Tommy Keene - In the Late Bright (2009) [FLAC]/02 - A Secret Life of Stories.flac
    Track gain             : -9.02 dB
    Peak                   : 0.976196
    CRC32 hash (test run)  : 7C6E8E45
    CRC32 hash             : 7C6E8E45
    CRC32 hash (skip zero) : 19C37B19
    AccurateRip signature  : E7705E47
        ->Track not present in AccurateRip database.
    Statistics
        Read error                           : 0
        Skipped (treated as error)           : 0
        Edge jitter error (maybe fixed)      : 0
        Atom jitter error (maybe fixed)      : 0
        Drift error (maybe fixed)            : 0
        Dropped bytes error (maybe fixed)    : 0
        Duplicated bytes error (maybe fixed) : 0
        Inconsistency in error sectors       : 0
Track 03
    Filename : /Users/skipperry/Desktop/Tommy Keene - In the Late Bright (2009) [FLAC]/03 - Save This Harmony.flac
    Track gain             : -8.51 dB
    Peak                   : 0.976196
    CRC32 hash (test run)  : 6A10DD86
    CRC32 hash             : 6A10DD86
    CRC32 hash (skip zero) : A6701B28
    AccurateRip signature  : 87C51336
        ->Track not present in AccurateRip database.
    Statistics
        Read error                           : 0
        Skipped (treated as error)           : 0
        Edge jitter error (maybe fixed)      : 0
        Atom jitter error (maybe fixed)      : 0
        Drift error (maybe fixed)            : 0
        Dropped bytes error (maybe fixed)    : 0
        Duplicated bytes error (maybe fixed) : 0
        Inconsistency in error sectors       : 0
Track 04
    Filename : /Users/skipperry/Desktop/Tommy Keene - In the Late Bright (2009) [FLAC]/04 - Tomorrow's Gone Tonight.flac
    Track gain             : -9.68 dB
    Peak                   : 0.976196
    CRC32 hash (test run)  : 55A142BE
    CRC32 hash             : 55A142BE
    CRC32 hash (skip zero) : 3686BAA0
    AccurateRip signature  : C1A0B68C
        ->Track not present in AccurateRip database.
    Statistics
        Read error                           : 0
        Skipped (treated as error)           : 0
        Edge jitter error (maybe fixed)      : 0
        Atom jitter error (maybe fixed)      : 0
        Drift error (maybe fixed)            : 0
        Dropped bytes error (maybe fixed)    : 0
        Duplicated bytes error (maybe fixed) : 0
        Inconsistency in error sectors       : 0
Track 05
    Filename : /Users/skipperry/Desktop/Tommy Keene - In the Late Bright (2009) [FLAC]/05 - Goodbye Jane.flac
    Track gain             : -9.15 dB
    Peak                   : 0.998871
    CRC32 hash (test run)  : 92632346
    CRC32 hash             : 92632346
    CRC32 hash (skip zero) : 8DAAE38D
    AccurateRip signature  : F7A7963B
        ->Track not present in AccurateRip database.
    Statistics
        Read error                           : 0
        Skipped (treated as error)           : 0
        Edge jitter error (maybe fixed)      : 0
        Atom jitter error (maybe fixed)      : 0
        Drift error (maybe fixed)            : 0
        Dropped bytes error (maybe fixed)    : 0
        Duplicated bytes error (maybe fixed) : 0
        Inconsistency in error sectors       : 0
Track 06
    Filename : /Users/skipperry/Desktop/Tommy Keene - In the Late Bright (2009) [FLAC]/06 - Nighttime Crime Scene.flac
    Track gain             : -7.94 dB
    Peak                   : 0.976196
    CRC32 hash (test run)  : 772CCCA1
    CRC32 hash             : 772CCCA1
    CRC32 hash (skip zero) : F133F314
    AccurateRip signature  : 4DCD66E8
        ->Track not present in AccurateRip database.
    Statistics
        Read error                           : 0
        Skipped (treated as error)           : 0
        Edge jitter error (maybe fixed)      : 0
        Atom jitter error (maybe fixed)      : 0
        Drift error (maybe fixed)            : 0
        Dropped bytes error (maybe fixed)    : 0
        Duplicated bytes error (maybe fixed) : 0
        Inconsistency in error sectors       : 0
Track 07
    Filename : /Users/skipperry/Desktop/Tommy Keene - In the Late Bright (2009) [FLAC]/07 - Elevated.flac
    Track gain             : -7.15 dB
    Peak                   : 0.825623
    CRC32 hash (test run)  : F36B6DDC
    CRC32 hash             : F36B6DDC
    CRC32 hash (skip zero) : 4F92E0B1
    AccurateRip signature  : 24638CFC
        ->Track not present in AccurateRip database.
    Statistics
        Read error                           : 0
        Skipped (treated as error)           : 0
        Edge jitter error (maybe fixed)      : 0
        Atom jitter error (maybe fixed)      : 0
        Drift error (maybe fixed)            : 0
        Dropped bytes error (maybe fixed)    : 0
        Duplicated bytes error (maybe fixed) : 0
        Inconsistency in error sectors       : 0
Track 08
    Filename : /Users/skipperry/Desktop/Tommy Keene - In the Late Bright (2009) [FLAC]/08 - Realize Your Mind.flac
    Track gain             : -9.19 dB
    Peak                   : 0.976196
    CRC32 hash (test run)  : 4B2BBDF3
    CRC32 hash             : 4B2BBDF3
    CRC32 hash (skip zero) : E641AE3B
    AccurateRip signature  : 02A5C43C
        ->Track not present in AccurateRip database.
    Statistics
        Read error                           : 0
        Skipped (treated as error)           : 0
        Edge jitter error (maybe fixed)      : 0
        Atom jitter error (maybe fixed)      : 0
        Drift error (maybe fixed)            : 0
        Dropped bytes error (maybe fixed)    : 0
        Duplicated bytes error (maybe fixed) : 0
        Inconsistency in error sectors       : 0
Track 09
    Filename : /Users/skipperry/Desktop/Tommy Keene - In the Late Bright (2009) [FLAC]/09 - The Right Time to Fly.flac
    Track gain             : -9.97 dB
    Peak                   : 0.998871
    CRC32 hash (test run)  : 1A9BD5A7
    CRC32 hash             : 1A9BD5A7
    CRC32 hash (skip zero) : 384A5C7E
    AccurateRip signature  : 4D3F3EF0
        ->Track not present in AccurateRip database.
    Statistics
        Read error                           : 0
        Skipped (treated as error)           : 0
        Edge jitter error (maybe fixed)      : 0
        Atom jitter error (maybe fixed)      : 0
        Drift error (maybe fixed)            : 0
        Dropped bytes error (maybe fixed)    : 0
        Duplicated bytes error (maybe fixed) : 0
        Inconsistency in error sectors       : 0
Track 10
    Filename : /Users/skipperry/Desktop/Tommy Keene - In the Late Bright (2009) [FLAC]/10 - Please Don't Come Around.flac
    Track gain             : -9.13 dB
    Peak                   : 0.976196
    CRC32 hash (test run)  : ED03D147
    CRC32 hash             : ED03D147
    CRC32 hash (skip zero) : 2322E012
    AccurateRip signature  : 817302E4
        ->Track not present in AccurateRip database.
    Statistics
        Read error                           : 0
        Skipped (treated as error)           : 0
        Edge jitter error (maybe fixed)      : 0
        Atom jitter error (maybe fixed)      : 0
        Drift error (maybe fixed)            : 0
        Dropped bytes error (maybe fixed)    : 0
        Duplicated bytes error (maybe fixed) : 0
        Inconsistency in error sectors       : 0
Track 11
    Filename : /Users/skipperry/Desktop/Tommy Keene - In the Late Bright (2009) [FLAC]/11 - Hide Your Eyes.flac
    Track gain             : -8.70 dB
    Peak                   : 0.976196
    CRC32 hash (test run)  : 67A39C97
    CRC32 hash             : 67A39C97
    CRC32 hash (skip zero) : C0E6392B
    AccurateRip signature  : BEAA5E31
        ->Track not present in AccurateRip database.
    Statistics
        Read error                           : 0
        Skipped (treated as error)           : 0
        Edge jitter error (maybe fixed)      : 0
        Atom jitter error (maybe fixed)      : 0
        Drift error (maybe fixed)            : 0
        Dropped bytes error (maybe fixed)    : 0
        Duplicated bytes error (maybe fixed) : 0
        Inconsistency in error sectors       : 0
No errors occurred
End of status report
Код:
AUDIOCHECKER v2.0 beta (build 457) - by Dester - opdester@freemail.hu
~~~~~~~~~~~~~~~~~~~~~~~~~~~~~~~~~~
Started at: понедельник, 13. 04. 2009. - 1:13.15
11 files found
01 -===- D:\Torrent\Tommy Keene - In the Late Bright (2009) [FLAC]\01 - Late Bright.flac
  Extracted successfully
  Conclusion: this track is CDDA with probability 100%
  Tempfile successfully deleted.
02 -===- D:\Torrent\Tommy Keene - In the Late Bright (2009) [FLAC]\02 - A Secret Life of Stories.flac
  Extracted successfully
  Conclusion: this track is CDDA with probability 100%
  Tempfile successfully deleted.
03 -===- D:\Torrent\Tommy Keene - In the Late Bright (2009) [FLAC]\03 - Save This Harmony.flac
  Extracted successfully
  Conclusion: this track is CDDA with probability 99%
  Tempfile successfully deleted.
04 -===- D:\Torrent\Tommy Keene - In the Late Bright (2009) [FLAC]\04 - Tomorrow's Gone Tonight.flac
  Extracted successfully
  Conclusion: this track is CDDA with probability 100%
  Tempfile successfully deleted.
05 -===- D:\Torrent\Tommy Keene - In the Late Bright (2009) [FLAC]\05 - Goodbye Jane.flac
  Extracted successfully
  Conclusion: this track is CDDA with probability 99%
  Tempfile successfully deleted.
06 -===- D:\Torrent\Tommy Keene - In the Late Bright (2009) [FLAC]\06 - Nighttime Crime Scene.flac
  Extracted successfully
  Conclusion: this track is CDDA with probability 100%
  Tempfile successfully deleted.
07 -===- D:\Torrent\Tommy Keene - In the Late Bright (2009) [FLAC]\07 - Elevated.flac
  Extracted successfully
  Conclusion: this track is CDDA with probability 100%
  Tempfile successfully deleted.
08 -===- D:\Torrent\Tommy Keene - In the Late Bright (2009) [FLAC]\08 - Realize Your Mind.flac
  Extracted successfully
  Conclusion: this track is CDDA with probability 100%
  Tempfile successfully deleted.
09 -===- D:\Torrent\Tommy Keene - In the Late Bright (2009) [FLAC]\09 - The Right Time to Fly.flac
  Extracted successfully
  Conclusion: this track is CDDA with probability 100%
  Tempfile successfully deleted.
10 -===- D:\Torrent\Tommy Keene - In the Late Bright (2009) [FLAC]\10 - Please Don't Come Around.flac
  Extracted successfully
  Conclusion: this track is CDDA with probability 100%
  Tempfile successfully deleted.
11 -===- D:\Torrent\Tommy Keene - In the Late Bright (2009) [FLAC]\11 - Hide Your Eyes.flac
  Extracted successfully
  Conclusion: this track is CDDA with probability 100%
  Tempfile successfully deleted.
Finished at: понедельник, 13. 04. 2009. - 1:18.39 (operation time: 0:05.24)
Правила, инструкции, FAQ!!!
Торрент  Добавлен [26 мар 2019, 19:10] Скачать торрент Магнет ссылка
Скачать торрент
[ Размер 24.3 КБ / Просмотров 1 ]

Статус
Проверен 
 
Размер  283.45 МБ
Приватный: Нет (DHT включён)
.torrent скачан  0
 


     Отправить личное сообщение
   
Страница 1 из 1
Показать сообщения за:  Поле сортировки  
Начать новую тему Ответить на тему


Сейчас этот форум просматривают: нет зарегистрированных пользователей и гости: 0


Вы не можете начинать темы
Вы не можете отвечать на сообщения
Вы не можете редактировать свои сообщения
Вы не можете удалять свои сообщения
Вы не можете добавлять вложения

Перейти:  
cron