Начать новую тему Ответить на тему
Статистика раздачи
Размер: 1.71 ГБ | Добавлен: 26 мар 2019, 19:59 | Скачали: 0
Сидеров: 0  [0 байт/сек]    Личеров: 0  [0 байт/сек]
Пред. тема | След. тема 

Автор
Сообщение

СообщениеДобавлено: 26 мар 2019, 19:59 

Ответить с цитатой 

WE SHOT THE MOON
коллекция

Жанр: Pop-Rock/Indie Rock
Год издания диска: 2008 - 2013
Страна: USA (San Diego, California)
Аудио кодек: FLAC (*.flac)
Тип рипа: tracks+.cue
Битрейт аудио: lossless
Продолжительность: 02:39:11
Коврики: есть
#777Издатель (лейбл): The Militia Group
01. The Waters Edge - 2:33
02. Sway Your Head - 3:16
03. LFTP - 4:08
04. Faces - 3:09
05. Perfect Time - 4:00
06. Tunnel Vision - 3:34
07. Julie - 3:12
08. On Your Way - 3:51
09. Hope - 4:13
10. Upon Waking She Found Herself A Cougar - 3:45
11. In The Blue - 4:02
12. Please Shine - 4:22
Код:
Exact Audio Copy V1.0 beta 3 from 29. August 2011
EAC extraction logfile from 12. September 2013, 19:10
We Shot The Moon / Fear And Love
Used drive  : PIONEER DVD-RW  DVR-118L   Adapter: 2  ID: 0
Read mode               : Secure
Utilize accurate stream : Yes
Defeat audio cache      : Yes
Make use of C2 pointers : No
Read offset correction                      : 6
Overread into Lead-In and Lead-Out          : No
Fill up missing offset samples with silence : Yes
Delete leading and trailing silent blocks   : No
Null samples used in CRC calculations       : Yes
Used interface                              : Native Win32 interface for Win NT & 2000
Gap handling                                : Appended to previous track
Used output format              : User Defined Encoder
Selected bitrate                : 1024 kBit/s
Quality                         : High
Add ID3 tag                     : No
Command line compressor         : C:\Program Files (x86)\Exact Audio Copy\Flac\flac.exe
Additional command line options : -8 -V -T "ARTIST=%artist%"
-T "TITLE=%title%" -T "ALBUM=%albumtitle%" -T "DATE=%year%" -T "TRACKNUMBER=%tracknr%" -T "GENRE=%genre%" -T "PERFORMER=%albuminterpret%"
-T "COMPOSER=%composer%" %haslyrics%--tag-from-file=LYRICS="%lyricsfile%"%haslyrics%
-T "ALBUMARTIST=%albumartist%" -T "DISCNUMBER=%cdnumber%"
-T "TOTALDISCS=%totalcds%" -T "TOTALTRACKS=%numtracks%" -T "COMMENT=%comment%" %source% -o %dest%
TOC of the extracted CD
     Track |   Start  |  Length  | Start sector | End sector
    ---------------------------------------------------------
        1  |  0:00.00 |  2:33.70 |         0    |    11544
        2  |  2:33.70 |  3:16.47 |     11545    |    26291
        3  |  5:50.42 |  4:08.63 |     26292    |    44954
        4  |  9:59.30 |  3:09.49 |     44955    |    59178
        5  | 13:09.04 |  4:00.18 |     59179    |    77196
        6  | 17:09.22 |  3:34.74 |     77197    |    93320
        7  | 20:44.21 |  3:12.12 |     93321    |   107732
        8  | 23:56.33 |  3:51.16 |    107733    |   125073
        9  | 27:47.49 |  4:13.06 |    125074    |   144054
       10  | 32:00.55 |  3:45.58 |    144055    |   160987
       11  | 35:46.38 |  4:02.11 |    160988    |   179148
       12  | 39:48.49 |  4:22.45 |    179149    |   198843
Track  1
     Filename D:\CDRip\01 - The Waters Edge.wav
     Pre-gap length  0:00:02.00
     Peak level 97.7 %
     Extraction speed 0.9 X
     Track quality 100.0 %
     Test CRC 450D1914
     Copy CRC 450D1914
     Accurately ripped (confidence 4)  [129265CB]  (AR v1)
     Copy OK
Track  2
     Filename D:\CDRip\02 - Sway Your Head.wav
     Pre-gap length  0:00:01.18
     Peak level 97.7 %
     Extraction speed 1.1 X
     Track quality 100.0 %
     Test CRC 9D0D0012
     Copy CRC 9D0D0012
     Accurately ripped (confidence 4)  [87C14173]  (AR v1)
     Copy OK
Track  3
     Filename D:\CDRip\03 - LFTP.wav
     Pre-gap length  0:00:02.40
     Peak level 97.7 %
     Extraction speed 1.2 X
     Track quality 100.0 %
     Test CRC 0257A148
     Copy CRC 0257A148
     Accurately ripped (confidence 4)  [21FDCF2F]  (AR v1)
     Copy OK
Track  4
     Filename D:\CDRip\04 - Faces.wav
     Pre-gap length  0:00:02.22
     Peak level 97.7 %
     Extraction speed 1.3 X
     Track quality 100.0 %
     Test CRC 61175C11
     Copy CRC 61175C11
     Accurately ripped (confidence 4)  [6BFCA730]  (AR v1)
     Copy OK
Track  5
     Filename D:\CDRip\05 - Perfect Time.wav
     Pre-gap length  0:00:03.02
     Peak level 97.7 %
     Extraction speed 1.4 X
     Track quality 100.0 %
     Test CRC 590A9710
     Copy CRC 590A9710
     Accurately ripped (confidence 4)  [10025845]  (AR v1)
     Copy OK
Track  6
     Filename D:\CDRip\06 - Tunnel Vision.wav
     Pre-gap length  0:00:02.78
     Peak level 97.7 %
     Extraction speed 1.5 X
     Track quality 100.0 %
     Test CRC 1D56574A
     Copy CRC 1D56574A
     Accurately ripped (confidence 4)  [6FF694C6]  (AR v1)
     Copy OK
Track  7
     Filename D:\CDRip\07 - Julie.wav
     Pre-gap length  0:00:01.24
     Peak level 97.7 %
     Extraction speed 1.5 X
     Track quality 100.0 %
     Test CRC C61FB337
     Copy CRC C61FB337
     Accurately ripped (confidence 4)  [128959E9]  (AR v1)
     Copy OK
Track  8
     Filename D:\CDRip\08 - On Your Way.wav
     Pre-gap length  0:00:02.21
     Peak level 97.7 %
     Extraction speed 1.6 X
     Track quality 100.0 %
     Test CRC DCC43039
     Copy CRC DCC43039
     Accurately ripped (confidence 4)  [CA241433]  (AR v1)
     Copy OK
Track  9
     Filename D:\CDRip\09 - Hope.wav
     Pre-gap length  0:00:01.89
     Peak level 97.7 %
     Extraction speed 1.7 X
     Track quality 100.0 %
     Test CRC F224BF8E
     Copy CRC F224BF8E
     Accurately ripped (confidence 4)  [FA7DBD83]  (AR v1)
     Copy OK
Track 10
     Filename D:\CDRip\10 - Upon Waking She Found Herself A Cougar.wav
     Pre-gap length  0:00:01.93
     Peak level 97.7 %
     Extraction speed 1.5 X
     Track quality 99.9 %
     Test CRC 8A043F87
     Copy CRC 8A043F87
     Accurately ripped (confidence 4)  [72003A58]  (AR v1)
     Copy OK
Track 11
     Filename D:\CDRip\11 - In The Blue.wav
     Peak level 97.7 %
     Extraction speed 1.9 X
     Track quality 100.0 %
     Test CRC 1D04B2B3
     Copy CRC 1D04B2B3
     Accurately ripped (confidence 4)  [72FEDB90]  (AR v1)
     Copy OK
Track 12
     Filename D:\CDRip\12 - Please Shine.wav
     Pre-gap length  0:00:01.21
     Peak level 97.7 %
     Extraction speed 1.7 X
     Track quality 99.9 %
     Test CRC 0B77DB15
     Copy CRC 0B77DB15
     Accurately ripped (confidence 4)  [A3277BE7]  (AR v1)
     Copy OK
All tracks accurately ripped
No errors occurred
End of status report
---- CUETools DB Plugin V2.1.3
[CTDB TOCID: nLLcQ1FnToEE4MkRWchifBlTANk-] found, Submit result: nLLcQ1FnToEE4MkRWchifBlTANk- has been uploaded
[c2234730] (1/1) Differs in 31 samples @14:35:58
You can use CUETools to repair this rip.
==== Log checksum 4970620BA8BD530D49E51B937C811D2C999B6B18B295B4F7FB5BAB6E8C69034C ====
Код:
REM DATE 2007
REM DISCID 920A5B0C
REM COMMENT "ExactAudioCopy v1.0b3"
PERFORMER "We Shot The Moon"
TITLE "Fear And Love"
FILE "01 - The Waters Edge.wav" WAVE
  TRACK 01 AUDIO
    TITLE "The Waters Edge"
    PERFORMER "We Shot The Moon"
    ISRC H1iH<0700712
    INDEX 01 00:00:00
  TRACK 02 AUDIO
    TITLE "Sway Your Head"
    PERFORMER "We Shot The Moon"
    ISRC H1iH<0700711
    INDEX 00 02:32:56
FILE "02 - Sway Your Head.wav" WAVE
    INDEX 01 00:00:00
  TRACK 03 AUDIO
    TITLE "LFTP"
    PERFORMER "We Shot The Moon"
    ISRC H1iH<0700710
    INDEX 00 03:14:17
FILE "03 - LFTP.wav" WAVE
    INDEX 01 00:00:00
  TRACK 04 AUDIO
    TITLE "Faces"
    PERFORMER "We Shot The Moon"
    ISRC H1iH<0700706
    INDEX 00 04:06:46
FILE "04 - Faces.wav" WAVE
    INDEX 01 00:00:00
  TRACK 05 AUDIO
    TITLE "Perfect Time"
    PERFORMER "We Shot The Moon"
    ISRC H1iH<0700707
    INDEX 00 03:06:47
FILE "05 - Perfect Time.wav" WAVE
    INDEX 01 00:00:00
  TRACK 06 AUDIO
    TITLE "Tunnel Vision"
    PERFORMER "We Shot The Moon"
    ISRC H1iH<0700730
    INDEX 00 03:57:34
FILE "06 - Tunnel Vision.wav" WAVE
    INDEX 01 00:00:00
  TRACK 07 AUDIO
    TITLE "Julie"
    PERFORMER "We Shot The Moon"
    ISRC H1iH<0700708
    INDEX 00 03:33:56
FILE "07 - Julie.wav" WAVE
    INDEX 01 00:00:00
  TRACK 08 AUDIO
    TITLE "On Your Way"
    PERFORMER "We Shot The Moon"
    ISRC H1iH<0700716
    INDEX 00 03:09:71
FILE "08 - On Your Way.wav" WAVE
    INDEX 01 00:00:00
  TRACK 09 AUDIO
    TITLE "Hope"
    PERFORMER "We Shot The Moon"
    ISRC H1iH<0700714
    INDEX 00 03:49:24
FILE "09 - Hope.wav" WAVE
    INDEX 01 00:00:00
  TRACK 10 AUDIO
    TITLE "Upon Waking She Found Herself A Cougar"
    PERFORMER "We Shot The Moon"
    ISRC H1iH<0700715
    INDEX 00 04:11:11
FILE "10 - Upon Waking She Found Herself A Cougar.wav" WAVE
    INDEX 01 00:00:00
FILE "11 - In The Blue.wav" WAVE
  TRACK 11 AUDIO
    TITLE "In The Blue"
    PERFORMER "We Shot The Moon"
    ISRC H1iH<0700715
    INDEX 01 00:00:00
  TRACK 12 AUDIO
    TITLE "Please Shine"
    PERFORMER "We Shot The Moon"
    ISRC H1iH<0700713
    INDEX 00 04:00:70
FILE "12 - Please Shine.wav" WAVE
    INDEX 01 00:00:00
#777Издатель (лейбл): Afternoon Records
01. Miracle - 3:27
02. Woke Her Up - 3:07
03. Should Have Been - 2:45
04. The Bright Side - 2:20
05. Come Back - 3:24
06. Red Night - 2:49
07. In Good Time - 3:08
08. A Silver Lining - 3:20
09. Amarillo - 3:55
10. Amy - 3:38
11. Candles - 3:02
Код:
Exact Audio Copy V1.0 beta 3 from 29. August 2011
EAC extraction logfile from 12. September 2013, 20:13
We Shot The Moon / A Silver Lining
Used drive  : PIONEER DVD-RW  DVR-118L   Adapter: 2  ID: 0
Read mode               : Secure
Utilize accurate stream : Yes
Defeat audio cache      : Yes
Make use of C2 pointers : No
Read offset correction                      : 6
Overread into Lead-In and Lead-Out          : No
Fill up missing offset samples with silence : Yes
Delete leading and trailing silent blocks   : No
Null samples used in CRC calculations       : Yes
Used interface                              : Native Win32 interface for Win NT & 2000
Gap handling                                : Appended to previous track
Used output format              : User Defined Encoder
Selected bitrate                : 1024 kBit/s
Quality                         : High
Add ID3 tag                     : No
Command line compressor         : C:\Program Files (x86)\Exact Audio Copy\Flac\flac.exe
Additional command line options : -8 -V -T "ARTIST=%artist%" -T "TITLE=%title%" -T "ALBUM=%albumtitle%" -T "DATE=%year%"
-T "TRACKNUMBER=%tracknr%" -T "GENRE=%genre%" -T "PERFORMER=%albuminterpret%"
-T "COMPOSER=%composer%" %haslyrics%--tag-from-file=LYRICS="%lyricsfile%"%haslyrics%
-T "ALBUMARTIST=%albumartist%" -T "DISCNUMBER=%cdnumber%" -T "TOTALDISCS=%totalcds%" -T "TOTALTRACKS=%numtracks%"
-T "COMMENT=%comment%" %source% -o %dest%
TOC of the extracted CD
     Track |   Start  |  Length  | Start sector | End sector
    ---------------------------------------------------------
        1  |  0:00.00 |  3:27.19 |         0    |    15543
        2  |  3:27.19 |  3:07.02 |     15544    |    29570
        3  |  6:34.21 |  2:45.31 |     29571    |    41976
        4  |  9:19.52 |  2:20.33 |     41977    |    52509
        5  | 11:40.10 |  3:24.21 |     52510    |    67830
        6  | 15:04.31 |  2:49.39 |     67831    |    80544
        7  | 17:53.70 |  3:08.29 |     80545    |    94673
        8  | 21:02.24 |  3:20.17 |     94674    |   109690
        9  | 24:22.41 |  3:55.64 |    109691    |   127379
       10  | 28:18.30 |  3:38.23 |    127380    |   143752
       11  | 31:56.53 |  3:02.10 |    143753    |   157412
Track  1
     Filename D:\CDRip\01 - Miracle.wav
     Pre-gap length  0:00:02.00
     Peak level 99.1 %
     Extraction speed 1.0 X
     Track quality 100.0 %
     Test CRC 3606DAF4
     Copy CRC 3606DAF4
     Track not present in AccurateRip database
     Copy OK
Track  2
     Filename D:\CDRip\02 - Woke Her Up.wav
     Peak level 99.1 %
     Extraction speed 1.1 X
     Track quality 100.0 %
     Test CRC 00BFF28D
     Copy CRC 00BFF28D
     Track not present in AccurateRip database
     Copy OK
Track  3
     Filename D:\CDRip\03 - Should Have Been.wav
     Peak level 99.1 %
     Extraction speed 1.1 X
     Track quality 100.0 %
     Test CRC 7CB3CA06
     Copy CRC 7CB3CA06
     Track not present in AccurateRip database
     Copy OK
Track  4
     Filename D:\CDRip\04 - The Bright Side.wav
     Peak level 99.1 %
     Extraction speed 1.0 X
     Track quality 99.9 %
     Test CRC 5BB636F7
     Copy CRC 5BB636F7
     Track not present in AccurateRip database
     Copy OK
Track  5
     Filename D:\CDRip\05 - Come Back.wav
     Peak level 99.1 %
     Extraction speed 1.3 X
     Track quality 100.0 %
     Test CRC DE632AB7
     Copy CRC DE632AB7
     Track not present in AccurateRip database
     Copy OK
Track  6
     Filename D:\CDRip\06 - Red Night.wav
     Peak level 99.1 %
     Extraction speed 1.3 X
     Track quality 100.0 %
     Test CRC B4365691
     Copy CRC B4365691
     Track not present in AccurateRip database
     Copy OK
Track  7
     Filename D:\CDRip\07 - In Good Time.wav
     Peak level 99.1 %
     Extraction speed 1.4 X
     Track quality 100.0 %
     Test CRC 0B0DA772
     Copy CRC 0B0DA772
     Track not present in AccurateRip database
     Copy OK
Track  8
     Filename D:\CDRip\08 - A Silver Lining.wav
     Peak level 99.1 %
     Extraction speed 1.5 X
     Track quality 100.0 %
     Test CRC 5BB0003D
     Copy CRC 5BB0003D
     Track not present in AccurateRip database
     Copy OK
Track  9
     Filename D:\CDRip\09 - Amarillo.wav
     Peak level 99.1 %
     Extraction speed 1.6 X
     Track quality 100.0 %
     Test CRC 7F2AC59F
     Copy CRC 7F2AC59F
     Track not present in AccurateRip database
     Copy OK
Track 10
     Filename D:\CDRip\10 - Amy.wav
     Peak level 99.1 %
     Extraction speed 1.7 X
     Track quality 100.0 %
     Test CRC 65FCBFB5
     Copy CRC 65FCBFB5
     Track not present in AccurateRip database
     Copy OK
Track 11
     Filename D:\CDRip\11 - Candles.wav
     Peak level 99.1 %
     Extraction speed 1.7 X
     Track quality 100.0 %
     Test CRC F996CA90
     Copy CRC F996CA90
     Track not present in AccurateRip database
     Copy OK
None of the tracks are present in the AccurateRip database
No errors occurred
End of status report
---- CUETools DB Plugin V2.1.3
[CTDB TOCID: XkQLyMCJiC9xbPxYpNsS77gBjlo-] found, Submit result: XkQLyMCJiC9xbPxYpNsS77gBjlo- has been confirmed
[8db3cdb9] (1/1) Accurately ripped
==== Log checksum 733025BC30B6B8A6268F3829EE9F1306D6B064AB5902A31B42A672BAB15F1AE4 ====
Код:
REM GENRE Alternative
REM DATE 2009
REM DISCID 8708320B
REM COMMENT "ExactAudioCopy v1.0b3"
PERFORMER "We Shot The Moon"
TITLE "A Silver Lining"
FILE "01 - Miracle.wav" WAVE
  TRACK 01 AUDIO
    TITLE "Miracle"
    PERFORMER "We Shot The Moon"
    INDEX 01 00:00:00
FILE "02 - Woke Her Up.wav" WAVE
  TRACK 02 AUDIO
    TITLE "Woke Her Up"
    PERFORMER "We Shot The Moon"
    INDEX 01 00:00:00
FILE "03 - Should Have Been.wav" WAVE
  TRACK 03 AUDIO
    TITLE "Should Have Been"
    PERFORMER "We Shot The Moon"
    INDEX 01 00:00:00
FILE "04 - The Bright Side.wav" WAVE
  TRACK 04 AUDIO
    TITLE "The Bright Side"
    PERFORMER "We Shot The Moon"
    INDEX 01 00:00:00
FILE "05 - Come Back.wav" WAVE
  TRACK 05 AUDIO
    TITLE "Come Back"
    PERFORMER "We Shot The Moon"
    INDEX 01 00:00:00
FILE "06 - Red Night.wav" WAVE
  TRACK 06 AUDIO
    TITLE "Red Night"
    PERFORMER "We Shot The Moon"
    INDEX 01 00:00:00
FILE "07 - In Good Time.wav" WAVE
  TRACK 07 AUDIO
    TITLE "In Good Time"
    PERFORMER "We Shot The Moon"
    INDEX 01 00:00:00
FILE "08 - A Silver Lining.wav" WAVE
  TRACK 08 AUDIO
    TITLE "A Silver Lining"
    PERFORMER "We Shot The Moon"
    INDEX 01 00:00:00
FILE "09 - Amarillo.wav" WAVE
  TRACK 09 AUDIO
    TITLE "Amarillo"
    PERFORMER "We Shot The Moon"
    INDEX 01 00:00:00
FILE "10 - Amy.wav" WAVE
  TRACK 10 AUDIO
    TITLE "Amy"
    PERFORMER "We Shot The Moon"
    INDEX 01 00:00:00
FILE "11 - Candles.wav" WAVE
  TRACK 11 AUDIO
    TITLE "Candles"
    PERFORMER "We Shot The Moon"
    INDEX 01 00:00:00
#777Издатель (лейбл): Amazon
01. Patient - 3:28
02. Breakdown - 3:19
03. Me Vs Myself - 3:57
04. Love And Fear - 3:30
05. We Can Wait - 3:41
06. Sonrisa - 3:24
07. When I’m Gone - 4:05
08. Forgive - 3:37
09. Scars - 3:13
10. Blind - 3:47
Код:
Exact Audio Copy V1.0 beta 3 from 29. August 2011
EAC extraction logfile from 14. February 2013, 23:23
We Shot the Moon / Love and Fear
Used drive  : PIONEER DVD-RW  DVR-118L   Adapter: 2  ID: 0
Read mode               : Secure
Utilize accurate stream : Yes
Defeat audio cache      : Yes
Make use of C2 pointers : No
Read offset correction                      : 6
Overread into Lead-In and Lead-Out          : No
Fill up missing offset samples with silence : Yes
Delete leading and trailing silent blocks   : No
Null samples used in CRC calculations       : Yes
Used interface                              : Native Win32 interface for Win NT & 2000
Gap handling                                : Appended to previous track
Used output format              : User Defined Encoder
Selected bitrate                : 1024 kBit/s
Quality                         : High
Add ID3 tag                     : No
Command line compressor         : C:\Program Files (x86)\Exact Audio Copy\Flac\flac.exe
Additional command line options : -8 -V -T "ARTIST=%artist%" -T "TITLE=%title%"
-T "ALBUM=%albumtitle%" -T "DATE=%year%" -T "TRACKNUMBER=%tracknr%"
-T "GENRE=%genre%" -T "PERFORMER=%albuminterpret%"
-T "COMPOSER=%composer%" %haslyrics%--tag-from-file=LYRICS="%lyricsfile%"%haslyrics%
-T "ALBUMARTIST=%albumartist%" -T "DISCNUMBER=%cdnumber%" -T "TOTALDISCS=%totalcds%"
-T "TOTALTRACKS=%numtracks%" -T "COMMENT=%comment%" %source% -o %dest%
TOC of the extracted CD
     Track |   Start  |  Length  | Start sector | End sector
    ---------------------------------------------------------
        1  |  0:00.00 |  3:27.58 |         0    |    15582
        2  |  3:27.58 |  3:19.15 |     15583    |    30522
        3  |  6:46.73 |  3:56.74 |     30523    |    48296
        4  | 10:43.72 |  3:29.63 |     48297    |    64034
        5  | 14:13.60 |  3:40.56 |     64035    |    80590
        6  | 17:54.41 |  3:23.55 |     80591    |    95870
        7  | 21:18.21 |  4:04.39 |     95871    |   114209
        8  | 25:22.60 |  3:36.70 |    114210    |   130479
        9  | 28:59.55 |  3:13.19 |    130480    |   144973
       10  | 32:12.74 |  3:46.62 |    144974    |   161985
Track  1
     Filename D:\CDRip\01 - Patient.wav
     Pre-gap length  0:00:02.00
     Peak level 98.6 %
     Extraction speed 1.2 X
     Track quality 100.0 %
     Test CRC 0997B275
     Copy CRC 0997B275
     Track not present in AccurateRip database
     Copy OK
Track  2
     Filename D:\CDRip\02 - Breakdown.wav
     Peak level 98.7 %
     Extraction speed 1.1 X
     Track quality 99.9 %
     Test CRC 069FF6E5
     Copy CRC 069FF6E5
     Track not present in AccurateRip database
     Copy OK
Track  3
     Filename D:\CDRip\03 - Me Vs Myself.wav
     Peak level 98.7 %
     Extraction speed 1.4 X
     Track quality 100.0 %
     Test CRC ABC25DAD
     Copy CRC ABC25DAD
     Track not present in AccurateRip database
     Copy OK
Track  4
     Filename D:\CDRip\04 - Love and Fear.wav
     Peak level 100.0 %
     Extraction speed 1.2 X
     Track quality 99.9 %
     Test CRC D2AED4CA
     Copy CRC D2AED4CA
     Track not present in AccurateRip database
     Copy OK
Track  5
     Filename D:\CDRip\05 - We Can Wait.wav
     Peak level 99.0 %
     Extraction speed 1.3 X
     Track quality 99.9 %
     Test CRC BB8250E2
     Copy CRC BB8250E2
     Track not present in AccurateRip database
     Copy OK
Track  6
     Filename D:\CDRip\06 - Sonrisa.wav
     Peak level 98.8 %
     Extraction speed 1.6 X
     Track quality 100.0 %
     Test CRC 21AD1116
     Copy CRC 21AD1116
     Track not present in AccurateRip database
     Copy OK
Track  7
     Filename D:\CDRip\07 - When I'm Gone.wav
     Peak level 98.7 %
     Extraction speed 1.7 X
     Track quality 100.0 %
     Test CRC 92C3D0B7
     Copy CRC 92C3D0B7
     Track not present in AccurateRip database
     Copy OK
Track  8
     Filename D:\CDRip\08 - Forgive.wav
     Peak level 98.9 %
     Extraction speed 1.8 X
     Track quality 100.0 %
     Test CRC 70DAB2B9
     Copy CRC 70DAB2B9
     Track not present in AccurateRip database
     Copy OK
Track  9
     Filename D:\CDRip\09 - Scars.wav
     Peak level 98.5 %
     Extraction speed 1.8 X
     Track quality 100.0 %
     Test CRC A6EB8C34
     Copy CRC A6EB8C34
     Track not present in AccurateRip database
     Copy OK
Track 10
     Filename D:\CDRip\10 - Blind.wav
     Peak level 98.5 %
     Extraction speed 1.9 X
     Track quality 100.0 %
     Test CRC 56A3F017
     Copy CRC 56A3F017
     Track not present in AccurateRip database
     Copy OK
None of the tracks are present in the AccurateRip database
No errors occurred
End of status report
---- CUETools DB Plugin V2.1.3
[CTDB TOCID: q_51_dnfNjxsK3hVgK7yS4cFqqU-] disk not present in database, Submit result: q_51_dnfNjxsK3hVgK7yS4cFqqU- has been uploaded
==== Log checksum D15DE2C5915E800C8B318CCDD2F94CECB3FA8B19A7A4C341D6565367E06F49E0 ====
Код:
REM DATE 2012
REM DISCID 7D086F0A
REM COMMENT "ExactAudioCopy v1.0b3"
PERFORMER "We Shot the Moon"
TITLE "Love and Fear"
FILE "01 - Patient.wav" WAVE
  TRACK 01 AUDIO
    TITLE "Patient"
    PERFORMER "We Shot the Moon"
    INDEX 01 00:00:00
FILE "02 - Breakdown.wav" WAVE
  TRACK 02 AUDIO
    TITLE "Breakdown"
    PERFORMER "We Shot the Moon"
    INDEX 01 00:00:00
FILE "03 - Me Vs Myself.wav" WAVE
  TRACK 03 AUDIO
    TITLE "Me Vs Myself"
    PERFORMER "We Shot the Moon"
    INDEX 01 00:00:00
FILE "04 - Love and Fear.wav" WAVE
  TRACK 04 AUDIO
    TITLE "Love and Fear"
    PERFORMER "We Shot the Moon"
    INDEX 01 00:00:00
FILE "05 - We Can Wait.wav" WAVE
  TRACK 05 AUDIO
    TITLE "We Can Wait"
    PERFORMER "We Shot the Moon"
    INDEX 01 00:00:00
FILE "06 - Sonrisa.wav" WAVE
  TRACK 06 AUDIO
    TITLE "Sonrisa"
    PERFORMER "We Shot the Moon"
    INDEX 01 00:00:00
FILE "07 - When I'm Gone.wav" WAVE
  TRACK 07 AUDIO
    TITLE "When I'm Gone"
    PERFORMER "We Shot the Moon"
    INDEX 01 00:00:00
FILE "08 - Forgive.wav" WAVE
  TRACK 08 AUDIO
    TITLE "Forgive"
    PERFORMER "We Shot the Moon"
    INDEX 01 00:00:00
FILE "09 - Scars.wav" WAVE
  TRACK 09 AUDIO
    TITLE "Scars"
    PERFORMER "We Shot the Moon"
    INDEX 01 00:00:00
FILE "10 - Blind.wav" WAVE
  TRACK 10 AUDIO
    TITLE "Blind"
    PERFORMER "We Shot the Moon"
    INDEX 01 00:00:00
#77701. Minute Land - 4:22
02. Claim Me - 4:05
03. Araby (Lie #17) - 4:33
04. Pressure - 3:55
05. Story Bridge - 4:22
06. The Map - 4:16
07. Monsters - 3:32
08. Smile - 3:11
09. How To Move On - 4:13
10. Maybe By May - 4:00
11. Love On - 3:30
Издатель (лейбл): Amazon
Код:
Exact Audio Copy V1.0 beta 3 from 29. August 2011
EAC extraction logfile from 11. September 2013, 23:15
We Shot the Moon / Love On
Used drive  : PIONEER DVD-RW  DVR-118L   Adapter: 2  ID: 0
Read mode               : Secure
Utilize accurate stream : Yes
Defeat audio cache      : Yes
Make use of C2 pointers : No
Read offset correction                      : 6
Overread into Lead-In and Lead-Out          : No
Fill up missing offset samples with silence : Yes
Delete leading and trailing silent blocks   : No
Null samples used in CRC calculations       : Yes
Used interface                              : Native Win32 interface for Win NT & 2000
Gap handling                                : Appended to previous track
Used output format              : User Defined Encoder
Selected bitrate                : 1024 kBit/s
Quality                         : High
Add ID3 tag                     : No
Command line compressor         : C:\Program Files (x86)\Exact Audio Copy\Flac\flac.exe
Additional command line options : -8 -V -T "ARTIST=%artist%" -T "TITLE=%title%"
-T "ALBUM=%albumtitle%" -T "DATE=%year%" -T "TRACKNUMBER=%tracknr%"
-T "GENRE=%genre%" -T "PERFORMER=%albuminterpret%" -T "COMPOSER=%composer%" %haslyrics%--tag-from-file=LYRICS="%lyricsfile%"%haslyrics%
-T "ALBUMARTIST=%albumartist%" -T "DISCNUMBER=%cdnumber%"
-T "TOTALDISCS=%totalcds%" -T "TOTALTRACKS=%numtracks%"
-T "COMMENT=%comment%" %source% -o %dest%
TOC of the extracted CD
     Track |   Start  |  Length  | Start sector | End sector
    ---------------------------------------------------------
        1  |  0:00.00 |  4:22.14 |         0    |    19663
        2  |  4:22.14 |  4:05.60 |     19664    |    38098
        3  |  8:27.74 |  4:33.35 |     38099    |    58608
        4  | 13:01.34 |  3:55.34 |     58609    |    76267
        5  | 16:56.68 |  4:22.18 |     76268    |    95935
        6  | 21:19.11 |  4:16.67 |     95936    |   115202
        7  | 25:36.03 |  3:32.07 |    115203    |   131109
        8  | 29:08.10 |  3:11.02 |    131110    |   145436
        9  | 32:19.12 |  4:13.72 |    145437    |   164483
       10  | 36:33.09 |  4:00.05 |    164484    |   182488
       11  | 40:33.14 |  3:30.25 |    182489    |   198263
Track  1
     Filename D:\CDRip\01 - Minute Land.wav
     Pre-gap length  0:00:02.00
     Peak level 98.5 %
     Extraction speed 1.2 X
     Track quality 100.0 %
     Test CRC EA8E74A0
     Copy CRC EA8E74A0
     Track not present in AccurateRip database
     Copy OK
Track  2
     Filename D:\CDRip\02 - Claim Me.wav
     Peak level 98.8 %
     Extraction speed 1.3 X
     Track quality 100.0 %
     Test CRC 808E7EA4
     Copy CRC 808E7EA4
     Track not present in AccurateRip database
     Copy OK
Track  3
     Filename D:\CDRip\03 - Araby (Lie #17).wav
     Peak level 98.7 %
     Extraction speed 1.5 X
     Track quality 100.0 %
     Test CRC 36CACE8F
     Copy CRC 36CACE8F
     Track not present in AccurateRip database
     Copy OK
Track  4
     Filename D:\CDRip\04 - Pressure.wav
     Peak level 98.5 %
     Extraction speed 1.5 X
     Track quality 100.0 %
     Test CRC 33415538
     Copy CRC 33415538
     Track not present in AccurateRip database
     Copy OK
Track  5
     Filename D:\CDRip\05 - Story Bridge.wav
     Peak level 99.0 %
     Extraction speed 1.5 X
     Track quality 99.9 %
     Test CRC F50D4AB9
     Copy CRC F50D4AB9
     Track not present in AccurateRip database
     Copy OK
Track  6
     Filename D:\CDRip\06 - The Map.wav
     Peak level 98.4 %
     Extraction speed 1.7 X
     Track quality 100.0 %
     Test CRC A53DA798
     Copy CRC A53DA798
     Track not present in AccurateRip database
     Copy OK
Track  7
     Filename D:\CDRip\07 - Monsters.wav
     Peak level 98.9 %
     Extraction speed 1.8 X
     Track quality 100.0 %
     Test CRC 00552139
     Copy CRC 00552139
     Track not present in AccurateRip database
     Copy OK
Track  8
     Filename D:\CDRip\08 - Smile.wav
     Peak level 98.6 %
     Extraction speed 1.8 X
     Track quality 100.0 %
     Test CRC 7299E8D8
     Copy CRC 7299E8D8
     Track not present in AccurateRip database
     Copy OK
Track  9
     Filename D:\CDRip\09 - How To Move On.wav
     Peak level 98.6 %
     Extraction speed 1.7 X
     Track quality 99.9 %
     Test CRC C2CA81BE
     Copy CRC C2CA81BE
     Track not present in AccurateRip database
     Copy OK
Track 10
     Filename D:\CDRip\10 - Maybe By May.wav
     Peak level 98.5 %
     Extraction speed 2.0 X
     Track quality 100.0 %
     Test CRC B0C06BD1
     Copy CRC B0C06BD1
     Track not present in AccurateRip database
     Copy OK
Track 11
     Filename D:\CDRip\11 - Love On.wav
     Peak level 98.6 %
     Extraction speed 2.0 X
     Track quality 100.0 %
     Test CRC 4DAC21C3
     Copy CRC 4DAC21C3
     Track not present in AccurateRip database
     Copy OK
None of the tracks are present in the AccurateRip database
No errors occurred
End of status report
---- CUETools DB Plugin V2.1.3
[CTDB TOCID: Yvre0NSw0pvx1t8hatKPvXyuG6Y-] disk not present in database, Submit result: Yvre0NSw0pvx1t8hatKPvXyuG6Y- has been uploaded
==== Log checksum 98667F2418893FF38A86C150739F79C815A98CA5462CF0491C4E18AFDA806192 ====
Код:
REM DATE 2013
REM DISCID 900A530B
REM COMMENT "ExactAudioCopy v1.0b3"
PERFORMER "We Shot the Moon"
TITLE "Love On"
FILE "01 - Minute Land.wav" WAVE
  TRACK 01 AUDIO
    TITLE "Minute Land"
    PERFORMER "We Shot the Moon"
    ISRC 000000000000
    INDEX 01 00:00:00
FILE "02 - Claim Me.wav" WAVE
  TRACK 02 AUDIO
    TITLE "Claim Me"
    PERFORMER "We Shot the Moon"
    ISRC 000000000000
    INDEX 01 00:00:00
FILE "03 - Araby (Lie #17).wav" WAVE
  TRACK 03 AUDIO
    TITLE "Araby (Lie #17)"
    PERFORMER "We Shot the Moon"
    ISRC 000000000000
    INDEX 01 00:00:00
FILE "04 - Pressure.wav" WAVE
  TRACK 04 AUDIO
    TITLE "Pressure"
    PERFORMER "We Shot the Moon"
    ISRC 000000000000
    INDEX 01 00:00:00
FILE "05 - Story Bridge.wav" WAVE
  TRACK 05 AUDIO
    TITLE "Story Bridge"
    PERFORMER "We Shot the Moon"
    ISRC 000000000000
    INDEX 01 00:00:00
FILE "06 - The Map.wav" WAVE
  TRACK 06 AUDIO
    TITLE "The Map"
    PERFORMER "We Shot the Moon"
    ISRC 000000000000
    INDEX 01 00:00:00
FILE "07 - Monsters.wav" WAVE
  TRACK 07 AUDIO
    TITLE "Monsters"
    PERFORMER "We Shot the Moon"
    ISRC 000000000000
    INDEX 01 00:00:00
FILE "08 - Smile.wav" WAVE
  TRACK 08 AUDIO
    TITLE "Smile"
    PERFORMER "We Shot the Moon"
    ISRC 000000000000
    INDEX 01 00:00:00
FILE "09 - How To Move On.wav" WAVE
  TRACK 09 AUDIO
    TITLE "How To Move On"
    PERFORMER "We Shot the Moon"
    ISRC 000000000000
    INDEX 01 00:00:00
FILE "10 - Maybe By May.wav" WAVE
  TRACK 10 AUDIO
    TITLE "Maybe By May"
    PERFORMER "We Shot the Moon"
    ISRC 000000000000
    INDEX 01 00:00:00
FILE "11 - Love On.wav" WAVE
  TRACK 11 AUDIO
    TITLE "Love On"
    PERFORMER "We Shot the Moon"
    ISRC 000000000000
    INDEX 01 00:00:00
ТОЛЬКО СВОИ РИПЫ!
Правила, инструкции, FAQ!!!
Торрент  Добавлен [26 мар 2019, 19:59] Скачать торрент Магнет ссылка
Скачать торрент
[ Размер 25.34 КБ / Просмотров 0 ]

Статус
Проверен 
 
Размер  1.71 ГБ
Приватный: Нет (DHT включён)
.torrent скачан  0
 


     Отправить личное сообщение
   
Страница 1 из 1
Показать сообщения за:  Поле сортировки  
Начать новую тему Ответить на тему


Сейчас этот форум просматривают: нет зарегистрированных пользователей и гости: 0


Вы не можете начинать темы
Вы не можете отвечать на сообщения
Вы не можете редактировать свои сообщения
Вы не можете удалять свои сообщения
Вы не можете добавлять вложения

Перейти:  
cron