Начать новую тему Ответить на тему
Статистика раздачи
Размер: 369.74 МБ | Добавлен: 26 мар 2019, 19:29 | Скачали: 0
Сидеров: 0  [0 байт/сек]    Личеров: 0  [0 байт/сек]
Пред. тема | След. тема 

Автор
Сообщение

СообщениеДобавлено: 26 мар 2019, 19:29 

Ответить с цитатой 

Karkkiautomaatti / Suudelmilla
Жанр: Pop Rock, Indie Rock
Носитель: CD
Год издания: 1998
Издатель (лейбл): Hawaii Sounds ‎
Номер по каталогу: HAWAII-04
Страна исполнителя (группы): Finland
Аудиокодек: FLAC (*.flac)
Тип рипа: tracks+.cue
Битрейт аудио: lossless
Продолжительность: 00:57:15
Источник (релизер): локальная сеть
Наличие сканов в содержимом раздачи: нет
Треклист:
1 Rio Wamba 3:47
2 Arvoitus On Meille Poika Tuo 2:17
3 Seikkailuun 3:33
4 Nyt Heitän Arpakuution 3:15
5 Toinen Onneen Vie 4:03
6 Yks-Kaks-Motocross 3:11
7 Minne Vaan 6:00
8 Parisuhteen Aakkoset 3:58
9 Mä Tahdon Romanssin 3:39
10 Voi Kuinka On Tää Maailmain 3:49
11 Kemijoki 7:43
12 Susan 5:06
13 Wambada 0:47
14 Kaks-Kol-Motocross (Chinon & Rhodes Remix) 5:30
Код:
Exact Audio Copy V0.99 prebeta 5 from 4. May 2009
EAC extraction logfile from 24. August 2010, 1:32
Karkkiautomaatti / Suudelmilla
Used drive  : TSSTcorpCDDVDW SH-S223F   Adapter: 1  ID: 0
Read mode               : Secure
Utilize accurate stream : Yes
Defeat audio cache      : No
Make use of C2 pointers : No
Read offset correction                      : 6
Overread into Lead-In and Lead-Out          : No
Fill up missing offset samples with silence : Yes
Delete leading and trailing silent blocks   : No
Null samples used in CRC calculations       : Yes
Used interface                              : Installed external ASPI interface
Gap handling                                : Appended to previous track
Used output format              : User Defined Encoder
Selected bitrate                : 768 kBit/s
Quality                         : High
Add ID3 tag                     : No
Command line compressor         : C:\Ohjelmatiedostot\Exact Audio Copy\FLAC\FLAC.EXE
Additional command line options : -8 -V -T "ARTIST=%a" -T "TITLE=%t" -T "ALBUM=%g" -T "DATE=%y" -T "TRACKNUMBER=%n" -T "GENRE=%m" -T "COMMENT=%e" %s -o %d
TOC of the extracted CD
     Track |   Start  |  Length  | Start sector | End sector
    ---------------------------------------------------------
        1  |  0:00.00 |  3:47.02 |         0    |    17026
        2  |  3:47.02 |  2:18.00 |     17027    |    27376
        3  |  6:05.02 |  3:33.28 |     27377    |    43379
        4  |  9:38.30 |  3:17.55 |     43380    |    58209
        5  | 12:56.10 |  4:03.55 |     58210    |    76489
        6  | 16:59.65 |  3:10.72 |     76490    |    90811
        7  | 20:10.62 |  6:00.28 |     90812    |   117839
        8  | 26:11.15 |  4:00.50 |    117840    |   135889
        9  | 30:11.65 |  3:42.50 |    135890    |   152589
       10  | 33:54.40 |  3:48.60 |    152590    |   169749
       11  | 37:43.25 |  8:11.20 |    169750    |   206594
       12  | 45:54.45 |  5:08.20 |    206595    |   229714
       13  | 51:02.65 |  0:48.00 |    229715    |   233314
       14  | 51:50.65 |  5:30.17 |    233315    |   258081
Track  1
     Filename C:\eac rips\Karkkiautomaatti - Suudelmilla (1998)\01 - Rio Wamba.wav
     Pre-gap length  0:00:02.00
     Peak level 98.8 %
     Track quality 100.0 %
     Test CRC FDEE5814
     Copy CRC FDEE5814
     Track not present in AccurateRip database
     Copy OK
Track  2
     Filename C:\eac rips\Karkkiautomaatti - Suudelmilla (1998)\02 - Arvoitus on meille poika tuo.wav
     Peak level 98.8 %
     Track quality 100.0 %
     Test CRC 66C8A065
     Copy CRC 66C8A065
     Track not present in AccurateRip database
     Copy OK
Track  3
     Filename C:\eac rips\Karkkiautomaatti - Suudelmilla (1998)\03 - Seikkailuun.wav
     Peak level 95.6 %
     Track quality 100.0 %
     Test CRC 0211B777
     Copy CRC 0211B777
     Track not present in AccurateRip database
     Copy OK
Track  4
     Filename C:\eac rips\Karkkiautomaatti - Suudelmilla (1998)\04 - Nyt heitдn arpakuution.wav
     Peak level 98.8 %
     Track quality 100.0 %
     Test CRC DA25EA06
     Copy CRC DA25EA06
     Track not present in AccurateRip database
     Copy OK
Track  5
     Filename C:\eac rips\Karkkiautomaatti - Suudelmilla (1998)\05 - Toinen onneen vie.wav
     Pre-gap length  0:00:02.24
     Peak level 98.8 %
     Track quality 99.9 %
     Test CRC D96A08DA
     Copy CRC D96A08DA
     Track not present in AccurateRip database
     Copy OK
Track  6
     Filename C:\eac rips\Karkkiautomaatti - Suudelmilla (1998)\06 - Yks-kaks-motocross.wav
     Peak level 97.9 %
     Track quality 100.0 %
     Test CRC 5265AAA5
     Copy CRC 5265AAA5
     Track not present in AccurateRip database
     Copy OK
Track  7
     Filename C:\eac rips\Karkkiautomaatti - Suudelmilla (1998)\07 - Minne vaan.wav
     Pre-gap length  0:00:00.01
     Peak level 98.8 %
     Track quality 100.0 %
     Test CRC 4360B8A1
     Copy CRC 4360B8A1
     Track not present in AccurateRip database
     Copy OK
Track  8
     Filename C:\eac rips\Karkkiautomaatti - Suudelmilla (1998)\08 - Parisuhteen aakkoset.wav
     Pre-gap length  0:00:01.20
     Peak level 93.6 %
     Track quality 100.0 %
     Test CRC 19CD6A78
     Copy CRC 19CD6A78
     Track not present in AccurateRip database
     Copy OK
Track  9
     Filename C:\eac rips\Karkkiautomaatti - Suudelmilla (1998)\09 - Mд tahdon romanssin.wav
     Pre-gap length  0:00:02.30
     Peak level 98.8 %
     Track quality 100.0 %
     Test CRC 70137753
     Copy CRC 70137753
     Track not present in AccurateRip database
     Copy OK
Track 10
     Filename C:\eac rips\Karkkiautomaatti - Suudelmilla (1998)\10 - Voi kuinka on tдд maailmain.wav
     Pre-gap length  0:00:03.24
     Peak level 93.6 %
     Track quality 99.9 %
     Test CRC 7E07F96A
     Copy CRC 7E07F96A
     Track not present in AccurateRip database
     Copy OK
Track 11
     Filename C:\eac rips\Karkkiautomaatti - Suudelmilla (1998)\11 - Kemijoki.wav
     Peak level 98.8 %
     Track quality 100.0 %
     Test CRC C412DAD1
     Copy CRC C412DAD1
     Track not present in AccurateRip database
     Copy OK
Track 12
     Filename C:\eac rips\Karkkiautomaatti - Suudelmilla (1998)\12 - Susan.wav
     Pre-gap length  0:00:28.33
     Peak level 98.8 %
     Track quality 100.0 %
     Test CRC 1C000A55
     Copy CRC 1C000A55
     Track not present in AccurateRip database
     Copy OK
Track 13
     Filename C:\eac rips\Karkkiautomaatti - Suudelmilla (1998)\13 - Wambada.wav
     Pre-gap length  0:00:02.13
     Peak level 83.4 %
     Track quality 100.0 %
     Test CRC BE7692CA
     Copy CRC BE7692CA
     Track not present in AccurateRip database
     Copy OK
Track 14
     Filename C:\eac rips\Karkkiautomaatti - Suudelmilla (1998)\14 - Kaks-kol-motocross (Chinon & Rhodes remix).wav
     Peak level 88.1 %
     Track quality 100.0 %
     Test CRC E8646584
     Copy CRC E8646584
     Track not present in AccurateRip database
     Copy OK
None of the tracks are present in the AccurateRip database
No errors occurred
End of status report
Код:
REM GENRE Pop
REM DATE 1998
REM DISCID AB0D710E
REM COMMENT "ExactAudioCopy v0.99pb5"
FILE "Karkkiautomaatti - Suudelmilla (1998)\01 - Rio Wamba.wav" WAVE
  TRACK 01 AUDIO
    INDEX 01 00:00:00
FILE "Karkkiautomaatti - Suudelmilla (1998)\02 - Arvoitus on meille poika tuo.wav" WAVE
  TRACK 02 AUDIO
    INDEX 01 00:00:00
FILE "Karkkiautomaatti - Suudelmilla (1998)\03 - Seikkailuun.wav" WAVE
  TRACK 03 AUDIO
    INDEX 01 00:00:00
FILE "Karkkiautomaatti - Suudelmilla (1998)\04 - Nyt heitдn arpakuution.wav" WAVE
  TRACK 04 AUDIO
    INDEX 01 00:00:00
  TRACK 05 AUDIO
    INDEX 00 03:15:37
FILE "Karkkiautomaatti - Suudelmilla (1998)\05 - Toinen onneen vie.wav" WAVE
    INDEX 01 00:00:00
FILE "Karkkiautomaatti - Suudelmilla (1998)\06 - Yks-kaks-motocross.wav" WAVE
  TRACK 06 AUDIO
    INDEX 01 00:00:00
  TRACK 07 AUDIO
    INDEX 00 03:10:71
FILE "Karkkiautomaatti - Suudelmilla (1998)\07 - Minne vaan.wav" WAVE
    INDEX 01 00:00:00
  TRACK 08 AUDIO
    INDEX 00 05:59:13
FILE "Karkkiautomaatti - Suudelmilla (1998)\08 - Parisuhteen aakkoset.wav" WAVE
    INDEX 01 00:00:00
  TRACK 09 AUDIO
    INDEX 00 03:58:27
FILE "Karkkiautomaatti - Suudelmilla (1998)\09 - Mд tahdon romanssin.wav" WAVE
    INDEX 01 00:00:00
  TRACK 10 AUDIO
    INDEX 00 03:39:32
FILE "Karkkiautomaatti - Suudelmilla (1998)\10 - Voi kuinka on tдд maailmain.wav" WAVE
    INDEX 01 00:00:00
FILE "Karkkiautomaatti - Suudelmilla (1998)\11 - Kemijoki.wav" WAVE
  TRACK 11 AUDIO
    INDEX 01 00:00:00
  TRACK 12 AUDIO
    INDEX 00 07:42:70
FILE "Karkkiautomaatti - Suudelmilla (1998)\12 - Susan.wav" WAVE
    INDEX 01 00:00:00
  TRACK 13 AUDIO
    INDEX 00 05:06:10
FILE "Karkkiautomaatti - Suudelmilla (1998)\13 - Wambada.wav" WAVE
    INDEX 01 00:00:00
FILE "Karkkiautomaatti - Suudelmilla (1998)\14 - Kaks-kol-motocross (Chinon & Rhodes remix).wav" WAVE
  TRACK 14 AUDIO
    INDEX 01 00:00:00
Код:
AUDIOCHECKER v2.0 beta (build 457) - by Dester - opdester@freemail.hu
~~~~~~~~~~~~~~~~~~~~~~~~~~~~~~~~~~
-=== DO NOT EDIT THIS FILE! ===-
Path: ...\1998 - Suudelmilla
01 -=- 01 - Rio Wamba.flac -=- CDDA (100%)
02 -=- 02 - Arvoitus on meille poika tuo.flac -=- CDDA (100%)
03 -=- 03 - Seikkailuun.flac -=- CDDA (100%)
04 -=- 04 - Nyt heitan arpakuution.flac -=- ERROR
05 -=- 05 - Toinen onneen vie.flac -=- CDDA (100%)
06 -=- 06 - Yks-kaks-motocross.flac -=- CDDA (100%)
07 -=- 07 - Minne vaan.flac -=- CDDA (100%)
08 -=- 08 - Parisuhteen aakkoset.flac -=- CDDA (100%)
09 -=- 09 - Ma tahdon romanssin.flac -=- ERROR
10 -=- 10 - Voi kuinka on taa maailmain.flac -=- ERROR
11 -=- 11 - Kemijoki.flac -=- CDDA (100%)
12 -=- 12 - Susan.flac -=- CDDA (100%)
13 -=- 13 - Wambada.flac -=- CDDA (100%)
14 -=- 14 - Kaks-kol-motocross (Chinon & Rhodes remix).flac -=- CDDA (100%)
Summary 100,00% CDDA
106885764
Правила, инструкции, FAQ!!!
Торрент  Добавлен [26 мар 2019, 19:29] Скачать торрент Магнет ссылка
Скачать торрент
[ Размер 15.87 КБ / Просмотров 1 ]

Статус
Проверен 
 
Размер  369.74 МБ
Приватный: Нет (DHT включён)
.torrent скачан  0
 


     Отправить личное сообщение
   
Страница 1 из 1
Показать сообщения за:  Поле сортировки  
Начать новую тему Ответить на тему


Сейчас этот форум просматривают: нет зарегистрированных пользователей и гости: 0


Вы не можете начинать темы
Вы не можете отвечать на сообщения
Вы не можете редактировать свои сообщения
Вы не можете удалять свои сообщения
Вы не можете добавлять вложения

Перейти:  
cron