Начать новую тему Ответить на тему
Статистика раздачи
Размер: 216.58 МБ | Добавлен: 26 мар 2019, 20:35 | Скачали: 0
Сидеров: 1  [0 байт/сек]    Личеров: 0  [0 байт/сек]
Пред. тема | След. тема 

Автор
Сообщение

СообщениеДобавлено: 26 мар 2019, 20:35 

Ответить с цитатой 

Artur Rojek - Składam się z ciągłych powtórzeń
Жанр: Pop Rock, Indie Rock
Носитель: CD
Страна-производитель диска: Poland
Год издания: 2014
Издатель (лейбл): Kayax Production
Номер по каталогу: KAYAX 071
Страна: Poland
Аудиокодек: FLAC (*.flac)
Тип рипа: tracks+.cue
Битрейт аудио: lossless
Продолжительность: 35:11
Источник (релизер): personpl
Наличие сканов в содержимом раздачи: да
.
Треклист:
01.Lato 76 (04:06)
02.Beksa (04:01)
03.Krótkie momenty skupienia (03:39)
04.Czas który pozostał (03:59)
05.Kot i Pelikan (03:59)
06.Kokon (02:44)
07.To co będzie (03:15)
08.Syreny (03:36)
09.Lekkość (03:41)
10.Pomysł 2 (02:08)
Код:
REM GENRE General Alternative Rock
REM DATE 2014
REM COMMENT TPB FTW!
PERFORMER "Artur Rojek"
TITLE "Składam się z ciągłych powtórzeń"
REM REPLAYGAIN_ALBUM_GAIN -8.44 dB
REM REPLAYGAIN_ALBUM_PEAK 1.000000
FILE "01 - Artur Rojek - Lato 76.flac" WAVE
  TRACK 01 AUDIO
    TITLE "Lato 76"
    PERFORMER "Artur Rojek"
    REM REPLAYGAIN_TRACK_GAIN -6.99 dB
    REM REPLAYGAIN_TRACK_PEAK 0.981934
    INDEX 01 00:00:00
FILE "02 - Artur Rojek - Beksa.flac" WAVE
  TRACK 02 AUDIO
    TITLE "Beksa"
    PERFORMER "Artur Rojek"
    REM REPLAYGAIN_TRACK_GAIN -9.72 dB
    REM REPLAYGAIN_TRACK_PEAK 0.988403
    INDEX 01 00:00:00
FILE "03 - Artur Rojek - Krótkie momenty skupienia.flac" WAVE
  TRACK 03 AUDIO
    TITLE "Krótkie momenty skupienia"
    PERFORMER "Artur Rojek"
    REM REPLAYGAIN_TRACK_GAIN -7.49 dB
    REM REPLAYGAIN_TRACK_PEAK 0.999298
    INDEX 01 00:00:00
FILE "04 - Artur Rojek - Czas który pozostał.flac" WAVE
  TRACK 04 AUDIO
    TITLE "Czas który pozostał"
    PERFORMER "Artur Rojek"
    REM REPLAYGAIN_TRACK_GAIN -9.20 dB
    REM REPLAYGAIN_TRACK_PEAK 1.000000
    INDEX 01 00:00:00
FILE "05 - Artur Rojek - Kot i Pelikan.flac" WAVE
  TRACK 05 AUDIO
    TITLE "Kot i Pelikan"
    PERFORMER "Artur Rojek"
    REM REPLAYGAIN_TRACK_GAIN -5.41 dB
    REM REPLAYGAIN_TRACK_PEAK 0.979004
    INDEX 01 00:00:00
FILE "06 - Artur Rojek - Kokon.flac" WAVE
  TRACK 06 AUDIO
    TITLE "Kokon"
    PERFORMER "Artur Rojek"
    REM REPLAYGAIN_TRACK_GAIN -6.55 dB
    REM REPLAYGAIN_TRACK_PEAK 0.988556
    INDEX 01 00:00:00
FILE "07 - Artur Rojek - To co będzie.flac" WAVE
  TRACK 07 AUDIO
    TITLE "To co będzie"
    PERFORMER "Artur Rojek"
    REM REPLAYGAIN_TRACK_GAIN -9.05 dB
    REM REPLAYGAIN_TRACK_PEAK 1.000000
    INDEX 01 00:00:00
FILE "08 - Artur Rojek - Syreny.flac" WAVE
  TRACK 08 AUDIO
    TITLE "Syreny"
    PERFORMER "Artur Rojek"
    REM REPLAYGAIN_TRACK_GAIN -8.03 dB
    REM REPLAYGAIN_TRACK_PEAK 1.000000
    INDEX 01 00:00:00
FILE "09 - Artur Rojek - Lekkość.flac" WAVE
  TRACK 09 AUDIO
    TITLE "Lekkość"
    PERFORMER "Artur Rojek"
    REM REPLAYGAIN_TRACK_GAIN -7.35 dB
    REM REPLAYGAIN_TRACK_PEAK 0.998230
    INDEX 01 00:00:00
FILE "10 - Artur Rojek - Pomysł 2.flac" WAVE
  TRACK 10 AUDIO
    TITLE "Pomysł 2"
    PERFORMER "Artur Rojek"
    REM REPLAYGAIN_TRACK_GAIN -8.00 dB
    REM REPLAYGAIN_TRACK_PEAK 0.980560
    INDEX 01 00:00:00
Код:
Lossless Audio Checker 1.9.1 logfile from Sunday 06 April 2014 07:31:09 PM
File:   I:\1.POLAND\Artur Rojek - Składam się z ciągłych powtórzeń [2014] [FLAC]\01 - Artur Rojek - Lato 76.flac
Result: LOSSLESS
File:   I:\1.POLAND\Artur Rojek - Składam się z ciągłych powtórzeń [2014] [FLAC]\02 - Artur Rojek - Beksa.flac
Result: LOSSLESS
File:   I:\1.POLAND\Artur Rojek - Składam się z ciągłych powtórzeń [2014] [FLAC]\03 - Artur Rojek - Krótkie momenty skupienia.flac
Result: LOSSLESS
File:   I:\1.POLAND\Artur Rojek - Składam się z ciągłych powtórzeń [2014] [FLAC]\04 - Artur Rojek - Czas który pozostał.flac
Result: LOSSLESS
File:   I:\1.POLAND\Artur Rojek - Składam się z ciągłych powtórzeń [2014] [FLAC]\05 - Artur Rojek - Kot i Pelikan.flac
Result: LOSSLESS
File:   I:\1.POLAND\Artur Rojek - Składam się z ciągłych powtórzeń [2014] [FLAC]\06 - Artur Rojek - Kokon.flac
Result: LOSSLESS
File:   I:\1.POLAND\Artur Rojek - Składam się z ciągłych powtórzeń [2014] [FLAC]\07 - Artur Rojek - To co będzie.flac
Result: LOSSLESS
File:   I:\1.POLAND\Artur Rojek - Składam się z ciągłych powtórzeń [2014] [FLAC]\08 - Artur Rojek - Syreny.flac
Result: LOSSLESS
File:   I:\1.POLAND\Artur Rojek - Składam się z ciągłych powtórzeń [2014] [FLAC]\09 - Artur Rojek - Lekkość.flac
Result: LOSSLESS
File:   I:\1.POLAND\Artur Rojek - Składam się z ciągłych powtórzeń [2014] [FLAC]\10 - Artur Rojek - Pomysł 2.flac
Result: LOSSLESS
Files checked: 10 | Lossless: 10 | Cutoff: 0 | Error: 0 | Elapsed time: 00:00:45.475
Artur Rojek ‎– Składam Się Z Ciągłych Powtórzeń
Label: Kayax Production ‎– KAYAX 071
Country: Poland
Released: 04 Apr 2014
Genre: Rock, Funk / Soul, Pop
Style: Indie Rock
Distributed By – Agora SA – 5907678818287
Phonographic Copyright (p) – Kayax Production
Copyright (c) – Kayax Production
Pressed By – Takt – 2100004845879
Producer – Bartosz Dziedzic
Management – Sylwia Smoczyńska
Mastered By – Leszek Kamiński
Mixed By – Marcin Gajko
Engineer – Bartosz Dziedzic, Leszek Kamiński, Marcin Gajko, Marian Lech, Remek Zawadzki, Winicjusz Chróst
Design Concept, Artwork – Full Metal Jacket
Photography By – Przemek Dzienis
Photography By [Cover] – Jacek Poremba
Vocals, Acoustic Guitar – Artur Rojek
Bass, Synthesizer, Programmed By, Percussion, Vocals – Bartosz Dziedzic
Guitar, Toy Piano, Autoharp – Lesław Matecki
Percussion – Marcin Ułanowski
Piano, Synthesizer, Vocals – Katarzyna Piszek
Saxophone – Piotr Łyszkiewicz
Choir – Barbara Sobolewska, Stanisław Szczyciński
Правила, инструкции, FAQ!!!
Торрент  Добавлен [26 мар 2019, 20:35] Скачать торрент Магнет ссылка
Скачать торрент
[ Размер 18.78 КБ / Просмотров 4 ]

Статус
Проверен 
 
Размер  216.58 МБ
Приватный: Нет (DHT включён)
.torrent скачан  0
 


     Отправить личное сообщение
   
Страница 1 из 1
Показать сообщения за:  Поле сортировки  
Начать новую тему Ответить на тему


Сейчас этот форум просматривают: нет зарегистрированных пользователей и гости: 0


Вы не можете начинать темы
Вы не можете отвечать на сообщения
Вы не можете редактировать свои сообщения
Вы не можете удалять свои сообщения
Вы не можете добавлять вложения

Перейти:  
cron