Начать новую тему Ответить на тему
Статистика раздачи
Размер: 238.04 МБ | Добавлен: 26 мар 2019, 19:47 | Скачали: 0
Сидеров: 0  [0 байт/сек]    Личеров: 0  [0 байт/сек]
Пред. тема | След. тема 

Автор
Сообщение

СообщениеДобавлено: 26 мар 2019, 19:47 

Ответить с цитатой 

Liv Kristine - Skintight
Жанр: Pop-Rock / Indie
Год издания диска: 2010
Издатель (лейбл): Napalm Records
Страна: Norway
Аудио кодек: FLAC (*.flac)
Тип рипа: tracks+.cue
Битрейт аудио: lossless
Продолжительность: 35:12
Источник: yamfox (what.cd)
Наличие сканов в содержимом раздачи: нет
Official Homepage: livkristine.com

Треклист:
01. Skintight (3:18)
02. Twofold (3:07)
03. Train to Somewhere (3:33)
04. Love in Grey (4:10)
05. Emotional Catastrophes (2:44)
06. Life Line (3:05)
07. Boy at the Window (3:45)
08. Wonders (3:12)
09. Versified Harmonies (4:12)
10. The Rarest Flower (4:05)
Код:
Exact Audio Copy V0.99 prebeta 5 from 4. May 2009
EAC extraction logfile from 20. September 2010, 16:20
Skintight / Liv Kristine
Used drive  : _NEC    DVD+-RW ND-3530A   Adapter: 0  ID: 1
Read mode               : Secure
Utilize accurate stream : Yes
Defeat audio cache      : Yes
Make use of C2 pointers : No
Read offset correction                      : 48
Overread into Lead-In and Lead-Out          : No
Fill up missing offset samples with silence : Yes
Delete leading and trailing silent blocks   : No
Null samples used in CRC calculations       : Yes
Used interface                              : Native Win32 interface for Win NT & 2000
Gap handling                                : Not detected, thus appended to previous track
Used output format              : User Defined Encoder
Selected bitrate                : 768 kBit/s
Quality                         : High
Add ID3 tag                     : No
Command line compressor         : C:\Program Files\Exact Audio Copy\FLAC\FLAC.EXE
Additional command line options : -8 -V -T "ARTIST=%a" -T "TITLE=%t" -T "ALBUM=%g" -T "DATE=%y" -T "TRACKNUMBER=%n" -T "GENRE=%m" -T "COMMENT=%e" %s -o %d
TOC of the extracted CD
     Track |   Start  |  Length  | Start sector | End sector
    ---------------------------------------------------------
        1  |  0:00.00 |  3:18.11 |         0    |    14860
        2  |  3:18.11 |  3:07.29 |     14861    |    28914
        3  |  6:25.40 |  3:33.22 |     28915    |    44911
        4  |  9:58.62 |  4:09.72 |     44912    |    63658
        5  | 14:08.59 |  2:43.49 |     63659    |    75932
        6  | 16:52.33 |  3:04.63 |     75933    |    89795
        7  | 19:57.21 |  3:45.35 |     89796    |   106705
        8  | 23:42.56 |  3:11.66 |    106706    |   121096
        9  | 26:54.47 |  4:12.23 |    121097    |   140019
       10  | 31:06.70 |  4:04.74 |    140020    |   158393
Track  1
     Filename C:\Documents and Settings\yamfox\My Documents\Skintight\01. Skintight.wav
     Peak level 100.0 %
     Track quality 100.0 %
     Test CRC F582DEBE
     Copy CRC F582DEBE
     Track not present in AccurateRip database
     Copy OK
Track  2
     Filename C:\Documents and Settings\yamfox\My Documents\Skintight\02. Twofold.wav
     Peak level 100.0 %
     Track quality 100.0 %
     Test CRC 4AAFF7F2
     Copy CRC 4AAFF7F2
     Track not present in AccurateRip database
     Copy OK
Track  3
     Filename C:\Documents and Settings\yamfox\My Documents\Skintight\03. Train to Somewhere.wav
     Peak level 100.0 %
     Track quality 99.9 %
     Test CRC 41E0B7E4
     Copy CRC 41E0B7E4
     Track not present in AccurateRip database
     Copy OK
Track  4
     Filename C:\Documents and Settings\yamfox\My Documents\Skintight\04. Love in Grey.wav
     Peak level 100.0 %
     Track quality 100.0 %
     Test CRC 11BC3C83
     Copy CRC 11BC3C83
     Track not present in AccurateRip database
     Copy OK
Track  5
     Filename C:\Documents and Settings\yamfox\My Documents\Skintight\05. Emotional Catastrophes.wav
     Peak level 100.0 %
     Track quality 100.0 %
     Test CRC A2A2AC0E
     Copy CRC A2A2AC0E
     Track not present in AccurateRip database
     Copy OK
Track  6
     Filename C:\Documents and Settings\yamfox\My Documents\Skintight\06. Life Line.wav
     Peak level 100.0 %
     Track quality 100.0 %
     Test CRC 7BA43E00
     Copy CRC 7BA43E00
     Track not present in AccurateRip database
     Copy OK
Track  7
     Filename C:\Documents and Settings\yamfox\My Documents\Skintight\07. Boy at the Window.wav
     Peak level 100.0 %
     Track quality 99.9 %
     Test CRC B141977F
     Copy CRC B141977F
     Track not present in AccurateRip database
     Copy OK
Track  8
     Filename C:\Documents and Settings\yamfox\My Documents\Skintight\08. Wonders.wav
     Peak level 100.0 %
     Track quality 100.0 %
     Test CRC 8CC39AD6
     Copy CRC 8CC39AD6
     Track not present in AccurateRip database
     Copy OK
Track  9
     Filename C:\Documents and Settings\yamfox\My Documents\Skintight\09. Versified Harmonies.wav
     Peak level 100.0 %
     Track quality 100.0 %
     Test CRC D05439EC
     Copy CRC D05439EC
     Track not present in AccurateRip database
     Copy OK
Track 10
     Filename C:\Documents and Settings\yamfox\My Documents\Skintight\10. The Rarest Flower.wav
     Peak level 99.8 %
     Track quality 100.0 %
     Test CRC D8134DB0
     Copy CRC D8134DB0
     Track not present in AccurateRip database
     Copy OK
None of the tracks are present in the AccurateRip database
No errors occurred
End of status report
------------------------------------------------------------
Exact Audio Copy V0.99 prebeta 5 from 4. May 2009
EAC extraction logfile from 20. September 2010, 17:05
Skintight / Liv Kristine
Used drive  : _NEC    DVD+-RW ND-3530A   Adapter: 0  ID: 1
Read mode               : Secure
Utilize accurate stream : Yes
Defeat audio cache      : Yes
Make use of C2 pointers : No
Read offset correction                      : 48
Overread into Lead-In and Lead-Out          : No
Fill up missing offset samples with silence : Yes
Delete leading and trailing silent blocks   : No
Null samples used in CRC calculations       : Yes
Used interface                              : Native Win32 interface for Win NT & 2000
Gap handling                                : Appended to previous track
Used output format              : User Defined Encoder
Selected bitrate                : 768 kBit/s
Quality                         : High
Add ID3 tag                     : No
Command line compressor         : C:\Program Files\Exact Audio Copy\FLAC\FLAC.EXE
Additional command line options : -8 -V -T "ARTIST=%a" -T "TITLE=%t" -T "ALBUM=%g" -T "DATE=%y" -T "TRACKNUMBER=%n" -T "GENRE=%m" -T "COMMENT=%e" %s -o %d
TOC of the extracted CD
     Track |   Start  |  Length  | Start sector | End sector
    ---------------------------------------------------------
        1  |  0:00.00 |  3:18.11 |         0    |    14860
        2  |  3:18.11 |  3:07.29 |     14861    |    28914
        3  |  6:25.40 |  3:33.22 |     28915    |    44911
        4  |  9:58.62 |  4:09.72 |     44912    |    63658
        5  | 14:08.59 |  2:43.49 |     63659    |    75932
        6  | 16:52.33 |  3:04.63 |     75933    |    89795
        7  | 19:57.21 |  3:45.35 |     89796    |   106705
        8  | 23:42.56 |  3:11.66 |    106706    |   121096
        9  | 26:54.47 |  4:12.23 |    121097    |   140019
       10  | 31:06.70 |  4:04.74 |    140020    |   158393
Track  1
     Filename C:\Documents and Settings\yamfox\My Documents\Skintight\01. Skintight.wav
     Pre-gap length  0:00:02.00
     Peak level 100.0 %
     Track quality 100.0 %
     Test CRC F582DEBE
     Copy CRC F582DEBE
     Track not present in AccurateRip database
     Copy OK
Track  2
     Filename C:\Documents and Settings\yamfox\My Documents\Skintight\02. Twofold.wav
     Peak level 100.0 %
     Track quality 100.0 %
     Test CRC 4AAFF7F2
     Copy CRC 4AAFF7F2
     Track not present in AccurateRip database
     Copy OK
Track  3
     Filename C:\Documents and Settings\yamfox\My Documents\Skintight\03. Train to Somewhere.wav
     Peak level 100.0 %
     Track quality 100.0 %
     Test CRC 41E0B7E4
     Copy CRC 41E0B7E4
     Track not present in AccurateRip database
     Copy OK
Track  4
     Filename C:\Documents and Settings\yamfox\My Documents\Skintight\04. Love in Grey.wav
     Peak level 100.0 %
     Track quality 99.3 %
     Test CRC 11BC3C83
     Copy CRC 11BC3C83
     Track not present in AccurateRip database
     Copy OK
Track  5
     Filename C:\Documents and Settings\yamfox\My Documents\Skintight\05. Emotional Catastrophes.wav
     Peak level 100.0 %
     Track quality 99.8 %
     Test CRC A2A2AC0E
     Copy CRC A2A2AC0E
     Track not present in AccurateRip database
     Copy OK
Track  6
     Filename C:\Documents and Settings\yamfox\My Documents\Skintight\06. Life Line.wav
     Peak level 100.0 %
     Track quality 100.0 %
     Test CRC 7BA43E00
     Copy CRC 7BA43E00
     Track not present in AccurateRip database
     Copy OK
Track  7
     Filename C:\Documents and Settings\yamfox\My Documents\Skintight\07. Boy at the Window.wav
     Peak level 100.0 %
     Track quality 99.9 %
     Test CRC B141977F
     Copy CRC B141977F
     Track not present in AccurateRip database
     Copy OK
Track  8
     Filename C:\Documents and Settings\yamfox\My Documents\Skintight\08. Wonders.wav
     Peak level 100.0 %
     Track quality 100.0 %
     Test CRC 8CC39AD6
     Copy CRC 8CC39AD6
     Track not present in AccurateRip database
     Copy OK
Track  9
     Filename C:\Documents and Settings\yamfox\My Documents\Skintight\09. Versified Harmonies.wav
     Peak level 100.0 %
     Track quality 100.0 %
     Test CRC D05439EC
     Copy CRC D05439EC
     Track not present in AccurateRip database
     Copy OK
Track 10
     Filename C:\Documents and Settings\yamfox\My Documents\Skintight\10. The Rarest Flower.wav
     Peak level 99.8 %
     Track quality 99.8 %
     Test CRC D8134DB0
     Copy CRC D8134DB0
     Track not present in AccurateRip database
     Copy OK
None of the tracks are present in the AccurateRip database
No errors occurred
End of status report
Код:
REM GENRE "Pop"
REM DATE 2010
REM DISCID 73083F0A
REM COMMENT "ExactAudioCopy v0.99pb5"
PERFORMER "Liv Kristine"
TITLE "Skintight"
FILE "01. Skintight.wav" WAVE
  TRACK 01 AUDIO
    PERFORMER "Liv Kristine"
    TITLE "Skintight"
    INDEX 01 00:00:00
FILE "02. Twofold.wav" WAVE
  TRACK 02 AUDIO
    PERFORMER "Liv Kristine"
    TITLE "Twofold"
    INDEX 01 00:00:00
FILE "03. Train to Somewhere.wav" WAVE
  TRACK 03 AUDIO
    PERFORMER "Liv Kristine"
    TITLE "Train to Somewhere"
    INDEX 01 00:00:00
FILE "04. Love in Grey.wav" WAVE
  TRACK 04 AUDIO
    PERFORMER "Liv Kristine"
    TITLE "Love in Grey"
    INDEX 01 00:00:00
FILE "05. Emotional Catastrophes.wav" WAVE
  TRACK 05 AUDIO
    PERFORMER "Liv Kristine"
    TITLE "Emotional Catastrophes"
    INDEX 01 00:00:00
FILE "06. Life Line.wav" WAVE
  TRACK 06 AUDIO
    PERFORMER "Liv Kristine"
    TITLE "Life Line"
    INDEX 01 00:00:00
FILE "07. Boy at the Window.wav" WAVE
  TRACK 07 AUDIO
    PERFORMER "Liv Kristine"
    TITLE "Boy at the Window"
    INDEX 01 00:00:00
FILE "08. Wonders.wav" WAVE
  TRACK 08 AUDIO
    PERFORMER "Liv Kristine"
    TITLE "Wonders"
    INDEX 01 00:00:00
FILE "09. Versified Harmonies.wav" WAVE
  TRACK 09 AUDIO
    PERFORMER "Liv Kristine"
    TITLE "Versified Harmonies"
    INDEX 01 00:00:00
FILE "10. The Rarest Flower.wav" WAVE
  TRACK 10 AUDIO
    PERFORMER "Liv Kristine"
    TITLE "The Rarest Flower"
    INDEX 01 00:00:00
Код:
AUDIOCHECKER v2.0 beta (build 457) - by Dester - opdester@freemail.hu
~~~~~~~~~~~~~~~~~~~~~~~~~~~~~~~~~~
-=== DO NOT EDIT THIS FILE! ===-
Path: ...\Liv Kristine - Skintight (2010) EAC-FLAC
01 -=- 01. Skintight.flac -=- CDDA (100%)
02 -=- 02. Twofold.flac -=- CDDA (100%)
03 -=- 03. Train to Somewhere.flac -=- CDDA (100%)
04 -=- 04. Love in Grey.flac -=- CDDA (99%)
05 -=- 05. Emotional Catastrophes.flac -=- CDDA (100%)
06 -=- 06. Life Line.flac -=- CDDA (100%)
07 -=- 07. Boy at the Window.flac -=- CDDA (100%)
08 -=- 08. Wonders.flac -=- CDDA (100%)
09 -=- 09. Versified Harmonies.flac -=- CDDA (100%)
10 -=- 10. The Rarest Flower.flac -=- CDDA (100%)
Summary 99,90% CDDA
225432436
Правила, инструкции, FAQ!!!
Торрент  Добавлен [26 мар 2019, 19:47] Скачать торрент Магнет ссылка
Скачать торрент
[ Размер 19.75 КБ / Просмотров 4 ]

Статус
Проверен 
 
Размер  238.04 МБ
Приватный: Нет (DHT включён)
.torrent скачан  0
 


     Отправить личное сообщение
   
Страница 1 из 1
Показать сообщения за:  Поле сортировки  
Начать новую тему Ответить на тему


Сейчас этот форум просматривают: нет зарегистрированных пользователей и гости: 0


Вы не можете начинать темы
Вы не можете отвечать на сообщения
Вы не можете редактировать свои сообщения
Вы не можете удалять свои сообщения
Вы не можете добавлять вложения

Перейти:  
cron