Начать новую тему Ответить на тему
Статистика раздачи
Размер: 357.74 МБ | Добавлен: 26 мар 2019, 19:58 | Скачали: 0
Сидеров: 0  [0 байт/сек]    Личеров: 0  [0 байт/сек]
Пред. тема | След. тема 

Автор
Сообщение

СообщениеДобавлено: 26 мар 2019, 19:58 

Ответить с цитатой 

Anna Nalick - Wreck Of The Day
Жанр: Pop-Rock/Indie
Год выпуска диска: 2006
Производитель диска: USA
Аудио кодек: FLAC
Тип рипа: tracks+.cue
Битрейт аудио: lossless
Продолжительность: 57:05
Трэклист:
1. Breathe (2 AM)
2. Citadel
3. Paper Bag
4. Wreck of the Day
5. Satellite
6. Forever Love (Digame)
7. In the Rough
8. In My Head
9. Bleed
10. Catalyst
11. Consider This
2006 Reissue:
12. Wreck of the Day (Acoustic)
13. Drink Me (Early Demo)
14. Soldier (Early Demo)
15. More Than Melody (Early Demo)
EAC extraction logfile from 30. July 2006, 16:42 for CD
Anna Nalick / Wreck Of The Day
Used drive : PLEXTOR DVDR PX-716A Adapter: 1 ID: 1
Read mode : Secure with NO C2, accurate stream, disable cache
Read offset correction : 30
Overread into Lead-In and Lead-Out : Yes
Used output format : D:\Documents and Settings\Administrator\Desktop\EAC-essential\Codecs\flac.exe (User Defined Encoder)
320 kBit/s
Additional command line options : -8 -V -T "artist=%a" -T "title=%t" -T "album=%g" -T "date=%y" -T "tracknumber=%n" -T "genre=%m" %s
Other options :
Fill up missing offset samples with silence : Yes
Delete leading and trailing silent blocks : No
Native Win32 interface for Win NT & 2000
Track 1
Filename C:\Rips\Anna Nalick - Wreck Of The Day (2006)\01 - Breathe (2 AM).wav
Pre-gap length 0:00:02.00
Peak level 90.6 %
Track quality 100.0 %
Test CRC C5299B9D
Copy CRC C5299B9D
Copy OK
Track 2
Filename C:\Rips\Anna Nalick - Wreck Of The Day (2006)\02 - Citadel.wav
Peak level 95.3 %
Track quality 100.0 %
Test CRC 39D33690
Copy CRC 39D33690
Copy OK
Track 3
Filename C:\Rips\Anna Nalick - Wreck Of The Day (2006)\03 - Paper Bag.wav
Peak level 94.9 %
Track quality 100.0 %
Test CRC C45C7B93
Copy CRC C45C7B93
Copy OK
Track 4
Filename C:\Rips\Anna Nalick - Wreck Of The Day (2006)\04 - Wreck Of The Day.wav
Pre-gap length 0:00:00.29
Peak level 88.3 %
Track quality 100.0 %
Test CRC 92C62CCE
Copy CRC 92C62CCE
Copy OK
Track 5
Filename C:\Rips\Anna Nalick - Wreck Of The Day (2006)\05 - Satellite.wav
Peak level 91.4 %
Track quality 100.0 %
Test CRC EAC45919
Copy CRC EAC45919
Copy OK
Track 6
Filename C:\Rips\Anna Nalick - Wreck Of The Day (2006)\06 - Forever Love (Digame).wav
Peak level 88.5 %
Track quality 99.9 %
Test CRC 02E87157
Copy CRC 02E87157
Copy OK
Track 7
Filename C:\Rips\Anna Nalick - Wreck Of The Day (2006)\07 - In The Rough.wav
Pre-gap length 0:00:00.33
Peak level 99.8 %
Track quality 100.0 %
Test CRC 5E925B4F
Copy CRC 5E925B4F
Copy OK
Track 8
Filename C:\Rips\Anna Nalick - Wreck Of The Day (2006)\08 - In My Head.wav
Peak level 91.6 %
Track quality 100.0 %
Test CRC EA155ECE
Copy CRC EA155ECE
Copy OK
Track 9
Filename C:\Rips\Anna Nalick - Wreck Of The Day (2006)\09 - Bleed.wav
Pre-gap length 0:00:00.04
Peak level 93.4 %
Track quality 99.9 %
Test CRC 9FC480CB
Copy CRC 9FC480CB
Copy OK
Track 10
Filename C:\Rips\Anna Nalick - Wreck Of The Day (2006)\10 - Catalyst.wav
Pre-gap length 0:00:00.69
Peak level 95.2 %
Track quality 100.0 %
Test CRC F0089BEA
Copy CRC F0089BEA
Copy OK
Track 11
Filename C:\Rips\Anna Nalick - Wreck Of The Day (2006)\11 - Consider This.wav
Peak level 96.5 %
Track quality 100.0 %
Test CRC ADD2249E
Copy CRC ADD2249E
Copy OK
Track 12
Filename C:\Rips\Anna Nalick - Wreck Of The Day (2006)\12 - Wreck Of The Day (2006).wav
Pre-gap length 0:00:07.66
Peak level 100.0 %
Track quality 100.0 %
Test CRC 2BEB938E
Copy CRC 2BEB938E
Copy OK
Track 13
Filename C:\Rips\Anna Nalick - Wreck Of The Day (2006)\13 - Drink Me (early demo).wav
Pre-gap length 0:00:01.69
Peak level 78.7 %
Track quality 100.0 %
Test CRC C1A36D4D
Copy CRC C1A36D4D
Copy OK
Track 14
Filename C:\Rips\Anna Nalick - Wreck Of The Day (2006)\14 - Soldier (early demo).wav
Pre-gap length 0:00:00.76
Peak level 92.5 %
Track quality 100.0 %
Test CRC 9C186291
Copy CRC 9C186291
Copy OK
Track 15
Filename C:\Rips\Anna Nalick - Wreck Of The Day (2006)\15 - More Than Melody (early demo).wav
Pre-gap length 0:00:00.66
Peak level 96.6 %
Track quality 99.8 %
Test CRC 5670AFC6
Copy CRC 5670AFC6
Copy OK
No errors occured
End of status report
[Verification date: 03.10.2009 13:48:27]
[Disc ID: 001f73b8-0164cb40-d30d610f]
Track [ CRC ] Status
01 [743d8d03] (18/18) Accurately ripped
02 [4825c772] (16/16) Accurately ripped
03 [7b4a107d] (15/15) Accurately ripped
04 [af15155c] (15/15) Accurately ripped
05 [eccbe454] (15/15) Accurately ripped
06 [311283d0] (15/15) Accurately ripped
07 [7c2bc5d8] (18/18) Accurately ripped
08 [48734fe1] (16/16) Accurately ripped
09 [c5e86295] (15/15) Accurately ripped
10 [2f7c5959] (15/15) Accurately ripped
11 [d80ad20d] (16/16) Accurately ripped
12 [9390681e] (15/15) Accurately ripped
13 [11c5541a] (16/16) Accurately ripped
14 [358fa392] (15/15) Accurately ripped
15 [02747392] (14/14) Accurately ripped
Track [ CRC32 ] [W/O NULL] [ LOG ]
-- [69B372A6] [B920E37F]
01 [C5299B9D] [D95E3DE8] CRC32
02 [39D33690] [68815802] CRC32
03 [C45C7B93] [1F768EC2] CRC32
04 [92C62CCE] [1A115522] CRC32
05 [EAC45919] [40990C4A] CRC32
06 [02E87157] [4970BFB0] CRC32
07 [5E925B4F] [F4F9EA6A] CRC32
08 [EA155ECE] [DBF165F8] CRC32
09 [9FC480CB] [B0CD5F6E] CRC32
10 [F0089BEA] [FED4BC7C] CRC32
11 [ADD2249E] [35CFCF06] CRC32
12 [2BEB938E] [1AE6968F] CRC32
13 [C1A36D4D] [1F5783E0] CRC32
14 [9C186291] [DD529D90] CRC32
15 [5670AFC6] [1B7FEEB4] CRC32
Источник: what.cd
Доп. информация: Wreck of the Day is the debut album by singer-songwriter Anna Nalick, first released in the United States on April 19, 2005 by Columbia Records. It was produced by ex-Blind Melon members Brad Smith and Christopher Thorn at their own Studio Wishbone.
Правила, инструкции, FAQ!!!
Торрент  Добавлен [26 мар 2019, 19:58] Скачать торрент Магнет ссылка
Скачать торрент
[ Размер 15.83 КБ / Просмотров 5 ]

Статус
Проверен 
 
Размер  357.74 МБ
Приватный: Нет (DHT включён)
.torrent скачан  0
 


     Отправить личное сообщение
   
Страница 1 из 1
Показать сообщения за:  Поле сортировки  
Начать новую тему Ответить на тему


Сейчас этот форум просматривают: нет зарегистрированных пользователей и гости: 0


Вы не можете начинать темы
Вы не можете отвечать на сообщения
Вы не можете редактировать свои сообщения
Вы не можете удалять свои сообщения
Вы не можете добавлять вложения

Перейти:  
cron