Начать новую тему Ответить на тему
Статистика раздачи
Размер: 122.67 МБ | Добавлен: 26 мар 2019, 19:31 | Скачали: 0
Сидеров: 0  [0 байт/сек]    Личеров: 0  [0 байт/сек]
Пред. тема | След. тема 

Автор
Сообщение

СообщениеДобавлено: 26 мар 2019, 19:31 

Ответить с цитатой 

Anna Nalick - Shine (EP)
Жанр: Pop-Rock/Indie
Год выпуска диска: 2008
Производитель диска: USA
Аудио кодек: FLAC
Тип рипа: tracks+.cue
Битрейт аудио: lossless
Продолжительность: 20:24
Трэклист:
01. Anna Nalick - Shine (03:32)
02. Anna Nalick - Breathe (2 AM) [Acoustic Version] (04:17)
03. Anna Nalick - Wreck Of The Day [Acoustic Version] (03:57)
04. Anna Nalick - Breaking The Girl (04:54) (originally performed by Red Hot Chili Peppers)
05. Anna Nalick - Shine [Acoustic Version] (03:41)
EAC extraction logfile from 5. April 2008, 17:39 for CD
Anna Nalick / Shine EP
Used drive : SONY DVD+-RW DW-D56A Adapter: 1 ID: 0
Read mode : Secure with NO C2, accurate stream, disable cache
Read offset correction : 12
Overread into Lead-In and Lead-Out : No
Used output format : C:\Program Files\Exact Audio Copy\FLAC\flac.exe (User Defined Encoder)
192 kBit/s
Additional command line options : -V -8 -T "artist=%a" -T "title=%t" -T "album=%g" -T "date=%y" -T "tracknumber=%n" -T "genre=%m" %s
Other options :
Fill up missing offset samples with silence : Yes
Delete leading and trailing silent blocks : No
Installed external ASPI interface
Track 1
Filename C:\Documents and Settings\John\Desktop\Anna Nalick - Shine EP (2008) - FLAC\01 - Anna Nalick - Shine.wav
Pre-gap length 0:00:02.00
Peak level 99.9 %
Track quality 100.0 %
Test CRC 28668304
Copy CRC 28668304
Copy OK
Track 2
Filename C:\Documents and Settings\John\Desktop\Anna Nalick - Shine EP (2008) - FLAC\02 - Anna Nalick - Breathe (2 AM) [Acoustic Version].wav
Pre-gap length 0:00:01.00
Peak level 98.8 %
Track quality 100.0 %
Test CRC FF90F031
Copy CRC FF90F031
Copy OK
Track 3
Filename C:\Documents and Settings\John\Desktop\Anna Nalick - Shine EP (2008) - FLAC\03 - Anna Nalick - Wreck Of The Day [Acoustic Version].wav
Pre-gap length 0:00:01.00
Peak level 98.8 %
Track quality 99.9 %
Test CRC CF9B8624
Copy CRC CF9B8624
Copy OK
Track 4
Filename C:\Documents and Settings\John\Desktop\Anna Nalick - Shine EP (2008) - FLAC\04 - Anna Nalick - Breaking The Girl.wav
Pre-gap length 0:00:01.00
Peak level 98.8 %
Track quality 100.0 %
Test CRC B6750F2C
Copy CRC B6750F2C
Copy OK
Track 5
Filename C:\Documents and Settings\John\Desktop\Anna Nalick - Shine EP (2008) - FLAC\05 - Anna Nalick - Shine [Acoustic Version].wav
Pre-gap length 0:00:01.00
Peak level 86.4 %
Track quality 100.0 %
Test CRC 305D38C4
Copy CRC 305D38C4
Copy OK
No errors occured
End of status report
[Verification date: 03.10.2009 13:50:07]
[Disc ID: 000423e3-00137bfb-2304c805]
Track [ CRC ] Status
01 [dcc489a1] (04/04) Accurately ripped
02 [1980dc3b] (04/04) Accurately ripped
03 [7d27c0a6] (04/04) Accurately ripped
04 [97a40d66] (04/04) Accurately ripped
05 [99ed80ab] (04/04) Accurately ripped
Track [ CRC32 ] [W/O NULL] [ LOG ]
-- [3481F89B] [D8BFC1D4]
01 [28668304] [B02A216D] CRC32
02 [FF90F031] [35C6CAB2] CRC32
03 [CF9B8624] [BABF5C75] CRC32
04 [B6750F2C] [01FE5C1E] CRC32
05 [305D38C4] [6DEA8C88] CRC32
Источник: what.cd
Доп. информация: Shine is a 5 song EP by Anna Nalick, released on April 1, 2008. It is comprised of the album version of the new song "Shine", two acoustic versions of songs from her debut album ("Breathe (2 AM)" and "Wreck of the Day"), a cover version of Red Hot Chili Peppers song "Breaking the Girl," and an acoustic version of the title track.
Правила, инструкции, FAQ!!!
Торрент  Добавлен [26 мар 2019, 19:31] Скачать торрент Магнет ссылка
Скачать торрент
[ Размер 20.22 КБ / Просмотров 1 ]

Статус
Проверен 
 
Размер  122.67 МБ
Приватный: Нет (DHT включён)
.torrent скачан  0
 


     Отправить личное сообщение
   
Страница 1 из 1
Показать сообщения за:  Поле сортировки  
Начать новую тему Ответить на тему


Сейчас этот форум просматривают: нет зарегистрированных пользователей и гости: 0


Вы не можете начинать темы
Вы не можете отвечать на сообщения
Вы не можете редактировать свои сообщения
Вы не можете удалять свои сообщения
Вы не можете добавлять вложения

Перейти:  
cron